  0
SECTION
  2
HEADER
  9
$ACADVER
  1
AC1012
  9
$INSBASE
 10
0.0
 20
0.0
  9
$VIEWCTR
 10
7.531722
 20
4.5
  9
$VIEWSIZE
 40
9.0
  9
$SNAPMODE
 70
     0
  9
$SNAPUNIT
 10
1.0
 20
1.0
  9
$SNAPBASE
 10
0.0
 20
0.0
  9
$SNAPANG
 50
0.0
  9
$SNAPSTYLE
 70
     0
  9
$SNAPISOPAIR
 70
     0
  9
$GRIDMODE
 70
     0
  9
$GRIDUNIT
 10
0.0
 20
0.0
  9
$ORTHOMODE
 70
     0
  9
$REGENMODE
 70
     1
  9
$FILLMODE
 70
     1
  9
$QTEXTMODE
 70
     0
  9
$DRAGMODE
 70
     2
  9
$LTSCALE
 40
1.0
  9
$OSMODE
 70
     0
  9
$ATTMODE
 70
     1
  9
$TEXTSIZE
 40
0.2
  9
$TRACEWID
 40
0.05
  9
$TEXTSTYLE
  7
STANDARD
  9
$CELTYPE
  6
BYLAYER
  9
$CECOLOR
 62
   256
  9
$DIMSCALE
 40
1.0
  9
$DIMASZ
 40
0.18
  9
$DIMEXO
 40
0.0625
  9
$DIMDLI
 40
0.38
  9
$DIMRND
 40
0.0
  9
$DIMDLE
 40
0.0
  9
$DIMEXE
 40
0.18
  9
$DIMTP
 40
0.0
  9
$DIMTM
 40
0.0
  9
$DIMTXT
 40
0.18
  9
$DIMCEN
 40
0.09
  9
$DIMTSZ
 40
0.0
  9
$DIMTOL
 70
     0
  9
$DIMLIM
 70
     0
  9
$DIMTIH
 70
     1
  9
$DIMTOH
 70
     1
  9
$DIMSE1
 70
     0
  9
$DIMSE2
 70
     0
  9
$DIMTAD
 70
     0
  9
$DIMZIN
 70
     0
  9
$DIMBLK
  1

  9
$LUNITS
 70
     2
  9
$LUPREC
 70
     4
  9
$AXISMODE
 70
     0
  9
$AXISUNIT
 10
0.0
 20
0.0
  9
$SKETCHINC
 40
0.1
  9
$FILLETRAD
 40
0.0
  9
$AUNITS
 70
     0
  9
$AUPREC
 70
     0
  9
$MENU
  1
ACAD
  9
$ELEVATION
 40
0.0
  9
$THICKNESS
 40
0.0
  9
$VIEWDIR
 10
0.0
 20
0.0
 30
1.0
  9
$LIMCHECK
 70
     0
  9
$BLIPMODE
 70
     1
  9
$CHAMFERA
 40
0.0
  9
$CHAMFERB
 40
0.0
  9
$FASTZOOM
 70
     1
  9
$SKPOLY
 70
     0
  9
$TDCREATE
 40
0000000.0000000000
  9
$TDUPDATE
 40
0000000.0000000000
  9
$TDINDWG
 40
0.0000000000
  9
$TDUSRTIMER
 40
0.0000000000
  9
$USRTIMER
 70
     1
  9
$ANGBASE
 50
0.0
  9
$ANGDIR
 70
     0
  9
$PDMODE
 70
     0
  9
$PDSIZE
 40
0.0
  9
$PLINEWID
 40
0.0
  9
$COORDS
 70
     0
  9
$USERI1
 70
     0
  9
$USERI2
 70
     0
  9
$USERI3
 70
     0
  9
$USERI4
 70
     0
  9
$USERI5
 70
     0
  9
$USERR1
 40
0.0
  9
$USERR2
 40
0.0
  9
$USERR3
 40
0.0
  9
$USERR4
 40
0.0
  9
$USERR5
 40
0.0
  9
$CLAYER
  8
M0
  9
$EXTMIN
 10
0.0
 20
0.0
  9
$EXTMAX
 10
297.0
 20
210.0
  9
$LIMMIN
 10
0.0
 20
0.0
  9
$LIMMAX
 10
297.0
 20
210.0
  9
$HANDSEED
  5
55B
  0
ENDSEC
  0
SECTION
  2
CLASSES
  0
ENDSEC
  0
SECTION
  2
TABLES
  0
TABLE
  2
VPORT
  5
8
100
AcDbSymbolTable
 70
     2
  0
VPORT
  5
14
100
AcDbSymbolTableRecord
100
AcDbViewportTableRecord
  2
*ACTIVE
 70
     0
 10
0.0
 20
0.0
 11
1.0
 21
1.0
 12
484.0
 22
297.0
 13
0.0
 23
0.0
 14
1.0
 24
1.0
 15
0.0
 25
0.0
 16
0.0
 26
0.0
 36
1.0
 17
0.0
 27
0.0
 37
0.0
 40
594.0
 41
2.0
 42
50.0
 43
0.0
 44
0.0
 50
0.0
 51
0.0
 71
     0
 72
   100
 73
     1
 74
     1
 75
     0
 76
     0
 77
     0
 78
     0
  0
ENDTAB
  0
TABLE
  2
LTYPE
  5
5
100
AcDbSymbolTable
 70
     5
  0
LTYPE
  5
15
100
AcDbSymbolTableRecord
100
AcDbLinetypeTableRecord
  2
BYBLOCK
 70
     0
  3

 72
    65
 73
     0
 40
0.0
  0
LTYPE
  5
16
100
AcDbSymbolTableRecord
100
AcDbLinetypeTableRecord
  2
BYLAYER
 70
     0
  3

 72
    65
 73
     0
 40
0.0
  0
LTYPE
  5
17
100
AcDbSymbolTableRecord
100
AcDbLinetypeTableRecord
  2
CONTINUOUS
 70
    64
  3
Solid line
 72
    65
 73
     0
 40
0.0
  0
LTYPE
  5
18
100
AcDbSymbolTableRecord
100
AcDbLinetypeTableRecord
  2
DASHED
 70
    64
  3
__ __ __ __ __ __ __ __ __ __ __ __ __ __ __ __
 72
    65
 73
     2
 40
0.75
 49
0.5
 74
     0
 49
-0.25
 74
     0
  0
LTYPE
  5
19
100
AcDbSymbolTableRecord
100
AcDbLinetypeTableRecord
  2
DASHDOT
 70
    64
  3
__ . __ . __ . __ . __ . __ . __ . __ . __ . __
 72
    65
 73
     4
 40
1.0
 49
0.5
 74
     0
 49
-0.25
 74
     0
 49
0.0
 74
     0
 49
-0.25
 74
     0
  0
LTYPE
  5
1A
100
AcDbSymbolTableRecord
100
AcDbLinetypeTableRecord
  2
DIVIDE
 70
    64
  3
____ . . ____ . . ____ . . ____ . . ____ . . __
 72
    65
 73
     6
 40
1.25
 49
0.5
 74
     0
 49
-0.25
 74
     0
 49
0.0
 74
     0
 49
-0.25
 74
     0
 49
0.0
 74
     0
 49
-0.25
 74
     0
  0
LTYPE
  5
1B
100
AcDbSymbolTableRecord
100
AcDbLinetypeTableRecord
  2
DOT
 70
    64
  3
. . . . . . . . . . . . . . . . . . . . . . . .
 72
    65
 73
     2
 40
0.25
 49
0.0
 74
     0
 49
-0.25
 74
     0
  0
ENDTAB
  0
TABLE
  2
LAYER
  5
2
100
AcDbSymbolTable
 70
   102
  0
LAYER
  5
F
100
AcDbSymbolTableRecord
100
AcDbLayerTableRecord
  2
0
 70
     0
 62
     7
  6
CONTINUOUS
  0
LAYER
  5
1C
100
AcDbSymbolTableRecord
100
AcDbLayerTableRecord
  2
DEFPOINTS
 70
     0
 62
     7
  6
CONTINUOUS
  0
LAYER
  5
1D
100
AcDbSymbolTableRecord
100
AcDbLayerTableRecord
  2
M0
 70
     0
 62
     3
  6
CONTINUOUS
  0
LAYER
  5
1E
100
AcDbSymbolTableRecord
100
AcDbLayerTableRecord
  2
DD0
 70
     0
 62
     4
  6
CONTINUOUS
  0
ENDTAB
  0
TABLE
  2
STYLE
  5
3
100
AcDbSymbolTable
 70
     2
  0
STYLE
  5
10
100
AcDbSymbolTableRecord
100
AcDbTextStyleTableRecord
  2
STANDARD
 70
     0
 40
0.0
 41
1.0
 50
0.0
 71
     0
 42
0.2
  3
txt
  4
BIGFONT
  0
ENDTAB
  0
TABLE
  2
VIEW
  5
6
100
AcDbSymbolTable
 70
     0
  0
ENDTAB
  0
TABLE
  2
UCS
  5
7
100
AcDbSymbolTable
 70
     0
  0
ENDTAB
  0
TABLE
  2
APPID
  5
9
100
AcDbSymbolTable
 70
     1
  0
APPID
  5
11
100
AcDbSymbolTableRecord
100
AcDbRegAppTableRecord
  2
ACAD
 70
     0
  0
ENDTAB
  0
TABLE
  2
DIMSTYLE
  5
A
100
AcDbSymbolTable
 70
     2
  0
DIMSTYLE
105
25
100
AcDbSymbolTableRecord
100
AcDbDimStyleTableRecord
  2
STANDARD
 70
     0
  3

  4

  5

  6
_OPEN
  7
_OPEN
 40
1.0
 41
3.0
 42
0.0
 43
8.0
 44
1.5
 45
0.0
 46
0.0
 47
0.0
 48
0.0
140
3.5
141
0.09
142
0.0
143
0.03937
144
1.0
145
0.0
146
1.0
147
1.0
 71
     0
 72
     0
 73
     0
 74
     0
 75
     0
 76
     0
 77
     3
 78
     8
170
     0
171
     2
172
     0
173
     1
174
     0
175
     0
176
     0
177
     0
178
     0
270
     2
271
     2
272
     4
273
     2
274
     2
340
10
275
     0
280
     0
281
     0
282
     0
283
     1
284
     0
285
     0
286
     0
287
     3
288
     0
  0
DIMSTYLE
105
26
100
AcDbSymbolTableRecord
100
AcDbDimStyleTableRecord
  2
LEADSTYL
 70
     0
  3

  4

  5

  6
_OPEN
  7
_OPEN
 40
1.0
 41
3.0
 42
0.0625
 43
0.38
 44
0.18
 45
0.0
 46
0.0
 47
0.0
 48
0.0
140
3.2
141
0.09
142
0.0
143
25.4
144
1.0
145
0.0
146
1.0
147
1.0
 71
     0
 72
     0
 73
     1
 74
     1
 75
     0
 76
     0
 77
     0
 78
     0
170
     0
171
     2
172
     0
173
     1
174
     0
175
     0
176
     0
177
     0
178
     0
270
     2
271
     4
272
     4
273
     2
274
     2
340
10
275
     0
280
     0
281
     0
282
     0
283
     1
284
     0
285
     0
286
     0
287
     3
288
     0
  0
ENDTAB
  0
TABLE
  2
BLOCK_RECORD
  5
1
100
AcDbSymbolTable
 70
    17
  0
BLOCK_RECORD
  5
1F
100
AcDbSymbolTableRecord
100
AcDbBlockTableRecord
  2
*MODEL_SPACE
  0
BLOCK_RECORD
  5
22
100
AcDbSymbolTableRecord
100
AcDbBlockTableRecord
  2
*PAPER_SPACE
  0
BLOCK_RECORD
  5
27
100
AcDbSymbolTableRecord
100
AcDbBlockTableRecord
  2
_NONE
  0
BLOCK_RECORD
  5
2B
100
AcDbSymbolTableRecord
100
AcDbBlockTableRecord
  2
_OPEN
  0
BLOCK_RECORD
  5
31
100
AcDbSymbolTableRecord
100
AcDbBlockTableRecord
  2
_CLOSED
  0
BLOCK_RECORD
  5
38
100
AcDbSymbolTableRecord
100
AcDbBlockTableRecord
  2
_ORIGIN
  0
BLOCK_RECORD
  5
3D
100
AcDbSymbolTableRecord
100
AcDbBlockTableRecord
  2
_DOT
  0
BLOCK_RECORD
  5
45
100
AcDbSymbolTableRecord
100
AcDbBlockTableRecord
  2
_OBLIQUE
  0
BLOCK_RECORD
  5
49
100
AcDbSymbolTableRecord
100
AcDbBlockTableRecord
  2
*D0
  0
BLOCK_RECORD
  5
58
100
AcDbSymbolTableRecord
100
AcDbBlockTableRecord
  2
*D1
  0
BLOCK_RECORD
  5
67
100
AcDbSymbolTableRecord
100
AcDbBlockTableRecord
  2
*D2
  0
BLOCK_RECORD
  5
76
100
AcDbSymbolTableRecord
100
AcDbBlockTableRecord
  2
LEAD0
  0
BLOCK_RECORD
  5
7B
100
AcDbSymbolTableRecord
100
AcDbBlockTableRecord
  2
*D3
  0
BLOCK_RECORD
  5
88
100
AcDbSymbolTableRecord
100
AcDbBlockTableRecord
  2
*D4
  0
BLOCK_RECORD
  5
95
100
AcDbSymbolTableRecord
100
AcDbBlockTableRecord
  2
*D5
  0
BLOCK_RECORD
  5
A4
100
AcDbSymbolTableRecord
100
AcDbBlockTableRecord
  2
LEAD1
  0
BLOCK_RECORD
  5
AB
100
AcDbSymbolTableRecord
100
AcDbBlockTableRecord
  2
LEAD2
  0
BLOCK_RECORD
  5
B2
100
AcDbSymbolTableRecord
100
AcDbBlockTableRecord
  2
LEAD3
  0
BLOCK_RECORD
  5
B7
100
AcDbSymbolTableRecord
100
AcDbBlockTableRecord
  2
*D6
  0
ENDTAB
  0
ENDSEC
  0
SECTION
  2
BLOCKS
  0
BLOCK
  5
20
100
AcDbEntity
  8
0
100
AcDbBlockBegin
  2
*MODEL_SPACE
 70
     0
 10
0.0
 20
0.0
 30
0.0
  3
*MODEL_SPACE
  1

  0
ENDBLK
  5
21
100
AcDbEntity
  8
0
100
AcDbBlockEnd
  0
BLOCK
  5
23
100
AcDbEntity
 67
     1
  8
0
100
AcDbBlockBegin
  2
*PAPER_SPACE
 70
     0
 10
0.0
 20
0.0
 30
0.0
  3
*PAPER_SPACE
  1

  0
ENDBLK
  5
24
100
AcDbEntity
 67
     1
  8
0
100
AcDbBlockEnd
  0
BLOCK
  5
28
100
AcDbEntity
  8
0
100
AcDbBlockBegin
  2
_NONE
 70
     0
 10
0.0
 20
0.0
  0
CIRCLE
  5
29
100
AcDbEntity
  8
0
 62
     0
100
AcDbCircle
 10
0.0
 20
0.0
 40
0.25
  0
ENDBLK
  5
2A
100
AcDbEntity
  8
0
100
AcDbBlockEnd
  0
BLOCK
  5
2C
100
AcDbEntity
  8
0
100
AcDbBlockBegin
  2
_OPEN
 70
     0
 10
0.0
 20
0.0
  0
LINE
  5
2D
100
AcDbEntity
  8
0
 62
     0
100
AcDbLine
 10
-0.965926
 20
0.258819
 11
0.0
 21
0.0
  0
LINE
  5
2E
100
AcDbEntity
  8
0
 62
     0
100
AcDbLine
 10
0.0
 20
0.0
 11
-0.965926
 21
-0.258819
  0
LINE
  5
2F
100
AcDbEntity
  8
0
 62
     0
100
AcDbLine
 10
0.0
 20
0.0
 11
-1.0
 21
0.0
  0
ENDBLK
  5
30
100
AcDbEntity
  8
0
100
AcDbBlockEnd
  0
BLOCK
  5
32
100
AcDbEntity
  8
0
100
AcDbBlockBegin
  2
_CLOSED
 70
     0
 10
0.0
 20
0.0
  0
LINE
  5
33
100
AcDbEntity
  8
0
 62
     0
100
AcDbLine
 10
-0.965926
 20
0.258819
 11
0.0
 21
0.0
  0
LINE
  5
34
100
AcDbEntity
  8
0
 62
     0
100
AcDbLine
 10
0.0
 20
0.0
 11
-0.965926
 21
-0.258819
  0
LINE
  5
35
100
AcDbEntity
  8
0
 62
     0
100
AcDbLine
 10
-0.965926
 20
0.258819
 11
-0.965926
 21
-0.258819
  0
LINE
  5
36
100
AcDbEntity
  8
0
 62
     0
100
AcDbLine
 10
0.0
 20
0.0
 11
-1.0
 21
0.0
  0
ENDBLK
  5
37
100
AcDbEntity
  8
0
100
AcDbBlockEnd
  0
BLOCK
  5
39
100
AcDbEntity
  8
0
100
AcDbBlockBegin
  2
_ORIGIN
 70
     0
 10
0.0
 20
0.0
  0
CIRCLE
  5
3A
100
AcDbEntity
  8
0
 62
     0
100
AcDbCircle
 10
0.0
 20
0.0
 40
0.5
  0
LINE
  5
3B
100
AcDbEntity
  8
0
 62
     0
100
AcDbLine
 10
0.0
 20
0.0
 11
-1.0
 21
0.0
  0
ENDBLK
  5
3C
100
AcDbEntity
  8
0
100
AcDbBlockEnd
  0
BLOCK
  5
3E
100
AcDbEntity
  8
0
100
AcDbBlockBegin
  2
_DOT
 70
     0
 10
0.0
 20
0.0
  0
POLYLINE
  5
3F
100
AcDbEntity
  8
0
 62
     0
100
AcDb2dPolyline
 66
     1
 70
     1
 40
0.5
 41
0.5
  0
VERTEX
  5
40
100
AcDbEntity
  8
0
 62
     0
100
AcDbVertex
100
AcDb2dVertex
 10
-0.25
 20
0.0
 42
1.0
  0
VERTEX
  5
41
100
AcDbEntity
  8
0
 62
     0
100
AcDbVertex
100
AcDb2dVertex
 10
0.25
 20
0.0
 42
1.0
  0
SEQEND
  5
42
100
AcDbEntity
  8
0
 62
     0
  0
LINE
  5
43
100
AcDbEntity
  8
0
 62
     0
100
AcDbLine
 10
-0.5
 20
0.0
 11
-1.0
 21
0.0
  0
ENDBLK
  5
44
100
AcDbEntity
  8
0
100
AcDbBlockEnd
  0
BLOCK
  5
46
100
AcDbEntity
  8
0
100
AcDbBlockBegin
  2
_OBLIQUE
 70
     0
 10
0.0
 20
0.0
  0
LINE
  5
47
100
AcDbEntity
  8
0
 62
     0
100
AcDbLine
 10
-0.353553
 20
-0.353553
 11
0.353553
 21
0.353553
  0
ENDBLK
  5
48
100
AcDbEntity
  8
0
100
AcDbBlockEnd
  0
BLOCK
  5
4A
100
AcDbEntity
  8
DD0
100
AcDbBlockBegin
  2
*D0
 70
    65
 10
0.0
 20
0.0
  0
POINT
  5
4B
100
AcDbEntity
  8
DEFPOINTS
100
AcDbPoint
 10
134.908554
 20
172.059692
  0
POINT
  5
4C
100
AcDbEntity
  8
DEFPOINTS
100
AcDbPoint
 10
124.408554
 20
147.839401
  0
POINT
  5
4D
100
AcDbEntity
  8
DEFPOINTS
100
AcDbPoint
 10
134.908554
 20
155.839401
  0
LINE
  5
4E
100
AcDbEntity
  8
DD0
100
AcDbLine
 10
124.408554
 20
147.839401
 11
124.408554
 21
173.559692
  0
LINE
  5
4F
100
AcDbEntity
  8
DD0
100
AcDbLine
 10
134.908554
 20
155.839401
 11
134.908554
 21
173.559692
  0
INSERT
  5
50
100
AcDbEntity
  8
DD0
100
AcDbBlockReference
  2
_OPEN
 10
134.908554
 20
172.059692
 41
3.0
 42
3.0
 50
180.0
  0
INSERT
  5
51
100
AcDbEntity
  8
DD0
100
AcDbBlockReference
  2
_OPEN
 10
124.408554
 20
172.059692
 41
3.0
 42
3.0
  0
LINE
  5
52
100
AcDbEntity
  8
DD0
100
AcDbLine
 10
106.108555
 20
172.059692
 11
121.408554
 21
172.059692
  0
LINE
  5
53
100
AcDbEntity
  8
DD0
100
AcDbLine
 10
124.408554
 20
172.059692
 11
134.908554
 21
172.059692
  0
LINE
  5
54
100
AcDbEntity
  8
DD0
100
AcDbLine
 10
137.908554
 20
172.059692
 11
138.208554
 21
172.059692
  0
TEXT
  5
55
100
AcDbEntity
  8
DD0
100
AcDbText
 10
106.900218
 20
173.059692
 40
3.5
  1
１０．５
 41
0.833333
  7
STANDARD
100
AcDbText
  0
ENDBLK
  5
56
100
AcDbEntity
  8
DD0
100
AcDbBlockEnd
  0
BLOCK
  5
59
100
AcDbEntity
  8
DD0
100
AcDbBlockBegin
  2
*D1
 70
    65
 10
0.0
 20
0.0
  0
POINT
  5
5A
100
AcDbEntity
  8
DEFPOINTS
100
AcDbPoint
 10
124.408554
 20
165.747437
  0
POINT
  5
5B
100
AcDbEntity
  8
DEFPOINTS
100
AcDbPoint
 10
120.408554
 20
139.539398
  0
POINT
  5
5C
100
AcDbEntity
  8
DEFPOINTS
100
AcDbPoint
 10
124.408554
 20
147.839401
  0
LINE
  5
5D
100
AcDbEntity
  8
DD0
100
AcDbLine
 10
120.408554
 20
139.539398
 11
120.408554
 21
167.247437
  0
LINE
  5
5E
100
AcDbEntity
  8
DD0
100
AcDbLine
 10
124.408554
 20
147.839401
 11
124.408554
 21
167.247437
  0
INSERT
  5
5F
100
AcDbEntity
  8
DD0
100
AcDbBlockReference
  2
_OPEN
 10
124.408554
 20
165.747437
 41
3.0
 42
3.0
 50
180.0
  0
INSERT
  5
60
100
AcDbEntity
  8
DD0
100
AcDbBlockReference
  2
_OPEN
 10
120.408554
 20
165.747437
 41
3.0
 42
3.0
  0
LINE
  5
61
100
AcDbEntity
  8
DD0
100
AcDbLine
 10
117.108554
 20
165.747437
 11
117.408554
 21
165.747437
  0
LINE
  5
62
100
AcDbEntity
  8
DD0
100
AcDbLine
 10
120.408554
 20
165.747437
 11
124.408554
 21
165.747437
  0
LINE
  5
63
100
AcDbEntity
  8
DD0
100
AcDbLine
 10
127.408554
 20
165.747437
 11
127.708554
 21
165.747437
  0
TEXT
  5
64
100
AcDbEntity
  8
DD0
100
AcDbText
 10
120.950221
 20
166.747437
 40
3.5
  1
４
 41
0.833333
  7
STANDARD
100
AcDbText
  0
ENDBLK
  5
65
100
AcDbEntity
  8
DD0
100
AcDbBlockEnd
  0
BLOCK
  5
68
100
AcDbEntity
  8
DD0
100
AcDbBlockBegin
  2
*D2
 70
    65
 10
0.0
 20
0.0
  0
POINT
  5
69
100
AcDbEntity
  8
DEFPOINTS
100
AcDbPoint
 10
170.03035
 20
105.6894
  0
POINT
  5
6A
100
AcDbEntity
  8
DEFPOINTS
100
AcDbPoint
 10
156.108551
 20
82.989403
  0
POINT
  5
6B
100
AcDbEntity
  8
DEFPOINTS
100
AcDbPoint
 10
156.108551
 20
105.6894
  0
LINE
  5
6C
100
AcDbEntity
  8
DD0
100
AcDbLine
 10
156.108551
 20
82.989403
 11
171.53035
 21
82.989403
  0
LINE
  5
6D
100
AcDbEntity
  8
DD0
100
AcDbLine
 10
156.108551
 20
105.6894
 11
171.53035
 21
105.6894
  0
INSERT
  5
6E
100
AcDbEntity
  8
DD0
100
AcDbBlockReference
  2
_OPEN
 10
170.03035
 20
105.6894
 41
3.0
 42
3.0
 50
90.0
  0
INSERT
  5
6F
100
AcDbEntity
  8
DD0
100
AcDbBlockReference
  2
_OPEN
 10
170.03035
 20
82.989403
 41
3.0
 42
3.0
 50
270.0
  0
LINE
  5
70
100
AcDbEntity
  8
DD0
100
AcDbLine
 10
170.03035
 20
85.989403
 11
170.03035
 21
102.6894
  0
TEXT
  5
71
100
AcDbEntity
  8
DD0
100
AcDbText
 10
169.03035
 20
87.631068
 40
3.5
  1
２２．７
 50
90.000003
 41
0.833333
  7
STANDARD
100
AcDbText
  0
ENDBLK
  5
72
100
AcDbEntity
  8
DD0
100
AcDbBlockEnd
  0
BLOCK
  5
77
100
AcDbEntity
  8
DD0
100
AcDbBlockBegin
  2
LEAD0
 70
     0
 10
0.0
 20
0.0
  0
CIRCLE
  5
78
100
AcDbEntity
  8
DD0
100
AcDbCircle
 10
151.097061
 20
144.526459
 40
5.0
  0
TEXT
  5
79
100
AcDbEntity
  8
DD0
100
AcDbText
 10
148.680394
 20
141.176459
 40
6.7
  1
１
 41
0.721393
  7
STANDARD
100
AcDbText
  0
ENDBLK
  5
7A
100
AcDbEntity
  8
DD0
100
AcDbBlockEnd
  0
BLOCK
  5
7C
100
AcDbEntity
  8
DD0
100
AcDbBlockBegin
  2
*D3
 70
    65
 10
0.0
 20
0.0
  0
POINT
  5
7D
100
AcDbEntity
  8
DEFPOINTS
100
AcDbPoint
 10
98.672691
 20
172.059692
  0
POINT
  5
7E
100
AcDbEntity
  8
DEFPOINTS
100
AcDbPoint
 10
24.672689
 20
143.839401
  0
POINT
  5
7F
100
AcDbEntity
  8
DEFPOINTS
100
AcDbPoint
 10
98.672691
 20
143.839401
  0
LINE
  5
80
100
AcDbEntity
  8
DD0
100
AcDbLine
 10
24.672689
 20
143.839401
 11
24.672689
 21
173.559692
  0
LINE
  5
81
100
AcDbEntity
  8
DD0
100
AcDbLine
 10
98.672691
 20
143.839401
 11
98.672691
 21
173.559692
  0
INSERT
  5
82
100
AcDbEntity
  8
DD0
100
AcDbBlockReference
  2
_OPEN
 10
98.672691
 20
172.059692
 41
3.0
 42
3.0
  0
INSERT
  5
83
100
AcDbEntity
  8
DD0
100
AcDbBlockReference
  2
_OPEN
 10
24.672689
 20
172.059692
 41
3.0
 42
3.0
 50
180.0
  0
LINE
  5
84
100
AcDbEntity
  8
DD0
100
AcDbLine
 10
27.672689
 20
172.059692
 11
95.672691
 21
172.059692
  0
TEXT
  5
85
100
AcDbEntity
  8
DD0
100
AcDbText
 10
58.464358
 20
173.059692
 40
3.5
  1
７４
 41
0.833333
  7
STANDARD
100
AcDbText
  0
ENDBLK
  5
86
100
AcDbEntity
  8
DD0
100
AcDbBlockEnd
  0
BLOCK
  5
89
100
AcDbEntity
  8
DD0
100
AcDbBlockBegin
  2
*D4
 70
    65
 10
0.0
 20
0.0
  0
POINT
  5
8A
100
AcDbEntity
  8
DEFPOINTS
100
AcDbPoint
 10
108.83609
 20
32.839401
  0
POINT
  5
8B
100
AcDbEntity
  8
DEFPOINTS
100
AcDbPoint
 10
86.672691
 20
155.839401
  0
POINT
  5
8C
100
AcDbEntity
  8
DEFPOINTS
100
AcDbPoint
 10
86.672691
 20
32.839401
  0
LINE
  5
8D
100
AcDbEntity
  8
DD0
100
AcDbLine
 10
86.672691
 20
155.839401
 11
110.33609
 21
155.839401
  0
LINE
  5
8E
100
AcDbEntity
  8
DD0
100
AcDbLine
 10
86.672691
 20
32.839401
 11
110.33609
 21
32.839401
  0
INSERT
  5
8F
100
AcDbEntity
  8
DD0
100
AcDbBlockReference
  2
_OPEN
 10
108.83609
 20
32.839401
 41
3.0
 42
3.0
 50
270.0
  0
INSERT
  5
90
100
AcDbEntity
  8
DD0
100
AcDbBlockReference
  2
_OPEN
 10
108.83609
 20
155.839401
 41
3.0
 42
3.0
 50
90.0
  0
LINE
  5
91
100
AcDbEntity
  8
DD0
100
AcDbLine
 10
108.83609
 20
152.839401
 11
108.83609
 21
35.839401
  0
TEXT
  5
92
100
AcDbEntity
  8
DD0
100
AcDbText
 10
107.83609
 20
89.381068
 40
3.5
  1
１２３
 50
90.000003
 41
0.833333
  7
STANDARD
100
AcDbText
  0
ENDBLK
  5
93
100
AcDbEntity
  8
DD0
100
AcDbBlockEnd
  0
BLOCK
  5
96
100
AcDbEntity
  8
DD0
100
AcDbBlockBegin
  2
*D5
 70
    65
 10
0.0
 20
0.0
  0
POINT
  5
97
100
AcDbEntity
  8
DEFPOINTS
100
AcDbPoint
 10
83.77269
 20
165.747437
  0
POINT
  5
98
100
AcDbEntity
  8
DEFPOINTS
100
AcDbPoint
 10
39.572689
 20
134.539398
  0
POINT
  5
99
100
AcDbEntity
  8
DEFPOINTS
100
AcDbPoint
 10
83.77269
 20
134.539398
  0
LINE
  5
9A
100
AcDbEntity
  8
DD0
100
AcDbLine
 10
39.572689
 20
134.539398
 11
39.572689
 21
167.247437
  0
LINE
  5
9B
100
AcDbEntity
  8
DD0
100
AcDbLine
 10
83.77269
 20
134.539398
 11
83.77269
 21
167.247437
  0
INSERT
  5
9C
100
AcDbEntity
  8
DD0
100
AcDbBlockReference
  2
_OPEN
 10
83.77269
 20
165.747437
 41
3.0
 42
3.0
  0
INSERT
  5
9D
100
AcDbEntity
  8
DD0
100
AcDbBlockReference
  2
_OPEN
 10
39.572689
 20
165.747437
 41
3.0
 42
3.0
 50
180.0
  0
LINE
  5
9E
100
AcDbEntity
  8
DD0
100
AcDbLine
 10
42.572689
 20
165.747437
 11
80.77269
 21
165.747437
  0
TEXT
  5
9F
100
AcDbEntity
  8
DD0
100
AcDbText
 10
54.964358
 20
166.747437
 40
3.5
  1
４４．２
 41
0.833333
  7
STANDARD
100
AcDbText
  0
ENDBLK
  5
A0
100
AcDbEntity
  8
DD0
100
AcDbBlockEnd
  0
BLOCK
  5
A5
100
AcDbEntity
  8
DD0
100
AcDbBlockBegin
  2
LEAD1
 70
     0
 10
0.0
 20
0.0
  0
CIRCLE
  5
A6
100
AcDbEntity
  8
DD0
100
AcDbCircle
 10
75.872093
 20
190.114975
 40
5.0
  0
TEXT
  5
A7
100
AcDbEntity
  8
DD0
100
AcDbText
 10
73.455426
 20
186.764975
 40
6.7
  1
３
 41
0.721393
  7
STANDARD
100
AcDbText
  0
ENDBLK
  5
A8
100
AcDbEntity
  8
DD0
100
AcDbBlockEnd
  0
BLOCK
  5
AC
100
AcDbEntity
  8
DD0
100
AcDbBlockBegin
  2
LEAD2
 70
     0
 10
0.0
 20
0.0
  0
CIRCLE
  5
AD
100
AcDbEntity
  8
DD0
100
AcDbCircle
 10
99.367706
 20
189.062927
 40
5.0
  0
TEXT
  5
AE
100
AcDbEntity
  8
DD0
100
AcDbText
 10
96.951039
 20
185.712927
 40
6.7
  1
２
 41
0.721393
  7
STANDARD
100
AcDbText
  0
ENDBLK
  5
AF
100
AcDbEntity
  8
DD0
100
AcDbBlockEnd
  0
BLOCK
  5
B3
100
AcDbEntity
  8
DD0
100
AcDbBlockBegin
  2
LEAD3
 70
     0
 10
0.0
 20
0.0
  0
CIRCLE
  5
B4
100
AcDbEntity
  8
DD0
100
AcDbCircle
 10
33.439712
 20
189.062927
 40
5.0
  0
TEXT
  5
B5
100
AcDbEntity
  8
DD0
100
AcDbText
 10
31.023046
 20
185.712927
 40
6.7
  1
４
 41
0.721393
  7
STANDARD
100
AcDbText
  0
ENDBLK
  5
B6
100
AcDbEntity
  8
DD0
100
AcDbBlockEnd
  0
BLOCK
  5
B8
100
AcDbEntity
  8
DD0
100
AcDbBlockBegin
  2
*D6
 70
    65
 10
0.0
 20
0.0
  0
POINT
  5
B9
100
AcDbEntity
  8
DEFPOINTS
100
AcDbPoint
 10
156.108551
 20
172.059692
  0
POINT
  5
BA
100
AcDbEntity
  8
DEFPOINTS
100
AcDbPoint
 10
134.908554
 20
155.839401
  0
POINT
  5
BB
100
AcDbEntity
  8
DEFPOINTS
100
AcDbPoint
 10
156.108551
 20
105.6894
  0
LINE
  5
BC
100
AcDbEntity
  8
DD0
100
AcDbLine
 10
134.908554
 20
155.839401
 11
134.908554
 21
173.559692
  0
LINE
  5
BD
100
AcDbEntity
  8
DD0
100
AcDbLine
 10
156.108551
 20
105.6894
 11
156.108551
 21
173.559692
  0
INSERT
  5
BE
100
AcDbEntity
  8
DD0
100
AcDbBlockReference
  2
_OPEN
 10
156.108551
 20
172.059692
 41
3.0
 42
3.0
  0
INSERT
  5
BF
100
AcDbEntity
  8
DD0
100
AcDbBlockReference
  2
_OPEN
 10
134.908554
 20
172.059692
 41
3.0
 42
3.0
 50
180.0
  0
LINE
  5
C0
100
AcDbEntity
  8
DD0
100
AcDbLine
 10
137.908554
 20
172.059692
 11
153.108551
 21
172.059692
  0
TEXT
  5
C1
100
AcDbEntity
  8
DD0
100
AcDbText
 10
138.800212
 20
173.059692
 40
3.5
  1
２１．２
 41
0.833333
  7
STANDARD
100
AcDbText
  0
ENDBLK
  5
C2
100
AcDbEntity
  8
DD0
100
AcDbBlockEnd
  0
ENDSEC
  0
SECTION
  2
ENTITIES
  0
DIMENSION
  5
57
100
AcDbEntity
  8
DD0
100
AcDbDimension
  2
*D0
 10
134.908554
 20
172.059692
 11
129.658554
 21
172.059692
  3
STANDARD
100
AcDbAlignedDimension
 13
124.408554
 23
147.839401
 14
134.908554
 24
155.839401
100
AcDbRotatedDimension
  0
DIMENSION
  5
66
100
AcDbEntity
  8
DD0
100
AcDbDimension
  2
*D1
 10
124.408554
 20
165.747437
 11
122.408554
 21
165.747437
  3
STANDARD
100
AcDbAlignedDimension
 13
120.408554
 23
139.539398
 14
124.408554
 24
147.839401
100
AcDbRotatedDimension
  0
DIMENSION
  5
73
100
AcDbEntity
  8
DD0
100
AcDbDimension
  2
*D2
 10
170.03035
 20
105.6894
 11
170.03035
 21
94.339401
  3
STANDARD
100
AcDbAlignedDimension
 13
156.108551
 23
82.989403
 14
156.108551
 24
105.6894
 50
90.0
100
AcDbRotatedDimension
  0
LEADER
  5
74
100
AcDbEntity
  8
DD0
100
AcDbLeader
  3
LEADSTYL
 76
     2
 10
146.538208
 20
105.6894
 10
150.514145
 20
139.560562
212
150.514145
222
139.560562
340
75
 77
     4
  0
INSERT
  5
75
100
AcDbEntity
  8
DD0
100
AcDbBlockReference
  2
LEAD0
 10
0.0
 20
0.0
  0
DIMENSION
  5
87
100
AcDbEntity
  8
DD0
100
AcDbDimension
  2
*D3
 10
98.672691
 20
172.059692
 11
61.67269
 21
172.059692
  3
STANDARD
100
AcDbAlignedDimension
 13
24.672689
 23
143.839401
 14
98.672691
 24
143.839401
100
AcDbRotatedDimension
  0
DIMENSION
  5
94
100
AcDbEntity
  8
DD0
100
AcDbDimension
  2
*D4
 10
108.83609
 20
32.839401
 11
108.83609
 21
94.339401
  3
STANDARD
100
AcDbAlignedDimension
 13
86.672691
 23
155.839401
 14
86.672691
 24
32.839401
 50
90.0
100
AcDbRotatedDimension
  0
DIMENSION
  5
A1
100
AcDbEntity
  8
DD0
100
AcDbDimension
  2
*D5
 10
83.77269
 20
165.747437
 11
61.672689
 21
165.747437
  3
STANDARD
100
AcDbAlignedDimension
 13
39.572689
 23
134.539398
 14
83.77269
 24
134.539398
100
AcDbRotatedDimension
  0
LEADER
  5
A2
100
AcDbEntity
  8
DD0
100
AcDbLeader
  3
LEADSTYL
 76
     2
 10
68.50779
 20
137.539398
 10
75.178513
 20
185.163315
212
75.178513
222
185.163315
340
A3
 77
     4
  0
INSERT
  5
A3
100
AcDbEntity
  8
DD0
100
AcDbBlockReference
  2
LEAD1
 10
0.0
 20
0.0
  0
LEADER
  5
A9
100
AcDbEntity
  8
DD0
100
AcDbLeader
  3
LEADSTYL
 76
     2
 10
87.426727
 20
155.815689
 10
97.67762
 20
184.357224
212
97.67762
222
184.357224
340
AA
 77
     4
  0
INSERT
  5
AA
100
AcDbEntity
  8
DD0
100
AcDbBlockReference
  2
LEAD2
 10
0.0
 20
0.0
  0
LEADER
  5
B0
100
AcDbEntity
  8
DD0
100
AcDbLeader
  3
LEADSTYL
 76
     2
 10
57.672691
 20
95.339401
 10
34.691341
 20
184.222122
212
34.691341
222
184.222122
340
B1
 77
     4
  0
INSERT
  5
B1
100
AcDbEntity
  8
DD0
100
AcDbBlockReference
  2
LEAD3
 10
0.0
 20
0.0
  0
DIMENSION
  5
C3
100
AcDbEntity
  8
DD0
100
AcDbDimension
  2
*D6
 10
156.108551
 20
172.059692
 11
145.508553
 21
172.059692
  3
STANDARD
100
AcDbAlignedDimension
 13
134.908554
 23
155.839401
 14
156.108551
 24
105.6894
100
AcDbRotatedDimension
  0
LEADER
  5
C4
100
AcDbEntity
  8
DD0
100
AcDbLeader
  3
LEADSTYL
 76
     3
 10
240.005112
 20
144.106247
 10
228.276794
 20
151.923935
 10
215.776794
 20
151.923935
340
C5
 77
     4
  0
TEXT
  5
C5
100
AcDbEntity
  8
DD0
100
AcDbText
 10
217.068461
 20
152.923935
 40
3.5
  1
電圧側
 41
0.833333
  7
STANDARD
100
AcDbText
  0
LINE
  5
C6
100
AcDbEntity
  8
M0
 62
     7
100
AcDbLine
 10
284.853627
 20
11.635397
 11
284.853627
 21
15.635397
  0
LINE
  5
C7
100
AcDbEntity
  8
M0
 62
     7
100
AcDbLine
 10
284.853627
 20
200.635397
 11
14.853627
 21
200.635397
  0
LINE
  5
C8
100
AcDbEntity
  8
M0
 62
     7
100
AcDbLine
 10
14.853627
 20
200.635397
 11
14.853627
 21
15.635397
  0
LINE
  5
C9
100
AcDbEntity
  8
M0
 62
     7
100
AcDbLine
 10
14.853627
 20
15.635397
 11
284.853627
 21
15.635397
  0
LINE
  5
CA
100
AcDbEntity
  8
M0
 62
     7
100
AcDbLine
 10
284.853627
 20
11.635397
 11
259.853627
 21
11.635397
  0
LINE
  5
CB
100
AcDbEntity
  8
M0
 62
     7
100
AcDbLine
 10
269.853627
 20
11.635397
 11
269.853627
 21
22.635397
  0
LINE
  5
CC
100
AcDbEntity
  8
M0
 62
     7
100
AcDbLine
 10
259.853627
 20
11.635397
 11
259.853627
 21
22.635397
  0
LINE
  5
CD
100
AcDbEntity
  8
M0
 62
     7
100
AcDbLine
 10
284.853627
 20
22.635397
 11
219.853627
 21
22.635397
  0
LINE
  5
CE
100
AcDbEntity
  8
M0
 62
     7
100
AcDbLine
 10
284.853627
 20
37.635397
 11
219.853627
 21
37.635397
  0
LINE
  5
CF
100
AcDbEntity
  8
M0
 62
     7
100
AcDbLine
 10
284.853627
 20
42.635397
 11
194.853627
 21
42.635397
  0
LINE
  5
D0
100
AcDbEntity
  8
M0
 62
     7
100
AcDbLine
 10
284.853627
 20
47.635397
 11
194.853627
 21
47.635397
  0
LINE
  5
D1
100
AcDbEntity
  8
M0
 62
     7
100
AcDbLine
 10
194.853627
 20
47.635397
 11
194.853627
 21
15.635397
  0
LINE
  5
D2
100
AcDbEntity
  8
M0
 62
     7
100
AcDbLine
 10
219.853627
 20
15.635397
 11
219.853627
 21
47.635397
  0
LINE
  5
D3
100
AcDbEntity
  8
M0
 62
     7
100
AcDbLine
 10
229.853627
 20
22.635397
 11
229.853627
 21
47.635397
  0
LINE
  5
D4
100
AcDbEntity
  8
M0
 62
     7
100
AcDbLine
 10
259.853627
 20
42.635397
 11
259.853627
 21
47.635397
  0
LINE
  5
D5
100
AcDbEntity
  8
M0
 62
     7
100
AcDbLine
 10
269.853627
 20
42.635397
 11
269.853627
 21
47.635397
  0
LINE
  5
D6
100
AcDbEntity
  8
M0
 62
     7
100
AcDbLine
 10
284.853627
 20
15.635397
 11
284.853627
 21
200.635397
  0
TEXT
  5
D7
100
AcDbEntity
  8
M0
 62
     7
100
AcDbText
 10
220.978627
 20
43.885397
 40
2.5
  1
納　先
 41
0.9
  7
STANDARD
100
AcDbText
  0
TEXT
  5
D8
100
AcDbEntity
  8
M0
 62
     7
100
AcDbText
 10
220.978627
 20
38.885397
 40
2.5
  1
名　称
 41
0.9
  7
STANDARD
100
AcDbText
  0
TEXT
  5
D9
100
AcDbEntity
  8
M0
 62
     7
100
AcDbText
 10
260.978627
 20
43.885397
 40
2.5
  1
数　量
 41
0.9
  7
STANDARD
100
AcDbText
  0
TEXT
  5
DA
100
AcDbEntity
  8
M0
 62
     7
100
AcDbText
 10
260.06196
 20
17.885397
 40
2.5
  1
作成日付
 41
0.833333
  7
STANDARD
100
AcDbText
  0
TEXT
  5
DB
100
AcDbEntity
  8
M0
 62
     7
100
AcDbText
 10
260.56196
 20
12.385397
 40
2.5
  1
改訂
 41
0.833333
  7
STANDARD
100
AcDbText
  0
TEXT
  5
DC
100
AcDbEntity
  8
M0
 62
     7
100
AcDbText
 10
265.478627
 20
12.385397
 40
2.5
  1
Ｎｏ．
 41
0.5
  7
STANDARD
100
AcDbText
  0
TEXT
  5
DD
100
AcDbEntity
  8
M0
 62
     7
100
AcDbText
 10
276.43696
 20
12.385397
 40
2.5
  1
０
 41
0.733333
  7
STANDARD
100
AcDbText
  0
TEXT
  5
DE
100
AcDbEntity
  8
M0
 62
     7
100
AcDbText
 10
195.06196
 20
48.635397
 40
2.5
  1
●　本仕様は改良のため変更することがあります。
 41
0.833333
  7
STANDARD
100
AcDbText
  0
TEXT
  5
DF
100
AcDbEntity
  8
M0
 62
     7
100
AcDbText
 10
196.978627
 20
43.885397
 40
2.5
  1
　御確認印欄
 41
0.9
  7
STANDARD
100
AcDbText
  0
TEXT
  5
E0
100
AcDbEntity
  8
M0
 62
     7
100
AcDbText
 10
269.978627
 20
17.885397
 40
2.5
  1
２００６．０６．２０
 41
0.5
  7
STANDARD
100
AcDbText
  0
LINE
  5
E1
100
AcDbEntity
  8
M0
 62
     7
100
AcDbLine
 10
284.853627
 20
30.135397
 11
219.853627
 21
30.135397
  0
LINE
  5
E2
100
AcDbEntity
  8
M0
 62
     7
100
AcDbLine
 10
259.853627
 20
30.135397
 11
259.853627
 21
37.635397
  0
LINE
  5
E3
100
AcDbEntity
  8
M0
 62
     7
100
AcDbLine
 10
269.853627
 20
30.135397
 11
269.853627
 21
37.635397
  0
TEXT
  5
E4
100
AcDbEntity
  8
M0
 62
     7
100
AcDbText
 10
220.978627
 20
31.675631
 40
2.5
  1
形　式
 41
0.9
  7
STANDARD
100
AcDbText
  0
TEXT
  5
E5
100
AcDbEntity
  8
M0
 62
     7
100
AcDbText
 10
261.270294
 20
31.675631
 40
2.5
  1
商品番号
 41
0.666667
  7
STANDARD
100
AcDbText
  0
TEXT
  5
E6
100
AcDbEntity
  8
M0
 62
     7
100
AcDbText
 10
221.020294
 20
24.653976
 40
2.5
  1
図面番号
 41
0.666667
  7
STANDARD
100
AcDbText
  0
TEXT
  5
E7
100
AcDbEntity
  8
M0
 62
     7
100
AcDbText
 10
232.016988
 20
24.653976
 40
3.0
  1
４ＴＴ９０３７１
 41
0.75
  7
STANDARD
100
AcDbText
  0
TEXT
  5
E8
100
AcDbEntity
  8
M0
 62
     7
100
AcDbText
 10
231.35114
 20
38.885397
 40
2.5
  1
日立換気扇用スイッチ　
 41
0.9
  7
STANDARD
100
AcDbText
  0
TEXT
  5
E9
100
AcDbEntity
  8
M0
 62
     7
100
AcDbText
 10
231.670903
 20
31.675631
 40
3.0
  1
ＶＰ－ＷＳ５
 41
0.833333
  7
STANDARD
100
AcDbText
  0
LINE
  5
EA
100
AcDbEntity
  8
M0
 62
     7
100
AcDbLine
 10
284.853627
 20
195.635397
 11
194.853627
 21
195.635397
  0
LINE
  5
EB
100
AcDbEntity
  8
M0
 62
     7
100
AcDbLine
 10
284.853627
 20
190.635397
 11
194.853627
 21
190.635397
  0
LINE
  5
EC
100
AcDbEntity
  8
M0
 62
     7
100
AcDbLine
 10
284.853627
 20
185.635397
 11
194.853627
 21
185.635397
  0
LINE
  5
ED
100
AcDbEntity
  8
M0
 62
     7
100
AcDbLine
 10
284.853627
 20
180.635397
 11
194.853627
 21
180.635397
  0
TEXT
  5
EE
100
AcDbEntity
  8
M0
 62
     7
100
AcDbText
 10
212.520294
 20
196.135397
 40
4.0
  1
主要部品一覧表
 41
1.666667
  7
STANDARD
100
AcDbText
  0
TEXT
  5
EF
100
AcDbEntity
  8
M0
 62
     7
100
AcDbText
 10
195.378621
 20
191.885397
 40
2.5
  1
品番
 41
0.9
  7
STANDARD
100
AcDbText
  0
TEXT
  5
F0
100
AcDbEntity
  8
M0
 62
     7
100
AcDbText
 10
196.670288
 20
186.885397
 40
3.0
  1
１
 41
0.888889
  7
STANDARD
100
AcDbText
  0
TEXT
  5
F1
100
AcDbEntity
  8
M0
 62
     7
100
AcDbText
 10
255.270294
 20
191.885397
 40
2.5
  1
色仕様・その他
 41
1.066667
  7
STANDARD
100
AcDbText
  0
TEXT
  5
F2
100
AcDbEntity
  8
M0
 62
     7
100
AcDbText
 10
205.478627
 20
191.885397
 40
2.5
  1
部　品　名
 41
0.9
  7
STANDARD
100
AcDbText
  0
TEXT
  5
F3
100
AcDbEntity
  8
M0
 62
     7
100
AcDbText
 10
228.728627
 20
191.885397
 40
2.5
  1
材　　　質
 41
0.9
  7
STANDARD
100
AcDbText
  0
TEXT
  5
F4
100
AcDbEntity
  8
M0
 62
     7
100
AcDbText
 10
196.670288
 20
181.885397
 40
3.0
  1
２
 41
0.888889
  7
STANDARD
100
AcDbText
  0
TEXT
  5
F5
100
AcDbEntity
  8
M0
 62
     7
100
AcDbText
 10
196.670288
 20
176.885397
 40
3.0
  1
３
 41
0.888889
  7
STANDARD
100
AcDbText
  0
LINE
  5
F6
100
AcDbEntity
  8
M0
 62
     7
100
AcDbLine
 10
194.853627
 20
170.635397
 11
194.853627
 21
200.635397
  0
LINE
  5
F7
100
AcDbEntity
  8
M0
 62
     7
100
AcDbLine
 10
200.853627
 20
195.635397
 11
200.853627
 21
170.635397
  0
LINE
  5
F8
100
AcDbEntity
  8
M0
 62
     7
100
AcDbLine
 10
222.853627
 20
170.635397
 11
222.853627
 21
195.635397
  0
LINE
  5
F9
100
AcDbEntity
  8
M0
 62
     7
100
AcDbLine
 10
247.853627
 20
170.635397
 11
247.853627
 21
195.635397
  0
LINE
  5
FA
100
AcDbEntity
  8
M0
 62
     7
100
AcDbLine
 10
284.853627
 20
175.635397
 11
194.853627
 21
175.635397
  0
LINE
  5
FB
100
AcDbEntity
  8
M0
 62
     7
100
AcDbLine
 10
284.853627
 20
170.635397
 11
194.853627
 21
170.635397
  0
TEXT
  5
FC
100
AcDbEntity
  8
M0
 62
     7
100
AcDbText
 10
196.670288
 20
171.885397
 40
3.0
  1
４
 41
0.888889
  7
STANDARD
100
AcDbText
  0
TEXT
  5
FD
100
AcDbEntity
  8
M0
 62
     7
100
AcDbText
 10
272.56196
 20
31.675631
 40
2.5
  1
９９６６
 41
0.833333
  7
STANDARD
100
AcDbText
  0
TEXT
  5
FE
100
AcDbEntity
  8
M0
 62
     7
100
AcDbText
 10
201.978627
 20
186.885397
 40
3.0
  1
片切スイッチ
 41
0.75
  7
STANDARD
100
AcDbText
  0
TEXT
  5
FF
100
AcDbEntity
  8
M0
 62
     7
100
AcDbText
 10
201.970294
 20
181.885397
 40
3.0
  1
スイッチプレート
 41
0.388889
  7
STANDARD
100
AcDbText
  0
TEXT
  5
100
100
AcDbEntity
  8
M0
 62
     7
100
AcDbText
 10
202.08696
 20
176.885397
 40
3.0
  1
操作板
 41
0.777778
  7
STANDARD
100
AcDbText
  0
TEXT
  5
101
100
AcDbEntity
  8
M0
 62
     7
100
AcDbText
 10
223.98696
 20
176.885397
 40
3.0
  1
合成樹脂
 41
0.777778
  7
STANDARD
100
AcDbText
  0
TEXT
  5
102
100
AcDbEntity
  8
M0
 62
     7
100
AcDbText
 10
201.970294
 20
171.885397
 40
3.0
  1
パイロットランプ
 41
0.388889
  7
STANDARD
100
AcDbText
  0
TEXT
  5
103
100
AcDbEntity
  8
M0
 62
     7
100
AcDbText
 10
223.98696
 20
181.885397
 40
3.0
  1
合成樹脂
 41
0.777778
  7
STANDARD
100
AcDbText
  0
TEXT
  5
104
100
AcDbEntity
  8
M0
 62
     7
100
AcDbText
 10
248.953627
 20
181.885397
 40
3.0
  1
ホワイト
 41
0.666667
  7
STANDARD
100
AcDbText
  0
TEXT
  5
105
100
AcDbEntity
  8
M0
 62
     7
100
AcDbText
 10
248.953627
 20
176.885397
 40
3.0
  1
ホワイト
 41
0.666667
  7
STANDARD
100
AcDbText
  0
TEXT
  5
106
100
AcDbEntity
  8
M0
 62
     7
100
AcDbText
 10
248.953627
 20
171.885397
 40
3.0
  1
オンライト（緑）
 41
0.666667
  7
STANDARD
100
AcDbText
  0
TEXT
  5
107
100
AcDbEntity
  8
M0
 62
     7
100
AcDbText
 10
220.336431
 20
17.885397
 40
3.0
  1
日立アプライアンス株式会社
 41
0.833333
  7
STANDARD
100
AcDbText
  0
TEXT
  5
108
100
AcDbEntity
  8
M0
 62
     7
100
AcDbText
 10
248.953627
 20
186.885397
 40
3.0
  1
０．５Ａ　３００Ｖ
 41
0.666667
  7
STANDARD
100
AcDbText
  0
LINE
  5
109
100
AcDbEntity
  8
M0
100
AcDbLine
 10
134.908554
 20
32.839401
 11
134.908554
 21
155.839401
  0
LINE
  5
10A
100
AcDbEntity
  8
M0
100
AcDbLine
 10
134.908554
 20
155.839401
 11
132.408554
 21
155.839401
  0
LINE
  5
10B
100
AcDbEntity
  8
M0
100
AcDbLine
 10
124.408554
 20
147.839401
 11
124.408554
 21
40.839401
  0
LINE
  5
10C
100
AcDbEntity
  8
M0
100
AcDbLine
 10
132.408554
 20
32.839401
 11
134.908554
 21
32.839401
  0
LINE
  5
10D
100
AcDbEntity
  8
M0
  6
DASHDOT
100
AcDbLine
 10
119.408554
 20
94.339401
 11
160.523409
 21
94.339401
  0
LINE
  5
10E
100
AcDbEntity
  8
M0
100
AcDbLine
 10
124.408554
 20
49.139401
 11
120.408554
 21
49.139401
  0
LINE
  5
10F
100
AcDbEntity
  8
M0
100
AcDbLine
 10
128.408554
 20
149.265434
 11
128.408554
 21
38.800975
  0
ARC
  5
110
100
AcDbEntity
  8
M0
100
AcDbCircle
 10
132.408554
 20
147.839401
 40
8.0
100
AcDbArc
 50
90.0
 51
180.0
  0
ARC
  5
111
100
AcDbEntity
  8
M0
100
AcDbCircle
 10
132.408554
 20
40.839401
 40
8.0
100
AcDbArc
 50
180.0
 51
270.0
  0
LINE
  5
112
100
AcDbEntity
  8
M0
100
AcDbLine
 10
142.908554
 20
129.339401
 11
142.908554
 21
59.339401
  0
LINE
  5
113
100
AcDbEntity
  8
M0
100
AcDbLine
 10
134.908554
 20
129.339401
 11
142.908554
 21
129.339401
  0
LINE
  5
114
100
AcDbEntity
  8
M0
100
AcDbLine
 10
134.908554
 20
59.339401
 11
142.908554
 21
59.339401
  0
LINE
  5
115
100
AcDbEntity
  8
M0
100
AcDbLine
 10
156.108554
 20
105.689401
 11
156.108554
 21
82.989401
  0
LINE
  5
116
100
AcDbEntity
  8
M0
100
AcDbLine
 10
124.408554
 20
139.539401
 11
120.408554
 21
139.539401
  0
LINE
  5
117
100
AcDbEntity
  8
M0
100
AcDbLine
 10
120.408554
 20
139.539401
 11
120.408554
 21
49.139401
  0
LINE
  5
118
100
AcDbEntity
  8
M0
100
AcDbLine
 10
142.908554
 20
105.689401
 11
156.108554
 21
105.689401
  0
LINE
  5
119
100
AcDbEntity
  8
M0
100
AcDbLine
 10
142.908554
 20
82.989401
 11
156.108554
 21
82.989401
  0
LINE
  5
11A
100
AcDbEntity
  8
M0
100
AcDbLine
 10
98.67269
 20
44.839401
 11
98.67269
 21
143.839401
  0
LINE
  5
11B
100
AcDbEntity
  8
M0
100
AcDbLine
 10
86.67269
 20
155.839401
 11
36.67269
 21
155.839401
  0
LINE
  5
11C
100
AcDbEntity
  8
M0
100
AcDbLine
 10
24.67269
 20
143.839401
 11
24.67269
 21
44.839401
  0
LINE
  5
11D
100
AcDbEntity
  8
M0
100
AcDbLine
 10
36.67269
 20
32.839401
 11
86.67269
 21
32.839401
  0
LINE
  5
11E
100
AcDbEntity
  8
M0
  6
DASHDOT
100
AcDbLine
 10
19.67269
 20
94.339401
 11
103.67269
 21
94.339401
  0
LINE
  5
11F
100
AcDbEntity
  8
M0
  6
DASHDOT
100
AcDbLine
 10
61.67269
 20
27.839401
 11
61.67269
 21
160.839401
  0
LINE
  5
120
100
AcDbEntity
  8
M0
100
AcDbLine
 10
43.57269
 20
138.539401
 11
79.77269
 21
138.539401
  0
LINE
  5
121
100
AcDbEntity
  8
M0
100
AcDbLine
 10
43.57269
 20
50.139401
 11
79.77269
 21
50.139401
  0
LINE
  5
122
100
AcDbEntity
  8
M0
100
AcDbLine
 10
39.57269
 20
134.539401
 11
39.57269
 21
54.139401
  0
LINE
  5
123
100
AcDbEntity
  8
M0
100
AcDbLine
 10
83.77269
 20
134.539401
 11
83.77269
 21
54.139401
  0
LINE
  5
124
100
AcDbEntity
  8
M0
100
AcDbLine
 10
43.57269
 20
51.139401
 11
79.77269
 21
51.139401
  0
LINE
  5
125
100
AcDbEntity
  8
M0
100
AcDbLine
 10
43.57269
 20
137.539401
 11
79.77269
 21
137.539401
  0
LINE
  5
126
100
AcDbEntity
  8
M0
100
AcDbLine
 10
44.07269
 20
52.639401
 11
79.27269
 21
52.639401
  0
LINE
  5
127
100
AcDbEntity
  8
M0
100
AcDbLine
 10
44.07269
 20
136.039401
 11
79.27269
 21
136.039401
  0
ARC
  5
128
100
AcDbEntity
  8
M0
100
AcDbCircle
 10
79.27269
 20
134.039401
 40
2.0
100
AcDbArc
 50
0.0
 51
90.0
  0
ARC
  5
129
100
AcDbEntity
  8
M0
100
AcDbCircle
 10
44.07269
 20
134.039401
 40
2.0
100
AcDbArc
 50
90.0
 51
180.0
  0
ARC
  5
12A
100
AcDbEntity
  8
M0
100
AcDbCircle
 10
79.77269
 20
134.539401
 40
3.0
100
AcDbArc
 50
0.0
 51
90.0
  0
ARC
  5
12B
100
AcDbEntity
  8
M0
100
AcDbCircle
 10
43.57269
 20
134.539401
 40
3.0
100
AcDbArc
 50
90.0
 51
180.0
  0
ARC
  5
12C
100
AcDbEntity
  8
M0
100
AcDbCircle
 10
43.57269
 20
134.539401
 40
4.0
100
AcDbArc
 50
90.0
 51
180.0
  0
ARC
  5
12D
100
AcDbEntity
  8
M0
100
AcDbCircle
 10
79.77269
 20
134.539401
 40
4.0
100
AcDbArc
 50
0.0
 51
90.0
  0
LINE
  5
12E
100
AcDbEntity
  8
M0
100
AcDbLine
 10
40.57269
 20
134.539401
 11
40.57269
 21
54.139401
  0
LINE
  5
12F
100
AcDbEntity
  8
M0
100
AcDbLine
 10
82.77269
 20
134.539401
 11
82.77269
 21
54.139401
  0
LINE
  5
130
100
AcDbEntity
  8
M0
100
AcDbLine
 10
42.07269
 20
134.039401
 11
42.07269
 21
54.639401
  0
LINE
  5
131
100
AcDbEntity
  8
M0
100
AcDbLine
 10
81.27269
 20
134.039401
 11
81.27269
 21
54.639401
  0
ARC
  5
132
100
AcDbEntity
  8
M0
100
AcDbCircle
 10
79.27269
 20
54.639401
 40
2.0
100
AcDbArc
 50
270.0
 51
360.0
  0
ARC
  5
133
100
AcDbEntity
  8
M0
100
AcDbCircle
 10
44.07269
 20
54.639401
 40
2.0
100
AcDbArc
 50
180.0
 51
270.0
  0
ARC
  5
134
100
AcDbEntity
  8
M0
100
AcDbCircle
 10
43.57269
 20
54.139401
 40
3.0
100
AcDbArc
 50
180.0
 51
270.0
  0
ARC
  5
135
100
AcDbEntity
  8
M0
100
AcDbCircle
 10
79.77269
 20
54.139401
 40
3.0
100
AcDbArc
 50
270.0
 51
360.0
  0
ARC
  5
136
100
AcDbEntity
  8
M0
100
AcDbCircle
 10
43.57269
 20
54.139401
 40
4.0
100
AcDbArc
 50
180.0
 51
270.0
  0
ARC
  5
137
100
AcDbEntity
  8
M0
100
AcDbCircle
 10
79.77269
 20
54.139401
 40
4.0
100
AcDbArc
 50
270.0
 51
360.0
  0
LINE
  5
138
100
AcDbEntity
  8
M0
100
AcDbLine
 10
31.57269
 20
140.539401
 11
31.57269
 21
48.139401
  0
LINE
  5
139
100
AcDbEntity
  8
M0
100
AcDbLine
 10
91.77269
 20
140.539401
 11
91.77269
 21
48.139401
  0
LINE
  5
13A
100
AcDbEntity
  8
M0
100
AcDbLine
 10
37.57269
 20
146.539401
 11
85.77269
 21
146.539401
  0
LINE
  5
13B
100
AcDbEntity
  8
M0
100
AcDbLine
 10
37.57269
 20
42.139401
 11
85.77269
 21
42.139401
  0
ARC
  5
13C
100
AcDbEntity
  8
M0
100
AcDbCircle
 10
37.57269
 20
140.539401
 40
6.0
100
AcDbArc
 50
90.0
 51
180.0
  0
ARC
  5
13D
100
AcDbEntity
  8
M0
100
AcDbCircle
 10
37.57269
 20
48.139401
 40
6.0
100
AcDbArc
 50
180.0
 51
270.0
  0
ARC
  5
13E
100
AcDbEntity
  8
M0
100
AcDbCircle
 10
85.77269
 20
48.139401
 40
6.0
100
AcDbArc
 50
270.0
 51
360.0
  0
ARC
  5
13F
100
AcDbEntity
  8
M0
100
AcDbCircle
 10
85.77269
 20
140.539401
 40
6.0
100
AcDbArc
 50
0.0
 51
90.0
  0
LINE
  5
140
100
AcDbEntity
  8
M0
100
AcDbLine
 10
37.57269
 20
135.539401
 11
37.57269
 21
53.139401
  0
LINE
  5
141
100
AcDbEntity
  8
M0
100
AcDbLine
 10
85.77269
 20
135.539401
 11
85.77269
 21
53.139401
  0
LINE
  5
142
100
AcDbEntity
  8
M0
100
AcDbLine
 10
42.57269
 20
140.539401
 11
80.77269
 21
140.539401
  0
LINE
  5
143
100
AcDbEntity
  8
M0
100
AcDbLine
 10
42.57269
 20
48.139401
 11
80.77269
 21
48.139401
  0
ARC
  5
144
100
AcDbEntity
  8
M0
100
AcDbCircle
 10
42.57269
 20
135.539401
 40
5.0
100
AcDbArc
 50
90.0
 51
180.0
  0
ARC
  5
145
100
AcDbEntity
  8
M0
100
AcDbCircle
 10
80.77269
 20
135.539401
 40
5.0
100
AcDbArc
 50
0.0
 51
90.0
  0
ARC
  5
146
100
AcDbEntity
  8
M0
100
AcDbCircle
 10
42.57269
 20
53.139401
 40
5.0
100
AcDbArc
 50
180.0
 51
270.0
  0
ARC
  5
147
100
AcDbEntity
  8
M0
100
AcDbCircle
 10
80.77269
 20
53.139401
 40
5.0
100
AcDbArc
 50
270.0
 51
360.0
  0
ARC
  5
148
100
AcDbEntity
  8
M0
100
AcDbCircle
 10
36.67269
 20
143.839401
 40
12.0
100
AcDbArc
 50
90.0
 51
180.0
  0
ARC
  5
149
100
AcDbEntity
  8
M0
100
AcDbCircle
 10
36.67269
 20
44.839401
 40
12.0
100
AcDbArc
 50
180.0
 51
270.0
  0
ARC
  5
14A
100
AcDbEntity
  8
M0
100
AcDbCircle
 10
86.67269
 20
44.839401
 40
12.0
100
AcDbArc
 50
270.0
 51
360.0
  0
ARC
  5
14B
100
AcDbEntity
  8
M0
100
AcDbCircle
 10
86.67269
 20
143.839401
 40
12.0
100
AcDbArc
 50
0.0
 51
90.0
  0
LINE
  5
14C
100
AcDbEntity
  8
M0
100
AcDbLine
 10
45.17269
 20
104.339401
 11
78.17269
 21
104.339401
  0
TEXT
  5
14D
100
AcDbEntity
  8
M0
100
AcDbText
 10
46.09981
 20
89.400826
 40
5.0
  1
切
 41
0.783333
  7
STANDARD
100
AcDbText
  0
LINE
  5
14E
100
AcDbEntity
  8
M0
100
AcDbLine
 10
57.67269
 20
93.339401
 11
65.67269
 21
93.339401
  0
LINE
  5
14F
100
AcDbEntity
  8
M0
100
AcDbLine
 10
57.67269
 20
95.339401
 11
65.67269
 21
95.339401
  0
TEXT
  5
150
100
AcDbEntity
  8
M0
100
AcDbText
 10
75.027983
 20
89.31263
 40
5.0
  1
入
 41
0.783333
  7
STANDARD
100
AcDbText
  0
LINE
  5
151
100
AcDbEntity
  8
M0
100
AcDbLine
 10
45.17269
 20
84.339401
 11
78.17269
 21
84.339401
  0
ARC
  5
152
100
AcDbEntity
  8
M0
100
AcDbCircle
 10
45.17269
 20
102.339401
 40
2.0
100
AcDbArc
 50
90.0
 51
180.0
  0
LINE
  5
153
100
AcDbEntity
  8
M0
100
AcDbLine
 10
43.17269
 20
102.339401
 11
43.17269
 21
86.339401
  0
ARC
  5
154
100
AcDbEntity
  8
M0
100
AcDbCircle
 10
45.17269
 20
86.339401
 40
2.0
100
AcDbArc
 50
180.0
 51
270.0
  0
ARC
  5
155
100
AcDbEntity
  8
M0
100
AcDbCircle
 10
57.67269
 20
94.339401
 40
1.0
100
AcDbArc
 50
180.0
 51
270.0
  0
ARC
  5
156
100
AcDbEntity
  8
M0
100
AcDbCircle
 10
65.67269
 20
94.339401
 40
1.0
100
AcDbArc
 50
270.0
 51
360.0
  0
ARC
  5
157
100
AcDbEntity
  8
M0
100
AcDbCircle
 10
65.67269
 20
94.339401
 40
1.0
100
AcDbArc
 50
0.0
 51
90.0
  0
ARC
  5
158
100
AcDbEntity
  8
M0
100
AcDbCircle
 10
57.67269
 20
94.339401
 40
1.0
100
AcDbArc
 50
90.0
 51
180.0
  0
TEXT
  5
159
100
AcDbEntity
  8
M0
100
AcDbText
 10
55.162764
 20
98.300351
 40
5.0
  1
換気扇
 41
0.783333
  7
STANDARD
100
AcDbText
  0
ARC
  5
15A
100
AcDbEntity
  8
M0
100
AcDbCircle
 10
78.17269
 20
102.339401
 40
2.0
100
AcDbArc
 50
0.0
 51
90.0
  0
LINE
  5
15B
100
AcDbEntity
  8
M0
100
AcDbLine
 10
80.17269
 20
102.339401
 11
80.17269
 21
86.339401
  0
ARC
  5
15C
100
AcDbEntity
  8
M0
100
AcDbCircle
 10
78.17269
 20
86.339401
 40
2.0
100
AcDbArc
 50
270.0
 51
360.0
  0
LINE
  5
15D
100
AcDbEntity
  8
M0
 62
     4
100
AcDbLine
 10
239.52906
 20
152.489966
 11
240.481175
 21
152.489966
  0
LINE
  5
15E
100
AcDbEntity
  8
M0
 62
     4
100
AcDbLine
 10
239.505828
 20
152.403566
 11
240.504406
 21
152.403566
  0
LINE
  5
15F
100
AcDbEntity
  8
M0
 62
     4
100
AcDbLine
 10
239.482597
 20
152.317166
 11
240.527637
 21
152.317166
  0
LINE
  5
160
100
AcDbEntity
  8
M0
 62
     4
100
AcDbLine
 10
239.459366
 20
152.230766
 11
240.550869
 21
152.230766
  0
LINE
  5
161
100
AcDbEntity
  8
M0
 62
     4
100
AcDbLine
 10
239.436135
 20
152.144366
 11
240.5741
 21
152.144366
  0
LINE
  5
162
100
AcDbEntity
  8
M0
 62
     4
100
AcDbLine
 10
239.412904
 20
152.057966
 11
240.597331
 21
152.057966
  0
LINE
  5
163
100
AcDbEntity
  8
M0
 62
     4
100
AcDbLine
 10
239.389672
 20
151.971566
 11
240.620562
 21
151.971566
  0
LINE
  5
164
100
AcDbEntity
  8
M0
 62
     4
100
AcDbLine
 10
239.552291
 20
152.576366
 11
240.457944
 21
152.576366
  0
LINE
  5
165
100
AcDbEntity
  8
M0
 62
     4
100
AcDbLine
 10
239.575522
 20
152.662766
 11
240.434712
 21
152.662766
  0
LINE
  5
166
100
AcDbEntity
  8
M0
 62
     4
100
AcDbLine
 10
239.598753
 20
152.749166
 11
240.411481
 21
152.749166
  0
LINE
  5
167
100
AcDbEntity
  8
M0
 62
     4
100
AcDbLine
 10
239.621985
 20
152.835566
 11
240.38825
 21
152.835566
  0
LINE
  5
168
100
AcDbEntity
  8
M0
 62
     4
100
AcDbLine
 10
239.645216
 20
152.921966
 11
240.365019
 21
152.921966
  0
LINE
  5
169
100
AcDbEntity
  8
M0
 62
     4
100
AcDbLine
 10
239.668447
 20
153.008366
 11
240.341788
 21
153.008366
  0
LINE
  5
16A
100
AcDbEntity
  8
M0
 62
     4
100
AcDbLine
 10
239.691678
 20
153.094766
 11
240.318556
 21
153.094766
  0
LINE
  5
16B
100
AcDbEntity
  8
M0
 62
     4
100
AcDbLine
 10
239.714909
 20
153.181166
 11
240.295325
 21
153.181166
  0
LINE
  5
16C
100
AcDbEntity
  8
M0
 62
     4
100
AcDbLine
 10
239.738141
 20
153.267566
 11
240.272094
 21
153.267566
  0
LINE
  5
16D
100
AcDbEntity
  8
M0
 62
     4
100
AcDbLine
 10
239.761372
 20
153.353966
 11
240.248863
 21
153.353966
  0
LINE
  5
16E
100
AcDbEntity
  8
M0
 62
     4
100
AcDbLine
 10
239.784603
 20
153.440366
 11
240.225632
 21
153.440366
  0
LINE
  5
16F
100
AcDbEntity
  8
M0
 62
     4
100
AcDbLine
 10
239.807834
 20
153.526766
 11
240.2024
 21
153.526766
  0
LINE
  5
170
100
AcDbEntity
  8
M0
 62
     4
100
AcDbLine
 10
239.831065
 20
153.613166
 11
240.179169
 21
153.613166
  0
LINE
  5
171
100
AcDbEntity
  8
M0
 62
     4
100
AcDbLine
 10
239.854297
 20
153.699566
 11
240.155938
 21
153.699566
  0
LINE
  5
172
100
AcDbEntity
  8
M0
 62
     4
100
AcDbLine
 10
239.877528
 20
153.785966
 11
240.132707
 21
153.785966
  0
LINE
  5
173
100
AcDbEntity
  8
M0
 62
     4
100
AcDbLine
 10
239.900759
 20
153.872366
 11
240.109476
 21
153.872366
  0
LINE
  5
174
100
AcDbEntity
  8
M0
 62
     4
100
AcDbLine
 10
239.92399
 20
153.958766
 11
240.086244
 21
153.958766
  0
LINE
  5
175
100
AcDbEntity
  8
M0
 62
     4
100
AcDbLine
 10
239.947221
 20
154.045166
 11
240.063013
 21
154.045166
  0
LINE
  5
176
100
AcDbEntity
  8
M0
 62
     4
100
AcDbLine
 10
239.970453
 20
154.131566
 11
240.039782
 21
154.131566
  0
LINE
  5
177
100
AcDbEntity
  8
M0
 62
     4
100
AcDbLine
 10
239.993684
 20
154.217966
 11
240.016551
 21
154.217966
  0
LINE
  5
178
100
AcDbEntity
  8
M0
 62
     4
100
AcDbLine
 10
249.3393
 20
152.309078
 11
250.38869
 21
152.309078
  0
LINE
  5
179
100
AcDbEntity
  8
M0
 62
     4
100
AcDbLine
 10
249.316069
 20
152.222678
 11
250.411921
 21
152.222678
  0
LINE
  5
17A
100
AcDbEntity
  8
M0
 62
     4
100
AcDbLine
 10
249.292838
 20
152.136278
 11
250.435152
 21
152.136278
  0
LINE
  5
17B
100
AcDbEntity
  8
M0
 62
     4
100
AcDbLine
 10
249.269606
 20
152.049878
 11
250.458383
 21
152.049878
  0
LINE
  5
17C
100
AcDbEntity
  8
M0
 62
     4
100
AcDbLine
 10
249.246375
 20
151.963478
 11
250.481615
 21
151.963478
  0
LINE
  5
17D
100
AcDbEntity
  8
M0
 62
     4
100
AcDbLine
 10
249.362531
 20
152.395478
 11
250.365459
 21
152.395478
  0
LINE
  5
17E
100
AcDbEntity
  8
M0
 62
     4
100
AcDbLine
 10
249.385762
 20
152.481878
 11
250.342227
 21
152.481878
  0
LINE
  5
17F
100
AcDbEntity
  8
M0
 62
     4
100
AcDbLine
 10
249.408994
 20
152.568278
 11
250.318996
 21
152.568278
  0
LINE
  5
180
100
AcDbEntity
  8
M0
 62
     4
100
AcDbLine
 10
249.432225
 20
152.654678
 11
250.295765
 21
152.654678
  0
LINE
  5
181
100
AcDbEntity
  8
M0
 62
     4
100
AcDbLine
 10
249.455456
 20
152.741078
 11
250.272534
 21
152.741078
  0
LINE
  5
182
100
AcDbEntity
  8
M0
 62
     4
100
AcDbLine
 10
249.478687
 20
152.827478
 11
250.249303
 21
152.827478
  0
LINE
  5
183
100
AcDbEntity
  8
M0
 62
     4
100
AcDbLine
 10
249.501918
 20
152.913878
 11
250.226071
 21
152.913878
  0
LINE
  5
184
100
AcDbEntity
  8
M0
 62
     4
100
AcDbLine
 10
249.52515
 20
153.000278
 11
250.20284
 21
153.000278
  0
LINE
  5
185
100
AcDbEntity
  8
M0
 62
     4
100
AcDbLine
 10
249.548381
 20
153.086678
 11
250.179609
 21
153.086678
  0
LINE
  5
186
100
AcDbEntity
  8
M0
 62
     4
100
AcDbLine
 10
249.571612
 20
153.173078
 11
250.156378
 21
153.173078
  0
LINE
  5
187
100
AcDbEntity
  8
M0
 62
     4
100
AcDbLine
 10
249.594843
 20
153.259478
 11
250.133147
 21
153.259478
  0
LINE
  5
188
100
AcDbEntity
  8
M0
 62
     4
100
AcDbLine
 10
249.618074
 20
153.345878
 11
250.109915
 21
153.345878
  0
LINE
  5
189
100
AcDbEntity
  8
M0
 62
     4
100
AcDbLine
 10
249.641306
 20
153.432278
 11
250.086684
 21
153.432278
  0
LINE
  5
18A
100
AcDbEntity
  8
M0
 62
     4
100
AcDbLine
 10
249.664537
 20
153.518678
 11
250.063453
 21
153.518678
  0
LINE
  5
18B
100
AcDbEntity
  8
M0
 62
     4
100
AcDbLine
 10
249.687768
 20
153.605078
 11
250.040222
 21
153.605078
  0
LINE
  5
18C
100
AcDbEntity
  8
M0
 62
     4
100
AcDbLine
 10
249.710999
 20
153.691478
 11
250.01699
 21
153.691478
  0
LINE
  5
18D
100
AcDbEntity
  8
M0
 62
     4
100
AcDbLine
 10
249.734231
 20
153.777878
 11
249.993759
 21
153.777878
  0
LINE
  5
18E
100
AcDbEntity
  8
M0
 62
     4
100
AcDbLine
 10
249.757462
 20
153.864278
 11
249.970528
 21
153.864278
  0
LINE
  5
18F
100
AcDbEntity
  8
M0
 62
     4
100
AcDbLine
 10
249.780693
 20
153.950678
 11
249.947297
 21
153.950678
  0
LINE
  5
190
100
AcDbEntity
  8
M0
 62
     4
100
AcDbLine
 10
249.803924
 20
154.037078
 11
249.924066
 21
154.037078
  0
LINE
  5
191
100
AcDbEntity
  8
M0
 62
     4
100
AcDbLine
 10
249.827155
 20
154.123478
 11
249.900834
 21
154.123478
  0
LINE
  5
192
100
AcDbEntity
  8
M0
 62
     4
100
AcDbLine
 10
249.850387
 20
154.209878
 11
249.877603
 21
154.209878
  0
TEXT
  5
193
100
AcDbEntity
  8
M0
 62
     4
100
AcDbText
 10
205.837316
 20
140.815481
 40
2.29824
  1
ＬＥＤ
 50
2.504478E-006
 41
0.796429
  7
STANDARD
100
AcDbText
  0
TEXT
  5
194
100
AcDbEntity
  8
M0
 62
     4
100
AcDbText
 10
205.836486
 20
140.815481
 40
2.29824
  1
ＬＥＤ
 50
2.504478E-006
 41
0.796429
  7
STANDARD
100
AcDbText
  0
TEXT
  5
195
100
AcDbEntity
  8
M0
 62
     4
100
AcDbText
 10
205.835655
 20
140.815481
 40
2.29824
  1
ＬＥＤ
 50
2.504478E-006
 41
0.796429
  7
STANDARD
100
AcDbText
  0
TEXT
  5
196
100
AcDbEntity
  8
M0
 62
     4
100
AcDbText
 10
205.834838
 20
140.815481
 40
2.29824
  1
ＬＥＤ
 50
2.504478E-006
 41
0.796429
  7
STANDARD
100
AcDbText
  0
TEXT
  5
197
100
AcDbEntity
  8
M0
 62
     4
100
AcDbText
 10
205.834007
 20
140.815481
 40
2.29824
  1
ＬＥＤ
 50
2.504478E-006
 41
0.796429
  7
STANDARD
100
AcDbText
  0
TEXT
  5
198
100
AcDbEntity
  8
M0
 62
     4
100
AcDbText
 10
205.833177
 20
140.815481
 40
2.29824
  1
ＬＥＤ
 50
2.504478E-006
 41
0.796429
  7
STANDARD
100
AcDbText
  0
TEXT
  5
199
100
AcDbEntity
  8
M0
 62
     4
100
AcDbText
 10
205.832359
 20
140.815481
 40
2.29824
  1
ＬＥＤ
 50
2.504478E-006
 41
0.796429
  7
STANDARD
100
AcDbText
  0
TEXT
  5
19A
100
AcDbEntity
  8
M0
 62
     4
100
AcDbText
 10
205.831529
 20
140.815481
 40
2.29824
  1
ＬＥＤ
 50
2.504478E-006
 41
0.796429
  7
STANDARD
100
AcDbText
  0
TEXT
  5
19B
100
AcDbEntity
  8
M0
 62
     4
100
AcDbText
 10
205.830698
 20
140.815481
 40
2.29824
  1
ＬＥＤ
 50
2.504478E-006
 41
0.796429
  7
STANDARD
100
AcDbText
  0
TEXT
  5
19C
100
AcDbEntity
  8
M0
 62
     4
100
AcDbText
 10
205.829881
 20
140.815481
 40
2.29824
  1
ＬＥＤ
 50
2.504478E-006
 41
0.796429
  7
STANDARD
100
AcDbText
  0
TEXT
  5
19D
100
AcDbEntity
  8
M0
 62
     4
100
AcDbText
 10
205.82905
 20
140.815481
 40
2.29824
  1
ＬＥＤ
 50
2.504478E-006
 41
0.796429
  7
STANDARD
100
AcDbText
  0
TEXT
  5
19E
100
AcDbEntity
  8
M0
 62
     4
100
AcDbText
 10
205.828219
 20
140.815481
 40
2.29824
  1
ＬＥＤ
 50
2.504478E-006
 41
0.796429
  7
STANDARD
100
AcDbText
  0
TEXT
  5
19F
100
AcDbEntity
  8
M0
 62
     4
100
AcDbText
 10
205.827389
 20
140.815481
 40
2.29824
  1
ＬＥＤ
 50
2.504478E-006
 41
0.796429
  7
STANDARD
100
AcDbText
  0
TEXT
  5
1A0
100
AcDbEntity
  8
M0
 62
     4
100
AcDbText
 10
205.826571
 20
140.815481
 40
2.29824
  1
ＬＥＤ
 50
2.504478E-006
 41
0.796429
  7
STANDARD
100
AcDbText
  0
TEXT
  5
1A1
100
AcDbEntity
  8
M0
 62
     4
100
AcDbText
 10
205.825741
 20
140.815481
 40
2.29824
  1
ＬＥＤ
 50
2.504478E-006
 41
0.796429
  7
STANDARD
100
AcDbText
  0
TEXT
  5
1A2
100
AcDbEntity
  8
M0
 62
     4
100
AcDbText
 10
205.824911
 20
140.815481
 40
2.29824
  1
ＬＥＤ
 50
2.504478E-006
 41
0.796429
  7
STANDARD
100
AcDbText
  0
TEXT
  5
1A3
100
AcDbEntity
  8
M0
 62
     4
100
AcDbText
 10
205.824093
 20
140.815481
 40
2.29824
  1
ＬＥＤ
 50
2.504478E-006
 41
0.796429
  7
STANDARD
100
AcDbText
  0
TEXT
  5
1A4
100
AcDbEntity
  8
M0
 62
     4
100
AcDbText
 10
205.823263
 20
140.815481
 40
2.29824
  1
ＬＥＤ
 50
2.504478E-006
 41
0.796429
  7
STANDARD
100
AcDbText
  0
TEXT
  5
1A5
100
AcDbEntity
  8
M0
 62
     4
100
AcDbText
 10
205.822432
 20
140.815481
 40
2.29824
  1
ＬＥＤ
 50
2.504478E-006
 41
0.796429
  7
STANDARD
100
AcDbText
  0
TEXT
  5
1A6
100
AcDbEntity
  8
M0
 62
     4
100
AcDbText
 10
205.821615
 20
140.815481
 40
2.29824
  1
ＬＥＤ
 50
2.504478E-006
 41
0.796429
  7
STANDARD
100
AcDbText
  0
TEXT
  5
1A7
100
AcDbEntity
  8
M0
 62
     4
100
AcDbText
 10
205.820784
 20
140.815481
 40
2.29824
  1
ＬＥＤ
 50
2.504478E-006
 41
0.796429
  7
STANDARD
100
AcDbText
  0
TEXT
  5
1A8
100
AcDbEntity
  8
M0
 62
     4
100
AcDbText
 10
205.819953
 20
140.815481
 40
2.29824
  1
ＬＥＤ
 50
2.504478E-006
 41
0.796429
  7
STANDARD
100
AcDbText
  0
TEXT
  5
1A9
100
AcDbEntity
  8
M0
 62
     4
100
AcDbText
 10
205.819123
 20
140.815481
 40
2.29824
  1
ＬＥＤ
 50
2.504478E-006
 41
0.796429
  7
STANDARD
100
AcDbText
  0
TEXT
  5
1AA
100
AcDbEntity
  8
M0
 62
     4
100
AcDbText
 10
205.818305
 20
140.815481
 40
2.29824
  1
ＬＥＤ
 50
2.504478E-006
 41
0.796429
  7
STANDARD
100
AcDbText
  0
TEXT
  5
1AB
100
AcDbEntity
  8
M0
 62
     4
100
AcDbText
 10
205.817475
 20
140.815481
 40
2.29824
  1
ＬＥＤ
 50
2.504478E-006
 41
0.796429
  7
STANDARD
100
AcDbText
  0
TEXT
  5
1AC
100
AcDbEntity
  8
M0
 62
     4
100
AcDbText
 10
205.816644
 20
140.815481
 40
2.29824
  1
ＬＥＤ
 50
2.504478E-006
 41
0.796429
  7
STANDARD
100
AcDbText
  0
TEXT
  5
1AD
100
AcDbEntity
  8
M0
 62
     4
100
AcDbText
 10
205.815827
 20
140.815481
 40
2.29824
  1
ＬＥＤ
 50
2.504478E-006
 41
0.796429
  7
STANDARD
100
AcDbText
  0
TEXT
  5
1AE
100
AcDbEntity
  8
M0
 62
     4
100
AcDbText
 10
205.814996
 20
140.815481
 40
2.29824
  1
ＬＥＤ
 50
2.504478E-006
 41
0.796429
  7
STANDARD
100
AcDbText
  0
TEXT
  5
1AF
100
AcDbEntity
  8
M0
 62
     4
100
AcDbText
 10
205.814166
 20
140.815481
 40
2.29824
  1
ＬＥＤ
 50
2.504478E-006
 41
0.796429
  7
STANDARD
100
AcDbText
  0
TEXT
  5
1B0
100
AcDbEntity
  8
M0
 62
     4
100
AcDbText
 10
205.813348
 20
140.815481
 40
2.29824
  1
ＬＥＤ
 50
2.504478E-006
 41
0.796429
  7
STANDARD
100
AcDbText
  0
TEXT
  5
1B1
100
AcDbEntity
  8
M0
 62
     4
100
AcDbText
 10
205.812518
 20
140.815481
 40
2.29824
  1
ＬＥＤ
 50
2.504478E-006
 41
0.796429
  7
STANDARD
100
AcDbText
  0
TEXT
  5
1B2
100
AcDbEntity
  8
M0
 62
     4
100
AcDbText
 10
205.811687
 20
140.815481
 40
2.29824
  1
ＬＥＤ
 50
2.504478E-006
 41
0.796429
  7
STANDARD
100
AcDbText
  0
TEXT
  5
1B3
100
AcDbEntity
  8
M0
 62
     4
100
AcDbText
 10
205.810857
 20
140.815481
 40
2.29824
  1
ＬＥＤ
 50
2.504478E-006
 41
0.796429
  7
STANDARD
100
AcDbText
  0
TEXT
  5
1B4
100
AcDbEntity
  8
M0
 62
     4
100
AcDbText
 10
205.810039
 20
140.815481
 40
2.29824
  1
ＬＥＤ
 50
2.504478E-006
 41
0.796429
  7
STANDARD
100
AcDbText
  0
TEXT
  5
1B5
100
AcDbEntity
  8
M0
 62
     4
100
AcDbText
 10
205.809209
 20
140.815481
 40
2.29824
  1
ＬＥＤ
 50
2.504478E-006
 41
0.796429
  7
STANDARD
100
AcDbText
  0
TEXT
  5
1B6
100
AcDbEntity
  8
M0
 62
     4
100
AcDbText
 10
205.841443
 20
140.814657
 40
2.29824
  1
ＬＥＤ
 50
2.504478E-006
 41
0.796429
  7
STANDARD
100
AcDbText
  0
TEXT
  5
1B7
100
AcDbEntity
  8
M0
 62
     4
100
AcDbText
 10
205.840625
 20
140.814657
 40
2.29824
  1
ＬＥＤ
 50
2.504478E-006
 41
0.796429
  7
STANDARD
100
AcDbText
  0
TEXT
  5
1B8
100
AcDbEntity
  8
M0
 62
     4
100
AcDbText
 10
205.839795
 20
140.814657
 40
2.29824
  1
ＬＥＤ
 50
2.504478E-006
 41
0.796429
  7
STANDARD
100
AcDbText
  0
TEXT
  5
1B9
100
AcDbEntity
  8
M0
 62
     4
100
AcDbText
 10
205.838964
 20
140.814657
 40
2.29824
  1
ＬＥＤ
 50
2.504478E-006
 41
0.796429
  7
STANDARD
100
AcDbText
  0
TEXT
  5
1BA
100
AcDbEntity
  8
M0
 62
     4
100
AcDbText
 10
205.838147
 20
140.814657
 40
2.29824
  1
ＬＥＤ
 50
2.504478E-006
 41
0.796429
  7
STANDARD
100
AcDbText
  0
TEXT
  5
1BB
100
AcDbEntity
  8
M0
 62
     4
100
AcDbText
 10
205.837316
 20
140.814657
 40
2.29824
  1
ＬＥＤ
 50
2.504478E-006
 41
0.796429
  7
STANDARD
100
AcDbText
  0
TEXT
  5
1BC
100
AcDbEntity
  8
M0
 62
     4
100
AcDbText
 10
205.836486
 20
140.814657
 40
2.29824
  1
ＬＥＤ
 50
2.504478E-006
 41
0.796429
  7
STANDARD
100
AcDbText
  0
TEXT
  5
1BD
100
AcDbEntity
  8
M0
 62
     4
100
AcDbText
 10
205.835655
 20
140.814657
 40
2.29824
  1
ＬＥＤ
 50
2.504478E-006
 41
0.796429
  7
STANDARD
100
AcDbText
  0
TEXT
  5
1BE
100
AcDbEntity
  8
M0
 62
     4
100
AcDbText
 10
205.834838
 20
140.814657
 40
2.29824
  1
ＬＥＤ
 50
2.504478E-006
 41
0.796429
  7
STANDARD
100
AcDbText
  0
TEXT
  5
1BF
100
AcDbEntity
  8
M0
 62
     4
100
AcDbText
 10
205.834007
 20
140.814657
 40
2.29824
  1
ＬＥＤ
 50
2.504478E-006
 41
0.796429
  7
STANDARD
100
AcDbText
  0
TEXT
  5
1C0
100
AcDbEntity
  8
M0
 62
     4
100
AcDbText
 10
205.833177
 20
140.814657
 40
2.29824
  1
ＬＥＤ
 50
2.504478E-006
 41
0.796429
  7
STANDARD
100
AcDbText
  0
TEXT
  5
1C1
100
AcDbEntity
  8
M0
 62
     4
100
AcDbText
 10
205.832359
 20
140.814657
 40
2.29824
  1
ＬＥＤ
 50
2.504478E-006
 41
0.796429
  7
STANDARD
100
AcDbText
  0
TEXT
  5
1C2
100
AcDbEntity
  8
M0
 62
     4
100
AcDbText
 10
205.831529
 20
140.814657
 40
2.29824
  1
ＬＥＤ
 50
2.504478E-006
 41
0.796429
  7
STANDARD
100
AcDbText
  0
TEXT
  5
1C3
100
AcDbEntity
  8
M0
 62
     4
100
AcDbText
 10
205.830698
 20
140.814657
 40
2.29824
  1
ＬＥＤ
 50
2.504478E-006
 41
0.796429
  7
STANDARD
100
AcDbText
  0
TEXT
  5
1C4
100
AcDbEntity
  8
M0
 62
     4
100
AcDbText
 10
205.829881
 20
140.814657
 40
2.29824
  1
ＬＥＤ
 50
2.504478E-006
 41
0.796429
  7
STANDARD
100
AcDbText
  0
TEXT
  5
1C5
100
AcDbEntity
  8
M0
 62
     4
100
AcDbText
 10
205.82905
 20
140.814657
 40
2.29824
  1
ＬＥＤ
 50
2.504478E-006
 41
0.796429
  7
STANDARD
100
AcDbText
  0
TEXT
  5
1C6
100
AcDbEntity
  8
M0
 62
     4
100
AcDbText
 10
205.828219
 20
140.814657
 40
2.29824
  1
ＬＥＤ
 50
2.504478E-006
 41
0.796429
  7
STANDARD
100
AcDbText
  0
TEXT
  5
1C7
100
AcDbEntity
  8
M0
 62
     4
100
AcDbText
 10
205.827389
 20
140.814657
 40
2.29824
  1
ＬＥＤ
 50
2.504478E-006
 41
0.796429
  7
STANDARD
100
AcDbText
  0
TEXT
  5
1C8
100
AcDbEntity
  8
M0
 62
     4
100
AcDbText
 10
205.826571
 20
140.814657
 40
2.29824
  1
ＬＥＤ
 50
2.504478E-006
 41
0.796429
  7
STANDARD
100
AcDbText
  0
TEXT
  5
1C9
100
AcDbEntity
  8
M0
 62
     4
100
AcDbText
 10
205.825741
 20
140.814657
 40
2.29824
  1
ＬＥＤ
 50
2.504478E-006
 41
0.796429
  7
STANDARD
100
AcDbText
  0
TEXT
  5
1CA
100
AcDbEntity
  8
M0
 62
     4
100
AcDbText
 10
205.824911
 20
140.814657
 40
2.29824
  1
ＬＥＤ
 50
2.504478E-006
 41
0.796429
  7
STANDARD
100
AcDbText
  0
TEXT
  5
1CB
100
AcDbEntity
  8
M0
 62
     4
100
AcDbText
 10
205.830698
 20
140.812196
 40
2.29824
  1
ＬＥＤ
 50
2.504478E-006
 41
0.796429
  7
STANDARD
100
AcDbText
  0
TEXT
  5
1CC
100
AcDbEntity
  8
M0
 62
     4
100
AcDbText
 10
205.829881
 20
140.812196
 40
2.29824
  1
ＬＥＤ
 50
2.504478E-006
 41
0.796429
  7
STANDARD
100
AcDbText
  0
TEXT
  5
1CD
100
AcDbEntity
  8
M0
 62
     4
100
AcDbText
 10
205.82905
 20
140.812196
 40
2.29824
  1
ＬＥＤ
 50
2.504478E-006
 41
0.796429
  7
STANDARD
100
AcDbText
  0
TEXT
  5
1CE
100
AcDbEntity
  8
M0
 62
     4
100
AcDbText
 10
205.828219
 20
140.812196
 40
2.29824
  1
ＬＥＤ
 50
2.504478E-006
 41
0.796429
  7
STANDARD
100
AcDbText
  0
TEXT
  5
1CF
100
AcDbEntity
  8
M0
 62
     4
100
AcDbText
 10
205.827389
 20
140.812196
 40
2.29824
  1
ＬＥＤ
 50
2.504478E-006
 41
0.796429
  7
STANDARD
100
AcDbText
  0
TEXT
  5
1D0
100
AcDbEntity
  8
M0
 62
     4
100
AcDbText
 10
205.826571
 20
140.812196
 40
2.29824
  1
ＬＥＤ
 50
2.504478E-006
 41
0.796429
  7
STANDARD
100
AcDbText
  0
TEXT
  5
1D1
100
AcDbEntity
  8
M0
 62
     4
100
AcDbText
 10
205.825741
 20
140.812196
 40
2.29824
  1
ＬＥＤ
 50
2.504478E-006
 41
0.796429
  7
STANDARD
100
AcDbText
  0
TEXT
  5
1D2
100
AcDbEntity
  8
M0
 62
     4
100
AcDbText
 10
205.824911
 20
140.812196
 40
2.29824
  1
ＬＥＤ
 50
2.504478E-006
 41
0.796429
  7
STANDARD
100
AcDbText
  0
TEXT
  5
1D3
100
AcDbEntity
  8
M0
 62
     4
100
AcDbText
 10
205.824093
 20
140.812196
 40
2.29824
  1
ＬＥＤ
 50
2.504478E-006
 41
0.796429
  7
STANDARD
100
AcDbText
  0
TEXT
  5
1D4
100
AcDbEntity
  8
M0
 62
     4
100
AcDbText
 10
205.823263
 20
140.812196
 40
2.29824
  1
ＬＥＤ
 50
2.504478E-006
 41
0.796429
  7
STANDARD
100
AcDbText
  0
TEXT
  5
1D5
100
AcDbEntity
  8
M0
 62
     4
100
AcDbText
 10
205.822432
 20
140.812196
 40
2.29824
  1
ＬＥＤ
 50
2.504478E-006
 41
0.796429
  7
STANDARD
100
AcDbText
  0
TEXT
  5
1D6
100
AcDbEntity
  8
M0
 62
     4
100
AcDbText
 10
205.821615
 20
140.812196
 40
2.29824
  1
ＬＥＤ
 50
2.504478E-006
 41
0.796429
  7
STANDARD
100
AcDbText
  0
TEXT
  5
1D7
100
AcDbEntity
  8
M0
 62
     4
100
AcDbText
 10
205.820784
 20
140.812196
 40
2.29824
  1
ＬＥＤ
 50
2.504478E-006
 41
0.796429
  7
STANDARD
100
AcDbText
  0
TEXT
  5
1D8
100
AcDbEntity
  8
M0
 62
     4
100
AcDbText
 10
205.819953
 20
140.812196
 40
2.29824
  1
ＬＥＤ
 50
2.504478E-006
 41
0.796429
  7
STANDARD
100
AcDbText
  0
TEXT
  5
1D9
100
AcDbEntity
  8
M0
 62
     4
100
AcDbText
 10
205.819123
 20
140.812196
 40
2.29824
  1
ＬＥＤ
 50
2.504478E-006
 41
0.796429
  7
STANDARD
100
AcDbText
  0
TEXT
  5
1DA
100
AcDbEntity
  8
M0
 62
     4
100
AcDbText
 10
205.818305
 20
140.812196
 40
2.29824
  1
ＬＥＤ
 50
2.504478E-006
 41
0.796429
  7
STANDARD
100
AcDbText
  0
TEXT
  5
1DB
100
AcDbEntity
  8
M0
 62
     4
100
AcDbText
 10
205.817475
 20
140.812196
 40
2.29824
  1
ＬＥＤ
 50
2.504478E-006
 41
0.796429
  7
STANDARD
100
AcDbText
  0
TEXT
  5
1DC
100
AcDbEntity
  8
M0
 62
     4
100
AcDbText
 10
205.816644
 20
140.812196
 40
2.29824
  1
ＬＥＤ
 50
2.504478E-006
 41
0.796429
  7
STANDARD
100
AcDbText
  0
TEXT
  5
1DD
100
AcDbEntity
  8
M0
 62
     4
100
AcDbText
 10
205.815827
 20
140.812196
 40
2.29824
  1
ＬＥＤ
 50
2.504478E-006
 41
0.796429
  7
STANDARD
100
AcDbText
  0
TEXT
  5
1DE
100
AcDbEntity
  8
M0
 62
     4
100
AcDbText
 10
205.814996
 20
140.812196
 40
2.29824
  1
ＬＥＤ
 50
2.504478E-006
 41
0.796429
  7
STANDARD
100
AcDbText
  0
TEXT
  5
1DF
100
AcDbEntity
  8
M0
 62
     4
100
AcDbText
 10
205.814166
 20
140.812196
 40
2.29824
  1
ＬＥＤ
 50
2.504478E-006
 41
0.796429
  7
STANDARD
100
AcDbText
  0
TEXT
  5
1E0
100
AcDbEntity
  8
M0
 62
     4
100
AcDbText
 10
205.813348
 20
140.812196
 40
2.29824
  1
ＬＥＤ
 50
2.504478E-006
 41
0.796429
  7
STANDARD
100
AcDbText
  0
TEXT
  5
1E1
100
AcDbEntity
  8
M0
 62
     4
100
AcDbText
 10
205.812518
 20
140.812196
 40
2.29824
  1
ＬＥＤ
 50
2.504478E-006
 41
0.796429
  7
STANDARD
100
AcDbText
  0
TEXT
  5
1E2
100
AcDbEntity
  8
M0
 62
     4
100
AcDbText
 10
205.811687
 20
140.812196
 40
2.29824
  1
ＬＥＤ
 50
2.504478E-006
 41
0.796429
  7
STANDARD
100
AcDbText
  0
TEXT
  5
1E3
100
AcDbEntity
  8
M0
 62
     4
100
AcDbText
 10
205.810857
 20
140.812196
 40
2.29824
  1
ＬＥＤ
 50
2.504478E-006
 41
0.796429
  7
STANDARD
100
AcDbText
  0
TEXT
  5
1E4
100
AcDbEntity
  8
M0
 62
     4
100
AcDbText
 10
205.810039
 20
140.812196
 40
2.29824
  1
ＬＥＤ
 50
2.504478E-006
 41
0.796429
  7
STANDARD
100
AcDbText
  0
TEXT
  5
1E5
100
AcDbEntity
  8
M0
 62
     4
100
AcDbText
 10
205.809209
 20
140.812196
 40
2.29824
  1
ＬＥＤ
 50
2.504478E-006
 41
0.796429
  7
STANDARD
100
AcDbText
  0
TEXT
  5
1E6
100
AcDbEntity
  8
M0
 62
     4
100
AcDbText
 10
205.841443
 20
140.81138
 40
2.29824
  1
ＬＥＤ
 50
2.504478E-006
 41
0.796429
  7
STANDARD
100
AcDbText
  0
TEXT
  5
1E7
100
AcDbEntity
  8
M0
 62
     4
100
AcDbText
 10
205.840625
 20
140.81138
 40
2.29824
  1
ＬＥＤ
 50
2.504478E-006
 41
0.796429
  7
STANDARD
100
AcDbText
  0
TEXT
  5
1E8
100
AcDbEntity
  8
M0
 62
     4
100
AcDbText
 10
205.839795
 20
140.81138
 40
2.29824
  1
ＬＥＤ
 50
2.504478E-006
 41
0.796429
  7
STANDARD
100
AcDbText
  0
TEXT
  5
1E9
100
AcDbEntity
  8
M0
 62
     4
100
AcDbText
 10
205.838964
 20
140.81138
 40
2.29824
  1
ＬＥＤ
 50
2.504478E-006
 41
0.796429
  7
STANDARD
100
AcDbText
  0
TEXT
  5
1EA
100
AcDbEntity
  8
M0
 62
     4
100
AcDbText
 10
205.838147
 20
140.81138
 40
2.29824
  1
ＬＥＤ
 50
2.504478E-006
 41
0.796429
  7
STANDARD
100
AcDbText
  0
TEXT
  5
1EB
100
AcDbEntity
  8
M0
 62
     4
100
AcDbText
 10
205.837316
 20
140.81138
 40
2.29824
  1
ＬＥＤ
 50
2.504478E-006
 41
0.796429
  7
STANDARD
100
AcDbText
  0
TEXT
  5
1EC
100
AcDbEntity
  8
M0
 62
     4
100
AcDbText
 10
205.836486
 20
140.81138
 40
2.29824
  1
ＬＥＤ
 50
2.504478E-006
 41
0.796429
  7
STANDARD
100
AcDbText
  0
TEXT
  5
1ED
100
AcDbEntity
  8
M0
 62
     4
100
AcDbText
 10
205.835655
 20
140.81138
 40
2.29824
  1
ＬＥＤ
 50
2.504478E-006
 41
0.796429
  7
STANDARD
100
AcDbText
  0
TEXT
  5
1EE
100
AcDbEntity
  8
M0
 62
     4
100
AcDbText
 10
205.834838
 20
140.81138
 40
2.29824
  1
ＬＥＤ
 50
2.504478E-006
 41
0.796429
  7
STANDARD
100
AcDbText
  0
TEXT
  5
1EF
100
AcDbEntity
  8
M0
 62
     4
100
AcDbText
 10
205.834007
 20
140.81138
 40
2.29824
  1
ＬＥＤ
 50
2.504478E-006
 41
0.796429
  7
STANDARD
100
AcDbText
  0
TEXT
  5
1F0
100
AcDbEntity
  8
M0
 62
     4
100
AcDbText
 10
205.833177
 20
140.81138
 40
2.29824
  1
ＬＥＤ
 50
2.504478E-006
 41
0.796429
  7
STANDARD
100
AcDbText
  0
TEXT
  5
1F1
100
AcDbEntity
  8
M0
 62
     4
100
AcDbText
 10
205.832359
 20
140.81138
 40
2.29824
  1
ＬＥＤ
 50
2.504478E-006
 41
0.796429
  7
STANDARD
100
AcDbText
  0
TEXT
  5
1F2
100
AcDbEntity
  8
M0
 62
     4
100
AcDbText
 10
205.831529
 20
140.81138
 40
2.29824
  1
ＬＥＤ
 50
2.504478E-006
 41
0.796429
  7
STANDARD
100
AcDbText
  0
TEXT
  5
1F3
100
AcDbEntity
  8
M0
 62
     4
100
AcDbText
 10
205.830698
 20
140.81138
 40
2.29824
  1
ＬＥＤ
 50
2.504478E-006
 41
0.796429
  7
STANDARD
100
AcDbText
  0
TEXT
  5
1F4
100
AcDbEntity
  8
M0
 62
     4
100
AcDbText
 10
205.829881
 20
140.81138
 40
2.29824
  1
ＬＥＤ
 50
2.504478E-006
 41
0.796429
  7
STANDARD
100
AcDbText
  0
TEXT
  5
1F5
100
AcDbEntity
  8
M0
 62
     4
100
AcDbText
 10
205.82905
 20
140.81138
 40
2.29824
  1
ＬＥＤ
 50
2.504478E-006
 41
0.796429
  7
STANDARD
100
AcDbText
  0
TEXT
  5
1F6
100
AcDbEntity
  8
M0
 62
     4
100
AcDbText
 10
205.828219
 20
140.81138
 40
2.29824
  1
ＬＥＤ
 50
2.504478E-006
 41
0.796429
  7
STANDARD
100
AcDbText
  0
TEXT
  5
1F7
100
AcDbEntity
  8
M0
 62
     4
100
AcDbText
 10
205.827389
 20
140.81138
 40
2.29824
  1
ＬＥＤ
 50
2.504478E-006
 41
0.796429
  7
STANDARD
100
AcDbText
  0
TEXT
  5
1F8
100
AcDbEntity
  8
M0
 62
     4
100
AcDbText
 10
205.826571
 20
140.81138
 40
2.29824
  1
ＬＥＤ
 50
2.504478E-006
 41
0.796429
  7
STANDARD
100
AcDbText
  0
TEXT
  5
1F9
100
AcDbEntity
  8
M0
 62
     4
100
AcDbText
 10
205.825741
 20
140.81138
 40
2.29824
  1
ＬＥＤ
 50
2.504478E-006
 41
0.796429
  7
STANDARD
100
AcDbText
  0
TEXT
  5
1FA
100
AcDbEntity
  8
M0
 62
     4
100
AcDbText
 10
205.824911
 20
140.81138
 40
2.29824
  1
ＬＥＤ
 50
2.504478E-006
 41
0.796429
  7
STANDARD
100
AcDbText
  0
TEXT
  5
1FB
100
AcDbEntity
  8
M0
 62
     4
100
AcDbText
 10
205.824093
 20
140.81138
 40
2.29824
  1
ＬＥＤ
 50
2.504478E-006
 41
0.796429
  7
STANDARD
100
AcDbText
  0
TEXT
  5
1FC
100
AcDbEntity
  8
M0
 62
     4
100
AcDbText
 10
205.823263
 20
140.81138
 40
2.29824
  1
ＬＥＤ
 50
2.504478E-006
 41
0.796429
  7
STANDARD
100
AcDbText
  0
TEXT
  5
1FD
100
AcDbEntity
  8
M0
 62
     4
100
AcDbText
 10
205.822432
 20
140.81138
 40
2.29824
  1
ＬＥＤ
 50
2.504478E-006
 41
0.796429
  7
STANDARD
100
AcDbText
  0
TEXT
  5
1FE
100
AcDbEntity
  8
M0
 62
     4
100
AcDbText
 10
205.821615
 20
140.81138
 40
2.29824
  1
ＬＥＤ
 50
2.504478E-006
 41
0.796429
  7
STANDARD
100
AcDbText
  0
TEXT
  5
1FF
100
AcDbEntity
  8
M0
 62
     4
100
AcDbText
 10
205.820784
 20
140.81138
 40
2.29824
  1
ＬＥＤ
 50
2.504478E-006
 41
0.796429
  7
STANDARD
100
AcDbText
  0
TEXT
  5
200
100
AcDbEntity
  8
M0
 62
     4
100
AcDbText
 10
205.819953
 20
140.81138
 40
2.29824
  1
ＬＥＤ
 50
2.504478E-006
 41
0.796429
  7
STANDARD
100
AcDbText
  0
TEXT
  5
201
100
AcDbEntity
  8
M0
 62
     4
100
AcDbText
 10
205.819123
 20
140.81138
 40
2.29824
  1
ＬＥＤ
 50
2.504478E-006
 41
0.796429
  7
STANDARD
100
AcDbText
  0
TEXT
  5
202
100
AcDbEntity
  8
M0
 62
     4
100
AcDbText
 10
205.818305
 20
140.81138
 40
2.29824
  1
ＬＥＤ
 50
2.504478E-006
 41
0.796429
  7
STANDARD
100
AcDbText
  0
TEXT
  5
203
100
AcDbEntity
  8
M0
 62
     4
100
AcDbText
 10
205.817475
 20
140.817121
 40
2.29824
  1
ＬＥＤ
 50
2.504478E-006
 41
0.796429
  7
STANDARD
100
AcDbText
  0
TEXT
  5
204
100
AcDbEntity
  8
M0
 62
     4
100
AcDbText
 10
205.816644
 20
140.817121
 40
2.29824
  1
ＬＥＤ
 50
2.504478E-006
 41
0.796429
  7
STANDARD
100
AcDbText
  0
TEXT
  5
205
100
AcDbEntity
  8
M0
 62
     4
100
AcDbText
 10
205.815827
 20
140.817121
 40
2.29824
  1
ＬＥＤ
 50
2.504478E-006
 41
0.796429
  7
STANDARD
100
AcDbText
  0
TEXT
  5
206
100
AcDbEntity
  8
M0
 62
     4
100
AcDbText
 10
205.814996
 20
140.817121
 40
2.29824
  1
ＬＥＤ
 50
2.504478E-006
 41
0.796429
  7
STANDARD
100
AcDbText
  0
TEXT
  5
207
100
AcDbEntity
  8
M0
 62
     4
100
AcDbText
 10
205.814166
 20
140.817121
 40
2.29824
  1
ＬＥＤ
 50
2.504478E-006
 41
0.796429
  7
STANDARD
100
AcDbText
  0
TEXT
  5
208
100
AcDbEntity
  8
M0
 62
     4
100
AcDbText
 10
205.813348
 20
140.817121
 40
2.29824
  1
ＬＥＤ
 50
2.504478E-006
 41
0.796429
  7
STANDARD
100
AcDbText
  0
TEXT
  5
209
100
AcDbEntity
  8
M0
 62
     4
100
AcDbText
 10
205.812518
 20
140.817121
 40
2.29824
  1
ＬＥＤ
 50
2.504478E-006
 41
0.796429
  7
STANDARD
100
AcDbText
  0
TEXT
  5
20A
100
AcDbEntity
  8
M0
 62
     4
100
AcDbText
 10
205.811687
 20
140.817121
 40
2.29824
  1
ＬＥＤ
 50
2.504478E-006
 41
0.796429
  7
STANDARD
100
AcDbText
  0
TEXT
  5
20B
100
AcDbEntity
  8
M0
 62
     4
100
AcDbText
 10
205.810857
 20
140.817121
 40
2.29824
  1
ＬＥＤ
 50
2.504478E-006
 41
0.796429
  7
STANDARD
100
AcDbText
  0
TEXT
  5
20C
100
AcDbEntity
  8
M0
 62
     4
100
AcDbText
 10
205.810039
 20
140.817121
 40
2.29824
  1
ＬＥＤ
 50
2.504478E-006
 41
0.796429
  7
STANDARD
100
AcDbText
  0
TEXT
  5
20D
100
AcDbEntity
  8
M0
 62
     4
100
AcDbText
 10
205.809209
 20
140.817121
 40
2.29824
  1
ＬＥＤ
 50
2.504478E-006
 41
0.796429
  7
STANDARD
100
AcDbText
  0
TEXT
  5
20E
100
AcDbEntity
  8
M0
 62
     4
100
AcDbText
 10
205.841443
 20
140.816297
 40
2.29824
  1
ＬＥＤ
 50
2.504478E-006
 41
0.796429
  7
STANDARD
100
AcDbText
  0
TEXT
  5
20F
100
AcDbEntity
  8
M0
 62
     4
100
AcDbText
 10
205.840625
 20
140.816297
 40
2.29824
  1
ＬＥＤ
 50
2.504478E-006
 41
0.796429
  7
STANDARD
100
AcDbText
  0
TEXT
  5
210
100
AcDbEntity
  8
M0
 62
     4
100
AcDbText
 10
205.839795
 20
140.816297
 40
2.29824
  1
ＬＥＤ
 50
2.504478E-006
 41
0.796429
  7
STANDARD
100
AcDbText
  0
TEXT
  5
211
100
AcDbEntity
  8
M0
 62
     4
100
AcDbText
 10
205.838964
 20
140.816297
 40
2.29824
  1
ＬＥＤ
 50
2.504478E-006
 41
0.796429
  7
STANDARD
100
AcDbText
  0
TEXT
  5
212
100
AcDbEntity
  8
M0
 62
     4
100
AcDbText
 10
205.838147
 20
140.816297
 40
2.29824
  1
ＬＥＤ
 50
2.504478E-006
 41
0.796429
  7
STANDARD
100
AcDbText
  0
TEXT
  5
213
100
AcDbEntity
  8
M0
 62
     4
100
AcDbText
 10
205.837316
 20
140.816297
 40
2.29824
  1
ＬＥＤ
 50
2.504478E-006
 41
0.796429
  7
STANDARD
100
AcDbText
  0
TEXT
  5
214
100
AcDbEntity
  8
M0
 62
     4
100
AcDbText
 10
205.836486
 20
140.816297
 40
2.29824
  1
ＬＥＤ
 50
2.504478E-006
 41
0.796429
  7
STANDARD
100
AcDbText
  0
TEXT
  5
215
100
AcDbEntity
  8
M0
 62
     4
100
AcDbText
 10
205.835655
 20
140.816297
 40
2.29824
  1
ＬＥＤ
 50
2.504478E-006
 41
0.796429
  7
STANDARD
100
AcDbText
  0
TEXT
  5
216
100
AcDbEntity
  8
M0
 62
     4
100
AcDbText
 10
205.834838
 20
140.816297
 40
2.29824
  1
ＬＥＤ
 50
2.504478E-006
 41
0.796429
  7
STANDARD
100
AcDbText
  0
TEXT
  5
217
100
AcDbEntity
  8
M0
 62
     4
100
AcDbText
 10
205.834007
 20
140.816297
 40
2.29824
  1
ＬＥＤ
 50
2.504478E-006
 41
0.796429
  7
STANDARD
100
AcDbText
  0
TEXT
  5
218
100
AcDbEntity
  8
M0
 62
     4
100
AcDbText
 10
205.833177
 20
140.816297
 40
2.29824
  1
ＬＥＤ
 50
2.504478E-006
 41
0.796429
  7
STANDARD
100
AcDbText
  0
TEXT
  5
219
100
AcDbEntity
  8
M0
 62
     4
100
AcDbText
 10
205.832359
 20
140.816297
 40
2.29824
  1
ＬＥＤ
 50
2.504478E-006
 41
0.796429
  7
STANDARD
100
AcDbText
  0
TEXT
  5
21A
100
AcDbEntity
  8
M0
 62
     4
100
AcDbText
 10
205.831529
 20
140.816297
 40
2.29824
  1
ＬＥＤ
 50
2.504478E-006
 41
0.796429
  7
STANDARD
100
AcDbText
  0
TEXT
  5
21B
100
AcDbEntity
  8
M0
 62
     4
100
AcDbText
 10
205.830698
 20
140.816297
 40
2.29824
  1
ＬＥＤ
 50
2.504478E-006
 41
0.796429
  7
STANDARD
100
AcDbText
  0
TEXT
  5
21C
100
AcDbEntity
  8
M0
 62
     4
100
AcDbText
 10
205.829881
 20
140.816297
 40
2.29824
  1
ＬＥＤ
 50
2.504478E-006
 41
0.796429
  7
STANDARD
100
AcDbText
  0
TEXT
  5
21D
100
AcDbEntity
  8
M0
 62
     4
100
AcDbText
 10
205.82905
 20
140.816297
 40
2.29824
  1
ＬＥＤ
 50
2.504478E-006
 41
0.796429
  7
STANDARD
100
AcDbText
  0
TEXT
  5
21E
100
AcDbEntity
  8
M0
 62
     4
100
AcDbText
 10
205.828219
 20
140.816297
 40
2.29824
  1
ＬＥＤ
 50
2.504478E-006
 41
0.796429
  7
STANDARD
100
AcDbText
  0
TEXT
  5
21F
100
AcDbEntity
  8
M0
 62
     4
100
AcDbText
 10
205.827389
 20
140.816297
 40
2.29824
  1
ＬＥＤ
 50
2.504478E-006
 41
0.796429
  7
STANDARD
100
AcDbText
  0
TEXT
  5
220
100
AcDbEntity
  8
M0
 62
     4
100
AcDbText
 10
205.826571
 20
140.816297
 40
2.29824
  1
ＬＥＤ
 50
2.504478E-006
 41
0.796429
  7
STANDARD
100
AcDbText
  0
TEXT
  5
221
100
AcDbEntity
  8
M0
 62
     4
100
AcDbText
 10
205.825741
 20
140.816297
 40
2.29824
  1
ＬＥＤ
 50
2.504478E-006
 41
0.796429
  7
STANDARD
100
AcDbText
  0
TEXT
  5
222
100
AcDbEntity
  8
M0
 62
     4
100
AcDbText
 10
205.824911
 20
140.816297
 40
2.29824
  1
ＬＥＤ
 50
2.504478E-006
 41
0.796429
  7
STANDARD
100
AcDbText
  0
TEXT
  5
223
100
AcDbEntity
  8
M0
 62
     4
100
AcDbText
 10
205.824093
 20
140.816297
 40
2.29824
  1
ＬＥＤ
 50
2.504478E-006
 41
0.796429
  7
STANDARD
100
AcDbText
  0
TEXT
  5
224
100
AcDbEntity
  8
M0
 62
     4
100
AcDbText
 10
205.823263
 20
140.816297
 40
2.29824
  1
ＬＥＤ
 50
2.504478E-006
 41
0.796429
  7
STANDARD
100
AcDbText
  0
TEXT
  5
225
100
AcDbEntity
  8
M0
 62
     4
100
AcDbText
 10
205.822432
 20
140.816297
 40
2.29824
  1
ＬＥＤ
 50
2.504478E-006
 41
0.796429
  7
STANDARD
100
AcDbText
  0
TEXT
  5
226
100
AcDbEntity
  8
M0
 62
     4
100
AcDbText
 10
205.821615
 20
140.816297
 40
2.29824
  1
ＬＥＤ
 50
2.504478E-006
 41
0.796429
  7
STANDARD
100
AcDbText
  0
TEXT
  5
227
100
AcDbEntity
  8
M0
 62
     4
100
AcDbText
 10
205.820784
 20
140.816297
 40
2.29824
  1
ＬＥＤ
 50
2.504478E-006
 41
0.796429
  7
STANDARD
100
AcDbText
  0
TEXT
  5
228
100
AcDbEntity
  8
M0
 62
     4
100
AcDbText
 10
205.819953
 20
140.816297
 40
2.29824
  1
ＬＥＤ
 50
2.504478E-006
 41
0.796429
  7
STANDARD
100
AcDbText
  0
TEXT
  5
229
100
AcDbEntity
  8
M0
 62
     4
100
AcDbText
 10
205.819123
 20
140.816297
 40
2.29824
  1
ＬＥＤ
 50
2.504478E-006
 41
0.796429
  7
STANDARD
100
AcDbText
  0
TEXT
  5
22A
100
AcDbEntity
  8
M0
 62
     4
100
AcDbText
 10
205.818305
 20
140.816297
 40
2.29824
  1
ＬＥＤ
 50
2.504478E-006
 41
0.796429
  7
STANDARD
100
AcDbText
  0
TEXT
  5
22B
100
AcDbEntity
  8
M0
 62
     4
100
AcDbText
 10
205.817475
 20
140.816297
 40
2.29824
  1
ＬＥＤ
 50
2.504478E-006
 41
0.796429
  7
STANDARD
100
AcDbText
  0
TEXT
  5
22C
100
AcDbEntity
  8
M0
 62
     4
100
AcDbText
 10
205.816644
 20
140.816297
 40
2.29824
  1
ＬＥＤ
 50
2.504478E-006
 41
0.796429
  7
STANDARD
100
AcDbText
  0
TEXT
  5
22D
100
AcDbEntity
  8
M0
 62
     4
100
AcDbText
 10
205.815827
 20
140.816297
 40
2.29824
  1
ＬＥＤ
 50
2.504478E-006
 41
0.796429
  7
STANDARD
100
AcDbText
  0
TEXT
  5
22E
100
AcDbEntity
  8
M0
 62
     4
100
AcDbText
 10
205.814996
 20
140.816297
 40
2.29824
  1
ＬＥＤ
 50
2.504478E-006
 41
0.796429
  7
STANDARD
100
AcDbText
  0
TEXT
  5
22F
100
AcDbEntity
  8
M0
 62
     4
100
AcDbText
 10
205.814166
 20
140.816297
 40
2.29824
  1
ＬＥＤ
 50
2.504478E-006
 41
0.796429
  7
STANDARD
100
AcDbText
  0
TEXT
  5
230
100
AcDbEntity
  8
M0
 62
     4
100
AcDbText
 10
205.813348
 20
140.816297
 40
2.29824
  1
ＬＥＤ
 50
2.504478E-006
 41
0.796429
  7
STANDARD
100
AcDbText
  0
TEXT
  5
231
100
AcDbEntity
  8
M0
 62
     4
100
AcDbText
 10
205.812518
 20
140.816297
 40
2.29824
  1
ＬＥＤ
 50
2.504478E-006
 41
0.796429
  7
STANDARD
100
AcDbText
  0
TEXT
  5
232
100
AcDbEntity
  8
M0
 62
     4
100
AcDbText
 10
205.811687
 20
140.816297
 40
2.29824
  1
ＬＥＤ
 50
2.504478E-006
 41
0.796429
  7
STANDARD
100
AcDbText
  0
TEXT
  5
233
100
AcDbEntity
  8
M0
 62
     4
100
AcDbText
 10
205.810857
 20
140.816297
 40
2.29824
  1
ＬＥＤ
 50
2.504478E-006
 41
0.796429
  7
STANDARD
100
AcDbText
  0
TEXT
  5
234
100
AcDbEntity
  8
M0
 62
     4
100
AcDbText
 10
205.810039
 20
140.816297
 40
2.29824
  1
ＬＥＤ
 50
2.504478E-006
 41
0.796429
  7
STANDARD
100
AcDbText
  0
TEXT
  5
235
100
AcDbEntity
  8
M0
 62
     4
100
AcDbText
 10
205.809209
 20
140.816297
 40
2.29824
  1
ＬＥＤ
 50
2.504478E-006
 41
0.796429
  7
STANDARD
100
AcDbText
  0
TEXT
  5
236
100
AcDbEntity
  8
M0
 62
     4
100
AcDbText
 10
205.841443
 20
140.815481
 40
2.29824
  1
ＬＥＤ
 50
2.504478E-006
 41
0.796429
  7
STANDARD
100
AcDbText
  0
TEXT
  5
237
100
AcDbEntity
  8
M0
 62
     4
100
AcDbText
 10
205.840625
 20
140.815481
 40
2.29824
  1
ＬＥＤ
 50
2.504478E-006
 41
0.796429
  7
STANDARD
100
AcDbText
  0
TEXT
  5
238
100
AcDbEntity
  8
M0
 62
     4
100
AcDbText
 10
205.839795
 20
140.815481
 40
2.29824
  1
ＬＥＤ
 50
2.504478E-006
 41
0.796429
  7
STANDARD
100
AcDbText
  0
TEXT
  5
239
100
AcDbEntity
  8
M0
 62
     4
100
AcDbText
 10
205.838964
 20
140.815481
 40
2.29824
  1
ＬＥＤ
 50
2.504478E-006
 41
0.796429
  7
STANDARD
100
AcDbText
  0
TEXT
  5
23A
100
AcDbEntity
  8
M0
 62
     4
100
AcDbText
 10
205.838147
 20
140.815481
 40
2.29824
  1
ＬＥＤ
 50
2.504478E-006
 41
0.796429
  7
STANDARD
100
AcDbText
  0
TEXT
  5
23B
100
AcDbEntity
  8
M0
 62
     4
100
AcDbText
 10
205.810857
 20
140.819578
 40
2.29824
  1
ＬＥＤ
 50
2.504478E-006
 41
0.796429
  7
STANDARD
100
AcDbText
  0
TEXT
  5
23C
100
AcDbEntity
  8
M0
 62
     4
100
AcDbText
 10
205.810039
 20
140.819578
 40
2.29824
  1
ＬＥＤ
 50
2.504478E-006
 41
0.796429
  7
STANDARD
100
AcDbText
  0
TEXT
  5
23D
100
AcDbEntity
  8
M0
 62
     4
100
AcDbText
 10
205.809209
 20
140.819578
 40
2.29824
  1
ＬＥＤ
 50
2.504478E-006
 41
0.796429
  7
STANDARD
100
AcDbText
  0
TEXT
  5
23E
100
AcDbEntity
  8
M0
 62
     4
100
AcDbText
 10
205.841443
 20
140.818761
 40
2.29824
  1
ＬＥＤ
 50
2.504478E-006
 41
0.796429
  7
STANDARD
100
AcDbText
  0
TEXT
  5
23F
100
AcDbEntity
  8
M0
 62
     4
100
AcDbText
 10
205.840625
 20
140.818761
 40
2.29824
  1
ＬＥＤ
 50
2.504478E-006
 41
0.796429
  7
STANDARD
100
AcDbText
  0
TEXT
  5
240
100
AcDbEntity
  8
M0
 62
     4
100
AcDbText
 10
205.839795
 20
140.818761
 40
2.29824
  1
ＬＥＤ
 50
2.504478E-006
 41
0.796429
  7
STANDARD
100
AcDbText
  0
TEXT
  5
241
100
AcDbEntity
  8
M0
 62
     4
100
AcDbText
 10
205.838964
 20
140.818761
 40
2.29824
  1
ＬＥＤ
 50
2.504478E-006
 41
0.796429
  7
STANDARD
100
AcDbText
  0
TEXT
  5
242
100
AcDbEntity
  8
M0
 62
     4
100
AcDbText
 10
205.838147
 20
140.818761
 40
2.29824
  1
ＬＥＤ
 50
2.504478E-006
 41
0.796429
  7
STANDARD
100
AcDbText
  0
TEXT
  5
243
100
AcDbEntity
  8
M0
 62
     4
100
AcDbText
 10
205.837316
 20
140.818761
 40
2.29824
  1
ＬＥＤ
 50
2.504478E-006
 41
0.796429
  7
STANDARD
100
AcDbText
  0
TEXT
  5
244
100
AcDbEntity
  8
M0
 62
     4
100
AcDbText
 10
205.836486
 20
140.818761
 40
2.29824
  1
ＬＥＤ
 50
2.504478E-006
 41
0.796429
  7
STANDARD
100
AcDbText
  0
TEXT
  5
245
100
AcDbEntity
  8
M0
 62
     4
100
AcDbText
 10
205.835655
 20
140.818761
 40
2.29824
  1
ＬＥＤ
 50
2.504478E-006
 41
0.796429
  7
STANDARD
100
AcDbText
  0
TEXT
  5
246
100
AcDbEntity
  8
M0
 62
     4
100
AcDbText
 10
205.834838
 20
140.818761
 40
2.29824
  1
ＬＥＤ
 50
2.504478E-006
 41
0.796429
  7
STANDARD
100
AcDbText
  0
TEXT
  5
247
100
AcDbEntity
  8
M0
 62
     4
100
AcDbText
 10
205.834007
 20
140.818761
 40
2.29824
  1
ＬＥＤ
 50
2.504478E-006
 41
0.796429
  7
STANDARD
100
AcDbText
  0
TEXT
  5
248
100
AcDbEntity
  8
M0
 62
     4
100
AcDbText
 10
205.833177
 20
140.818761
 40
2.29824
  1
ＬＥＤ
 50
2.504478E-006
 41
0.796429
  7
STANDARD
100
AcDbText
  0
TEXT
  5
249
100
AcDbEntity
  8
M0
 62
     4
100
AcDbText
 10
205.832359
 20
140.818761
 40
2.29824
  1
ＬＥＤ
 50
2.504478E-006
 41
0.796429
  7
STANDARD
100
AcDbText
  0
TEXT
  5
24A
100
AcDbEntity
  8
M0
 62
     4
100
AcDbText
 10
205.831529
 20
140.818761
 40
2.29824
  1
ＬＥＤ
 50
2.504478E-006
 41
0.796429
  7
STANDARD
100
AcDbText
  0
TEXT
  5
24B
100
AcDbEntity
  8
M0
 62
     4
100
AcDbText
 10
205.830698
 20
140.818761
 40
2.29824
  1
ＬＥＤ
 50
2.504478E-006
 41
0.796429
  7
STANDARD
100
AcDbText
  0
TEXT
  5
24C
100
AcDbEntity
  8
M0
 62
     4
100
AcDbText
 10
205.829881
 20
140.818761
 40
2.29824
  1
ＬＥＤ
 50
2.504478E-006
 41
0.796429
  7
STANDARD
100
AcDbText
  0
TEXT
  5
24D
100
AcDbEntity
  8
M0
 62
     4
100
AcDbText
 10
205.82905
 20
140.818761
 40
2.29824
  1
ＬＥＤ
 50
2.504478E-006
 41
0.796429
  7
STANDARD
100
AcDbText
  0
TEXT
  5
24E
100
AcDbEntity
  8
M0
 62
     4
100
AcDbText
 10
205.828219
 20
140.818761
 40
2.29824
  1
ＬＥＤ
 50
2.504478E-006
 41
0.796429
  7
STANDARD
100
AcDbText
  0
TEXT
  5
24F
100
AcDbEntity
  8
M0
 62
     4
100
AcDbText
 10
205.827389
 20
140.818761
 40
2.29824
  1
ＬＥＤ
 50
2.504478E-006
 41
0.796429
  7
STANDARD
100
AcDbText
  0
TEXT
  5
250
100
AcDbEntity
  8
M0
 62
     4
100
AcDbText
 10
205.826571
 20
140.818761
 40
2.29824
  1
ＬＥＤ
 50
2.504478E-006
 41
0.796429
  7
STANDARD
100
AcDbText
  0
TEXT
  5
251
100
AcDbEntity
  8
M0
 62
     4
100
AcDbText
 10
205.825741
 20
140.818761
 40
2.29824
  1
ＬＥＤ
 50
2.504478E-006
 41
0.796429
  7
STANDARD
100
AcDbText
  0
TEXT
  5
252
100
AcDbEntity
  8
M0
 62
     4
100
AcDbText
 10
205.824911
 20
140.818761
 40
2.29824
  1
ＬＥＤ
 50
2.504478E-006
 41
0.796429
  7
STANDARD
100
AcDbText
  0
TEXT
  5
253
100
AcDbEntity
  8
M0
 62
     4
100
AcDbText
 10
205.824093
 20
140.818761
 40
2.29824
  1
ＬＥＤ
 50
2.504478E-006
 41
0.796429
  7
STANDARD
100
AcDbText
  0
TEXT
  5
254
100
AcDbEntity
  8
M0
 62
     4
100
AcDbText
 10
205.823263
 20
140.818761
 40
2.29824
  1
ＬＥＤ
 50
2.504478E-006
 41
0.796429
  7
STANDARD
100
AcDbText
  0
TEXT
  5
255
100
AcDbEntity
  8
M0
 62
     4
100
AcDbText
 10
205.822432
 20
140.818761
 40
2.29824
  1
ＬＥＤ
 50
2.504478E-006
 41
0.796429
  7
STANDARD
100
AcDbText
  0
TEXT
  5
256
100
AcDbEntity
  8
M0
 62
     4
100
AcDbText
 10
205.821615
 20
140.818761
 40
2.29824
  1
ＬＥＤ
 50
2.504478E-006
 41
0.796429
  7
STANDARD
100
AcDbText
  0
TEXT
  5
257
100
AcDbEntity
  8
M0
 62
     4
100
AcDbText
 10
205.820784
 20
140.818761
 40
2.29824
  1
ＬＥＤ
 50
2.504478E-006
 41
0.796429
  7
STANDARD
100
AcDbText
  0
TEXT
  5
258
100
AcDbEntity
  8
M0
 62
     4
100
AcDbText
 10
205.819953
 20
140.818761
 40
2.29824
  1
ＬＥＤ
 50
2.504478E-006
 41
0.796429
  7
STANDARD
100
AcDbText
  0
TEXT
  5
259
100
AcDbEntity
  8
M0
 62
     4
100
AcDbText
 10
205.819123
 20
140.818761
 40
2.29824
  1
ＬＥＤ
 50
2.504478E-006
 41
0.796429
  7
STANDARD
100
AcDbText
  0
TEXT
  5
25A
100
AcDbEntity
  8
M0
 62
     4
100
AcDbText
 10
205.818305
 20
140.818761
 40
2.29824
  1
ＬＥＤ
 50
2.504478E-006
 41
0.796429
  7
STANDARD
100
AcDbText
  0
TEXT
  5
25B
100
AcDbEntity
  8
M0
 62
     4
100
AcDbText
 10
205.817475
 20
140.818761
 40
2.29824
  1
ＬＥＤ
 50
2.504478E-006
 41
0.796429
  7
STANDARD
100
AcDbText
  0
TEXT
  5
25C
100
AcDbEntity
  8
M0
 62
     4
100
AcDbText
 10
205.816644
 20
140.818761
 40
2.29824
  1
ＬＥＤ
 50
2.504478E-006
 41
0.796429
  7
STANDARD
100
AcDbText
  0
TEXT
  5
25D
100
AcDbEntity
  8
M0
 62
     4
100
AcDbText
 10
205.815827
 20
140.818761
 40
2.29824
  1
ＬＥＤ
 50
2.504478E-006
 41
0.796429
  7
STANDARD
100
AcDbText
  0
TEXT
  5
25E
100
AcDbEntity
  8
M0
 62
     4
100
AcDbText
 10
205.814996
 20
140.818761
 40
2.29824
  1
ＬＥＤ
 50
2.504478E-006
 41
0.796429
  7
STANDARD
100
AcDbText
  0
TEXT
  5
25F
100
AcDbEntity
  8
M0
 62
     4
100
AcDbText
 10
205.814166
 20
140.818761
 40
2.29824
  1
ＬＥＤ
 50
2.504478E-006
 41
0.796429
  7
STANDARD
100
AcDbText
  0
TEXT
  5
260
100
AcDbEntity
  8
M0
 62
     4
100
AcDbText
 10
205.813348
 20
140.818761
 40
2.29824
  1
ＬＥＤ
 50
2.504478E-006
 41
0.796429
  7
STANDARD
100
AcDbText
  0
TEXT
  5
261
100
AcDbEntity
  8
M0
 62
     4
100
AcDbText
 10
205.812518
 20
140.818761
 40
2.29824
  1
ＬＥＤ
 50
2.504478E-006
 41
0.796429
  7
STANDARD
100
AcDbText
  0
TEXT
  5
262
100
AcDbEntity
  8
M0
 62
     4
100
AcDbText
 10
205.811687
 20
140.818761
 40
2.29824
  1
ＬＥＤ
 50
2.504478E-006
 41
0.796429
  7
STANDARD
100
AcDbText
  0
TEXT
  5
263
100
AcDbEntity
  8
M0
 62
     4
100
AcDbText
 10
205.810857
 20
140.818761
 40
2.29824
  1
ＬＥＤ
 50
2.504478E-006
 41
0.796429
  7
STANDARD
100
AcDbText
  0
TEXT
  5
264
100
AcDbEntity
  8
M0
 62
     4
100
AcDbText
 10
205.810039
 20
140.818761
 40
2.29824
  1
ＬＥＤ
 50
2.504478E-006
 41
0.796429
  7
STANDARD
100
AcDbText
  0
TEXT
  5
265
100
AcDbEntity
  8
M0
 62
     4
100
AcDbText
 10
205.809209
 20
140.818761
 40
2.29824
  1
ＬＥＤ
 50
2.504478E-006
 41
0.796429
  7
STANDARD
100
AcDbText
  0
TEXT
  5
266
100
AcDbEntity
  8
M0
 62
     4
100
AcDbText
 10
205.841443
 20
140.817937
 40
2.29824
  1
ＬＥＤ
 50
2.504478E-006
 41
0.796429
  7
STANDARD
100
AcDbText
  0
TEXT
  5
267
100
AcDbEntity
  8
M0
 62
     4
100
AcDbText
 10
205.840625
 20
140.817937
 40
2.29824
  1
ＬＥＤ
 50
2.504478E-006
 41
0.796429
  7
STANDARD
100
AcDbText
  0
TEXT
  5
268
100
AcDbEntity
  8
M0
 62
     4
100
AcDbText
 10
205.839795
 20
140.817937
 40
2.29824
  1
ＬＥＤ
 50
2.504478E-006
 41
0.796429
  7
STANDARD
100
AcDbText
  0
TEXT
  5
269
100
AcDbEntity
  8
M0
 62
     4
100
AcDbText
 10
205.838964
 20
140.817937
 40
2.29824
  1
ＬＥＤ
 50
2.504478E-006
 41
0.796429
  7
STANDARD
100
AcDbText
  0
TEXT
  5
26A
100
AcDbEntity
  8
M0
 62
     4
100
AcDbText
 10
205.838147
 20
140.817937
 40
2.29824
  1
ＬＥＤ
 50
2.504478E-006
 41
0.796429
  7
STANDARD
100
AcDbText
  0
TEXT
  5
26B
100
AcDbEntity
  8
M0
 62
     4
100
AcDbText
 10
205.837316
 20
140.817937
 40
2.29824
  1
ＬＥＤ
 50
2.504478E-006
 41
0.796429
  7
STANDARD
100
AcDbText
  0
TEXT
  5
26C
100
AcDbEntity
  8
M0
 62
     4
100
AcDbText
 10
205.836486
 20
140.817937
 40
2.29824
  1
ＬＥＤ
 50
2.504478E-006
 41
0.796429
  7
STANDARD
100
AcDbText
  0
TEXT
  5
26D
100
AcDbEntity
  8
M0
 62
     4
100
AcDbText
 10
205.835655
 20
140.817937
 40
2.29824
  1
ＬＥＤ
 50
2.504478E-006
 41
0.796429
  7
STANDARD
100
AcDbText
  0
TEXT
  5
26E
100
AcDbEntity
  8
M0
 62
     4
100
AcDbText
 10
205.834838
 20
140.817937
 40
2.29824
  1
ＬＥＤ
 50
2.504478E-006
 41
0.796429
  7
STANDARD
100
AcDbText
  0
TEXT
  5
26F
100
AcDbEntity
  8
M0
 62
     4
100
AcDbText
 10
205.834007
 20
140.817937
 40
2.29824
  1
ＬＥＤ
 50
2.504478E-006
 41
0.796429
  7
STANDARD
100
AcDbText
  0
TEXT
  5
270
100
AcDbEntity
  8
M0
 62
     4
100
AcDbText
 10
205.833177
 20
140.817937
 40
2.29824
  1
ＬＥＤ
 50
2.504478E-006
 41
0.796429
  7
STANDARD
100
AcDbText
  0
TEXT
  5
271
100
AcDbEntity
  8
M0
 62
     4
100
AcDbText
 10
205.832359
 20
140.817937
 40
2.29824
  1
ＬＥＤ
 50
2.504478E-006
 41
0.796429
  7
STANDARD
100
AcDbText
  0
TEXT
  5
272
100
AcDbEntity
  8
M0
 62
     4
100
AcDbText
 10
205.831529
 20
140.817937
 40
2.29824
  1
ＬＥＤ
 50
2.504478E-006
 41
0.796429
  7
STANDARD
100
AcDbText
  0
TEXT
  5
273
100
AcDbEntity
  8
M0
 62
     4
100
AcDbText
 10
205.837316
 20
140.821222
 40
2.29824
  1
ＬＥＤ
 50
2.504478E-006
 41
0.796429
  7
STANDARD
100
AcDbText
  0
TEXT
  5
274
100
AcDbEntity
  8
M0
 62
     4
100
AcDbText
 10
205.836486
 20
140.821222
 40
2.29824
  1
ＬＥＤ
 50
2.504478E-006
 41
0.796429
  7
STANDARD
100
AcDbText
  0
TEXT
  5
275
100
AcDbEntity
  8
M0
 62
     4
100
AcDbText
 10
205.835655
 20
140.821222
 40
2.29824
  1
ＬＥＤ
 50
2.504478E-006
 41
0.796429
  7
STANDARD
100
AcDbText
  0
TEXT
  5
276
100
AcDbEntity
  8
M0
 62
     4
100
AcDbText
 10
205.834838
 20
140.821222
 40
2.29824
  1
ＬＥＤ
 50
2.504478E-006
 41
0.796429
  7
STANDARD
100
AcDbText
  0
TEXT
  5
277
100
AcDbEntity
  8
M0
 62
     4
100
AcDbText
 10
205.834007
 20
140.821222
 40
2.29824
  1
ＬＥＤ
 50
2.504478E-006
 41
0.796429
  7
STANDARD
100
AcDbText
  0
TEXT
  5
278
100
AcDbEntity
  8
M0
 62
     4
100
AcDbText
 10
205.833177
 20
140.821222
 40
2.29824
  1
ＬＥＤ
 50
2.504478E-006
 41
0.796429
  7
STANDARD
100
AcDbText
  0
TEXT
  5
279
100
AcDbEntity
  8
M0
 62
     4
100
AcDbText
 10
205.832359
 20
140.821222
 40
2.29824
  1
ＬＥＤ
 50
2.504478E-006
 41
0.796429
  7
STANDARD
100
AcDbText
  0
TEXT
  5
27A
100
AcDbEntity
  8
M0
 62
     4
100
AcDbText
 10
205.831529
 20
140.821222
 40
2.29824
  1
ＬＥＤ
 50
2.504478E-006
 41
0.796429
  7
STANDARD
100
AcDbText
  0
TEXT
  5
27B
100
AcDbEntity
  8
M0
 62
     4
100
AcDbText
 10
205.830698
 20
140.821222
 40
2.29824
  1
ＬＥＤ
 50
2.504478E-006
 41
0.796429
  7
STANDARD
100
AcDbText
  0
TEXT
  5
27C
100
AcDbEntity
  8
M0
 62
     4
100
AcDbText
 10
205.829881
 20
140.821222
 40
2.29824
  1
ＬＥＤ
 50
2.504478E-006
 41
0.796429
  7
STANDARD
100
AcDbText
  0
TEXT
  5
27D
100
AcDbEntity
  8
M0
 62
     4
100
AcDbText
 10
205.82905
 20
140.821222
 40
2.29824
  1
ＬＥＤ
 50
2.504478E-006
 41
0.796429
  7
STANDARD
100
AcDbText
  0
TEXT
  5
27E
100
AcDbEntity
  8
M0
 62
     4
100
AcDbText
 10
205.828219
 20
140.821222
 40
2.29824
  1
ＬＥＤ
 50
2.504478E-006
 41
0.796429
  7
STANDARD
100
AcDbText
  0
TEXT
  5
27F
100
AcDbEntity
  8
M0
 62
     4
100
AcDbText
 10
205.827389
 20
140.821222
 40
2.29824
  1
ＬＥＤ
 50
2.504478E-006
 41
0.796429
  7
STANDARD
100
AcDbText
  0
TEXT
  5
280
100
AcDbEntity
  8
M0
 62
     4
100
AcDbText
 10
205.826571
 20
140.821222
 40
2.29824
  1
ＬＥＤ
 50
2.504478E-006
 41
0.796429
  7
STANDARD
100
AcDbText
  0
TEXT
  5
281
100
AcDbEntity
  8
M0
 62
     4
100
AcDbText
 10
205.825741
 20
140.821222
 40
2.29824
  1
ＬＥＤ
 50
2.504478E-006
 41
0.796429
  7
STANDARD
100
AcDbText
  0
TEXT
  5
282
100
AcDbEntity
  8
M0
 62
     4
100
AcDbText
 10
205.824911
 20
140.821222
 40
2.29824
  1
ＬＥＤ
 50
2.504478E-006
 41
0.796429
  7
STANDARD
100
AcDbText
  0
TEXT
  5
283
100
AcDbEntity
  8
M0
 62
     4
100
AcDbText
 10
205.824093
 20
140.821222
 40
2.29824
  1
ＬＥＤ
 50
2.504478E-006
 41
0.796429
  7
STANDARD
100
AcDbText
  0
TEXT
  5
284
100
AcDbEntity
  8
M0
 62
     4
100
AcDbText
 10
205.823263
 20
140.821222
 40
2.29824
  1
ＬＥＤ
 50
2.504478E-006
 41
0.796429
  7
STANDARD
100
AcDbText
  0
TEXT
  5
285
100
AcDbEntity
  8
M0
 62
     4
100
AcDbText
 10
205.822432
 20
140.821222
 40
2.29824
  1
ＬＥＤ
 50
2.504478E-006
 41
0.796429
  7
STANDARD
100
AcDbText
  0
TEXT
  5
286
100
AcDbEntity
  8
M0
 62
     4
100
AcDbText
 10
205.821615
 20
140.821222
 40
2.29824
  1
ＬＥＤ
 50
2.504478E-006
 41
0.796429
  7
STANDARD
100
AcDbText
  0
TEXT
  5
287
100
AcDbEntity
  8
M0
 62
     4
100
AcDbText
 10
205.820784
 20
140.821222
 40
2.29824
  1
ＬＥＤ
 50
2.504478E-006
 41
0.796429
  7
STANDARD
100
AcDbText
  0
TEXT
  5
288
100
AcDbEntity
  8
M0
 62
     4
100
AcDbText
 10
205.819953
 20
140.821222
 40
2.29824
  1
ＬＥＤ
 50
2.504478E-006
 41
0.796429
  7
STANDARD
100
AcDbText
  0
TEXT
  5
289
100
AcDbEntity
  8
M0
 62
     4
100
AcDbText
 10
205.819123
 20
140.821222
 40
2.29824
  1
ＬＥＤ
 50
2.504478E-006
 41
0.796429
  7
STANDARD
100
AcDbText
  0
TEXT
  5
28A
100
AcDbEntity
  8
M0
 62
     4
100
AcDbText
 10
205.818305
 20
140.821222
 40
2.29824
  1
ＬＥＤ
 50
2.504478E-006
 41
0.796429
  7
STANDARD
100
AcDbText
  0
TEXT
  5
28B
100
AcDbEntity
  8
M0
 62
     4
100
AcDbText
 10
205.817475
 20
140.821222
 40
2.29824
  1
ＬＥＤ
 50
2.504478E-006
 41
0.796429
  7
STANDARD
100
AcDbText
  0
TEXT
  5
28C
100
AcDbEntity
  8
M0
 62
     4
100
AcDbText
 10
205.816644
 20
140.821222
 40
2.29824
  1
ＬＥＤ
 50
2.504478E-006
 41
0.796429
  7
STANDARD
100
AcDbText
  0
TEXT
  5
28D
100
AcDbEntity
  8
M0
 62
     4
100
AcDbText
 10
205.815827
 20
140.821222
 40
2.29824
  1
ＬＥＤ
 50
2.504478E-006
 41
0.796429
  7
STANDARD
100
AcDbText
  0
TEXT
  5
28E
100
AcDbEntity
  8
M0
 62
     4
100
AcDbText
 10
205.814996
 20
140.821222
 40
2.29824
  1
ＬＥＤ
 50
2.504478E-006
 41
0.796429
  7
STANDARD
100
AcDbText
  0
TEXT
  5
28F
100
AcDbEntity
  8
M0
 62
     4
100
AcDbText
 10
205.814166
 20
140.821222
 40
2.29824
  1
ＬＥＤ
 50
2.504478E-006
 41
0.796429
  7
STANDARD
100
AcDbText
  0
TEXT
  5
290
100
AcDbEntity
  8
M0
 62
     4
100
AcDbText
 10
205.813348
 20
140.821222
 40
2.29824
  1
ＬＥＤ
 50
2.504478E-006
 41
0.796429
  7
STANDARD
100
AcDbText
  0
TEXT
  5
291
100
AcDbEntity
  8
M0
 62
     4
100
AcDbText
 10
205.812518
 20
140.821222
 40
2.29824
  1
ＬＥＤ
 50
2.504478E-006
 41
0.796429
  7
STANDARD
100
AcDbText
  0
TEXT
  5
292
100
AcDbEntity
  8
M0
 62
     4
100
AcDbText
 10
205.811687
 20
140.821222
 40
2.29824
  1
ＬＥＤ
 50
2.504478E-006
 41
0.796429
  7
STANDARD
100
AcDbText
  0
TEXT
  5
293
100
AcDbEntity
  8
M0
 62
     4
100
AcDbText
 10
205.810857
 20
140.821222
 40
2.29824
  1
ＬＥＤ
 50
2.504478E-006
 41
0.796429
  7
STANDARD
100
AcDbText
  0
TEXT
  5
294
100
AcDbEntity
  8
M0
 62
     4
100
AcDbText
 10
205.810039
 20
140.821222
 40
2.29824
  1
ＬＥＤ
 50
2.504478E-006
 41
0.796429
  7
STANDARD
100
AcDbText
  0
TEXT
  5
295
100
AcDbEntity
  8
M0
 62
     4
100
AcDbText
 10
205.809209
 20
140.821222
 40
2.29824
  1
ＬＥＤ
 50
2.504478E-006
 41
0.796429
  7
STANDARD
100
AcDbText
  0
TEXT
  5
296
100
AcDbEntity
  8
M0
 62
     4
100
AcDbText
 10
205.841443
 20
140.820402
 40
2.29824
  1
ＬＥＤ
 50
2.504478E-006
 41
0.796429
  7
STANDARD
100
AcDbText
  0
TEXT
  5
297
100
AcDbEntity
  8
M0
 62
     4
100
AcDbText
 10
205.840625
 20
140.820402
 40
2.29824
  1
ＬＥＤ
 50
2.504478E-006
 41
0.796429
  7
STANDARD
100
AcDbText
  0
TEXT
  5
298
100
AcDbEntity
  8
M0
 62
     4
100
AcDbText
 10
205.839795
 20
140.820402
 40
2.29824
  1
ＬＥＤ
 50
2.504478E-006
 41
0.796429
  7
STANDARD
100
AcDbText
  0
TEXT
  5
299
100
AcDbEntity
  8
M0
 62
     4
100
AcDbText
 10
205.838964
 20
140.820402
 40
2.29824
  1
ＬＥＤ
 50
2.504478E-006
 41
0.796429
  7
STANDARD
100
AcDbText
  0
TEXT
  5
29A
100
AcDbEntity
  8
M0
 62
     4
100
AcDbText
 10
205.838147
 20
140.820402
 40
2.29824
  1
ＬＥＤ
 50
2.504478E-006
 41
0.796429
  7
STANDARD
100
AcDbText
  0
TEXT
  5
29B
100
AcDbEntity
  8
M0
 62
     4
100
AcDbText
 10
205.837316
 20
140.820402
 40
2.29824
  1
ＬＥＤ
 50
2.504478E-006
 41
0.796429
  7
STANDARD
100
AcDbText
  0
TEXT
  5
29C
100
AcDbEntity
  8
M0
 62
     4
100
AcDbText
 10
205.836486
 20
140.820402
 40
2.29824
  1
ＬＥＤ
 50
2.504478E-006
 41
0.796429
  7
STANDARD
100
AcDbText
  0
TEXT
  5
29D
100
AcDbEntity
  8
M0
 62
     4
100
AcDbText
 10
205.835655
 20
140.820402
 40
2.29824
  1
ＬＥＤ
 50
2.504478E-006
 41
0.796429
  7
STANDARD
100
AcDbText
  0
TEXT
  5
29E
100
AcDbEntity
  8
M0
 62
     4
100
AcDbText
 10
205.834838
 20
140.820402
 40
2.29824
  1
ＬＥＤ
 50
2.504478E-006
 41
0.796429
  7
STANDARD
100
AcDbText
  0
TEXT
  5
29F
100
AcDbEntity
  8
M0
 62
     4
100
AcDbText
 10
205.834007
 20
140.820402
 40
2.29824
  1
ＬＥＤ
 50
2.504478E-006
 41
0.796429
  7
STANDARD
100
AcDbText
  0
TEXT
  5
2A0
100
AcDbEntity
  8
M0
 62
     4
100
AcDbText
 10
205.833177
 20
140.820402
 40
2.29824
  1
ＬＥＤ
 50
2.504478E-006
 41
0.796429
  7
STANDARD
100
AcDbText
  0
TEXT
  5
2A1
100
AcDbEntity
  8
M0
 62
     4
100
AcDbText
 10
205.832359
 20
140.820402
 40
2.29824
  1
ＬＥＤ
 50
2.504478E-006
 41
0.796429
  7
STANDARD
100
AcDbText
  0
TEXT
  5
2A2
100
AcDbEntity
  8
M0
 62
     4
100
AcDbText
 10
205.831529
 20
140.820402
 40
2.29824
  1
ＬＥＤ
 50
2.504478E-006
 41
0.796429
  7
STANDARD
100
AcDbText
  0
TEXT
  5
2A3
100
AcDbEntity
  8
M0
 62
     4
100
AcDbText
 10
205.830698
 20
140.820402
 40
2.29824
  1
ＬＥＤ
 50
2.504478E-006
 41
0.796429
  7
STANDARD
100
AcDbText
  0
TEXT
  5
2A4
100
AcDbEntity
  8
M0
 62
     4
100
AcDbText
 10
205.829881
 20
140.820402
 40
2.29824
  1
ＬＥＤ
 50
2.504478E-006
 41
0.796429
  7
STANDARD
100
AcDbText
  0
TEXT
  5
2A5
100
AcDbEntity
  8
M0
 62
     4
100
AcDbText
 10
205.82905
 20
140.820402
 40
2.29824
  1
ＬＥＤ
 50
2.504478E-006
 41
0.796429
  7
STANDARD
100
AcDbText
  0
TEXT
  5
2A6
100
AcDbEntity
  8
M0
 62
     4
100
AcDbText
 10
205.828219
 20
140.820402
 40
2.29824
  1
ＬＥＤ
 50
2.504478E-006
 41
0.796429
  7
STANDARD
100
AcDbText
  0
TEXT
  5
2A7
100
AcDbEntity
  8
M0
 62
     4
100
AcDbText
 10
205.827389
 20
140.820402
 40
2.29824
  1
ＬＥＤ
 50
2.504478E-006
 41
0.796429
  7
STANDARD
100
AcDbText
  0
TEXT
  5
2A8
100
AcDbEntity
  8
M0
 62
     4
100
AcDbText
 10
205.826571
 20
140.820402
 40
2.29824
  1
ＬＥＤ
 50
2.504478E-006
 41
0.796429
  7
STANDARD
100
AcDbText
  0
TEXT
  5
2A9
100
AcDbEntity
  8
M0
 62
     4
100
AcDbText
 10
205.825741
 20
140.820402
 40
2.29824
  1
ＬＥＤ
 50
2.504478E-006
 41
0.796429
  7
STANDARD
100
AcDbText
  0
TEXT
  5
2AA
100
AcDbEntity
  8
M0
 62
     4
100
AcDbText
 10
205.824911
 20
140.820402
 40
2.29824
  1
ＬＥＤ
 50
2.504478E-006
 41
0.796429
  7
STANDARD
100
AcDbText
  0
TEXT
  5
2AB
100
AcDbEntity
  8
M0
 62
     4
100
AcDbText
 10
205.824093
 20
140.814657
 40
2.29824
  1
ＬＥＤ
 50
2.504478E-006
 41
0.796429
  7
STANDARD
100
AcDbText
  0
TEXT
  5
2AC
100
AcDbEntity
  8
M0
 62
     4
100
AcDbText
 10
205.823263
 20
140.814657
 40
2.29824
  1
ＬＥＤ
 50
2.504478E-006
 41
0.796429
  7
STANDARD
100
AcDbText
  0
TEXT
  5
2AD
100
AcDbEntity
  8
M0
 62
     4
100
AcDbText
 10
205.822432
 20
140.814657
 40
2.29824
  1
ＬＥＤ
 50
2.504478E-006
 41
0.796429
  7
STANDARD
100
AcDbText
  0
TEXT
  5
2AE
100
AcDbEntity
  8
M0
 62
     4
100
AcDbText
 10
205.821615
 20
140.814657
 40
2.29824
  1
ＬＥＤ
 50
2.504478E-006
 41
0.796429
  7
STANDARD
100
AcDbText
  0
TEXT
  5
2AF
100
AcDbEntity
  8
M0
 62
     4
100
AcDbText
 10
205.820784
 20
140.814657
 40
2.29824
  1
ＬＥＤ
 50
2.504478E-006
 41
0.796429
  7
STANDARD
100
AcDbText
  0
TEXT
  5
2B0
100
AcDbEntity
  8
M0
 62
     4
100
AcDbText
 10
205.819953
 20
140.814657
 40
2.29824
  1
ＬＥＤ
 50
2.504478E-006
 41
0.796429
  7
STANDARD
100
AcDbText
  0
TEXT
  5
2B1
100
AcDbEntity
  8
M0
 62
     4
100
AcDbText
 10
205.819123
 20
140.814657
 40
2.29824
  1
ＬＥＤ
 50
2.504478E-006
 41
0.796429
  7
STANDARD
100
AcDbText
  0
TEXT
  5
2B2
100
AcDbEntity
  8
M0
 62
     4
100
AcDbText
 10
205.818305
 20
140.814657
 40
2.29824
  1
ＬＥＤ
 50
2.504478E-006
 41
0.796429
  7
STANDARD
100
AcDbText
  0
TEXT
  5
2B3
100
AcDbEntity
  8
M0
 62
     4
100
AcDbText
 10
205.817475
 20
140.814657
 40
2.29824
  1
ＬＥＤ
 50
2.504478E-006
 41
0.796429
  7
STANDARD
100
AcDbText
  0
TEXT
  5
2B4
100
AcDbEntity
  8
M0
 62
     4
100
AcDbText
 10
205.816644
 20
140.814657
 40
2.29824
  1
ＬＥＤ
 50
2.504478E-006
 41
0.796429
  7
STANDARD
100
AcDbText
  0
TEXT
  5
2B5
100
AcDbEntity
  8
M0
 62
     4
100
AcDbText
 10
205.815827
 20
140.814657
 40
2.29824
  1
ＬＥＤ
 50
2.504478E-006
 41
0.796429
  7
STANDARD
100
AcDbText
  0
TEXT
  5
2B6
100
AcDbEntity
  8
M0
 62
     4
100
AcDbText
 10
205.814996
 20
140.814657
 40
2.29824
  1
ＬＥＤ
 50
2.504478E-006
 41
0.796429
  7
STANDARD
100
AcDbText
  0
TEXT
  5
2B7
100
AcDbEntity
  8
M0
 62
     4
100
AcDbText
 10
205.814166
 20
140.814657
 40
2.29824
  1
ＬＥＤ
 50
2.504478E-006
 41
0.796429
  7
STANDARD
100
AcDbText
  0
TEXT
  5
2B8
100
AcDbEntity
  8
M0
 62
     4
100
AcDbText
 10
205.813348
 20
140.814657
 40
2.29824
  1
ＬＥＤ
 50
2.504478E-006
 41
0.796429
  7
STANDARD
100
AcDbText
  0
TEXT
  5
2B9
100
AcDbEntity
  8
M0
 62
     4
100
AcDbText
 10
205.812518
 20
140.814657
 40
2.29824
  1
ＬＥＤ
 50
2.504478E-006
 41
0.796429
  7
STANDARD
100
AcDbText
  0
TEXT
  5
2BA
100
AcDbEntity
  8
M0
 62
     4
100
AcDbText
 10
205.811687
 20
140.814657
 40
2.29824
  1
ＬＥＤ
 50
2.504478E-006
 41
0.796429
  7
STANDARD
100
AcDbText
  0
TEXT
  5
2BB
100
AcDbEntity
  8
M0
 62
     4
100
AcDbText
 10
205.810857
 20
140.814657
 40
2.29824
  1
ＬＥＤ
 50
2.504478E-006
 41
0.796429
  7
STANDARD
100
AcDbText
  0
TEXT
  5
2BC
100
AcDbEntity
  8
M0
 62
     4
100
AcDbText
 10
205.810039
 20
140.814657
 40
2.29824
  1
ＬＥＤ
 50
2.504478E-006
 41
0.796429
  7
STANDARD
100
AcDbText
  0
TEXT
  5
2BD
100
AcDbEntity
  8
M0
 62
     4
100
AcDbText
 10
205.809209
 20
140.814657
 40
2.29824
  1
ＬＥＤ
 50
2.504478E-006
 41
0.796429
  7
STANDARD
100
AcDbText
  0
TEXT
  5
2BE
100
AcDbEntity
  8
M0
 62
     4
100
AcDbText
 10
205.841443
 20
140.813836
 40
2.29824
  1
ＬＥＤ
 50
2.504478E-006
 41
0.796429
  7
STANDARD
100
AcDbText
  0
TEXT
  5
2BF
100
AcDbEntity
  8
M0
 62
     4
100
AcDbText
 10
205.840625
 20
140.813836
 40
2.29824
  1
ＬＥＤ
 50
2.504478E-006
 41
0.796429
  7
STANDARD
100
AcDbText
  0
TEXT
  5
2C0
100
AcDbEntity
  8
M0
 62
     4
100
AcDbText
 10
205.839795
 20
140.813836
 40
2.29824
  1
ＬＥＤ
 50
2.504478E-006
 41
0.796429
  7
STANDARD
100
AcDbText
  0
TEXT
  5
2C1
100
AcDbEntity
  8
M0
 62
     4
100
AcDbText
 10
205.838964
 20
140.813836
 40
2.29824
  1
ＬＥＤ
 50
2.504478E-006
 41
0.796429
  7
STANDARD
100
AcDbText
  0
TEXT
  5
2C2
100
AcDbEntity
  8
M0
 62
     4
100
AcDbText
 10
205.838147
 20
140.813836
 40
2.29824
  1
ＬＥＤ
 50
2.504478E-006
 41
0.796429
  7
STANDARD
100
AcDbText
  0
TEXT
  5
2C3
100
AcDbEntity
  8
M0
 62
     4
100
AcDbText
 10
205.837316
 20
140.813836
 40
2.29824
  1
ＬＥＤ
 50
2.504478E-006
 41
0.796429
  7
STANDARD
100
AcDbText
  0
TEXT
  5
2C4
100
AcDbEntity
  8
M0
 62
     4
100
AcDbText
 10
205.836486
 20
140.813836
 40
2.29824
  1
ＬＥＤ
 50
2.504478E-006
 41
0.796429
  7
STANDARD
100
AcDbText
  0
TEXT
  5
2C5
100
AcDbEntity
  8
M0
 62
     4
100
AcDbText
 10
205.835655
 20
140.813836
 40
2.29824
  1
ＬＥＤ
 50
2.504478E-006
 41
0.796429
  7
STANDARD
100
AcDbText
  0
TEXT
  5
2C6
100
AcDbEntity
  8
M0
 62
     4
100
AcDbText
 10
205.834838
 20
140.813836
 40
2.29824
  1
ＬＥＤ
 50
2.504478E-006
 41
0.796429
  7
STANDARD
100
AcDbText
  0
TEXT
  5
2C7
100
AcDbEntity
  8
M0
 62
     4
100
AcDbText
 10
205.834007
 20
140.813836
 40
2.29824
  1
ＬＥＤ
 50
2.504478E-006
 41
0.796429
  7
STANDARD
100
AcDbText
  0
TEXT
  5
2C8
100
AcDbEntity
  8
M0
 62
     4
100
AcDbText
 10
205.833177
 20
140.813836
 40
2.29824
  1
ＬＥＤ
 50
2.504478E-006
 41
0.796429
  7
STANDARD
100
AcDbText
  0
TEXT
  5
2C9
100
AcDbEntity
  8
M0
 62
     4
100
AcDbText
 10
205.832359
 20
140.813836
 40
2.29824
  1
ＬＥＤ
 50
2.504478E-006
 41
0.796429
  7
STANDARD
100
AcDbText
  0
TEXT
  5
2CA
100
AcDbEntity
  8
M0
 62
     4
100
AcDbText
 10
205.831529
 20
140.813836
 40
2.29824
  1
ＬＥＤ
 50
2.504478E-006
 41
0.796429
  7
STANDARD
100
AcDbText
  0
TEXT
  5
2CB
100
AcDbEntity
  8
M0
 62
     4
100
AcDbText
 10
205.830698
 20
140.813836
 40
2.29824
  1
ＬＥＤ
 50
2.504478E-006
 41
0.796429
  7
STANDARD
100
AcDbText
  0
TEXT
  5
2CC
100
AcDbEntity
  8
M0
 62
     4
100
AcDbText
 10
205.829881
 20
140.813836
 40
2.29824
  1
ＬＥＤ
 50
2.504478E-006
 41
0.796429
  7
STANDARD
100
AcDbText
  0
TEXT
  5
2CD
100
AcDbEntity
  8
M0
 62
     4
100
AcDbText
 10
205.82905
 20
140.813836
 40
2.29824
  1
ＬＥＤ
 50
2.504478E-006
 41
0.796429
  7
STANDARD
100
AcDbText
  0
TEXT
  5
2CE
100
AcDbEntity
  8
M0
 62
     4
100
AcDbText
 10
205.828219
 20
140.813836
 40
2.29824
  1
ＬＥＤ
 50
2.504478E-006
 41
0.796429
  7
STANDARD
100
AcDbText
  0
TEXT
  5
2CF
100
AcDbEntity
  8
M0
 62
     4
100
AcDbText
 10
205.827389
 20
140.813836
 40
2.29824
  1
ＬＥＤ
 50
2.504478E-006
 41
0.796429
  7
STANDARD
100
AcDbText
  0
TEXT
  5
2D0
100
AcDbEntity
  8
M0
 62
     4
100
AcDbText
 10
205.826571
 20
140.813836
 40
2.29824
  1
ＬＥＤ
 50
2.504478E-006
 41
0.796429
  7
STANDARD
100
AcDbText
  0
TEXT
  5
2D1
100
AcDbEntity
  8
M0
 62
     4
100
AcDbText
 10
205.825741
 20
140.813836
 40
2.29824
  1
ＬＥＤ
 50
2.504478E-006
 41
0.796429
  7
STANDARD
100
AcDbText
  0
TEXT
  5
2D2
100
AcDbEntity
  8
M0
 62
     4
100
AcDbText
 10
205.824911
 20
140.813836
 40
2.29824
  1
ＬＥＤ
 50
2.504478E-006
 41
0.796429
  7
STANDARD
100
AcDbText
  0
TEXT
  5
2D3
100
AcDbEntity
  8
M0
 62
     4
100
AcDbText
 10
205.824093
 20
140.813836
 40
2.29824
  1
ＬＥＤ
 50
2.504478E-006
 41
0.796429
  7
STANDARD
100
AcDbText
  0
TEXT
  5
2D4
100
AcDbEntity
  8
M0
 62
     4
100
AcDbText
 10
205.823263
 20
140.813836
 40
2.29824
  1
ＬＥＤ
 50
2.504478E-006
 41
0.796429
  7
STANDARD
100
AcDbText
  0
TEXT
  5
2D5
100
AcDbEntity
  8
M0
 62
     4
100
AcDbText
 10
205.822432
 20
140.813836
 40
2.29824
  1
ＬＥＤ
 50
2.504478E-006
 41
0.796429
  7
STANDARD
100
AcDbText
  0
TEXT
  5
2D6
100
AcDbEntity
  8
M0
 62
     4
100
AcDbText
 10
205.821615
 20
140.813836
 40
2.29824
  1
ＬＥＤ
 50
2.504478E-006
 41
0.796429
  7
STANDARD
100
AcDbText
  0
TEXT
  5
2D7
100
AcDbEntity
  8
M0
 62
     4
100
AcDbText
 10
205.820784
 20
140.813836
 40
2.29824
  1
ＬＥＤ
 50
2.504478E-006
 41
0.796429
  7
STANDARD
100
AcDbText
  0
TEXT
  5
2D8
100
AcDbEntity
  8
M0
 62
     4
100
AcDbText
 10
205.819953
 20
140.813836
 40
2.29824
  1
ＬＥＤ
 50
2.504478E-006
 41
0.796429
  7
STANDARD
100
AcDbText
  0
TEXT
  5
2D9
100
AcDbEntity
  8
M0
 62
     4
100
AcDbText
 10
205.819123
 20
140.813836
 40
2.29824
  1
ＬＥＤ
 50
2.504478E-006
 41
0.796429
  7
STANDARD
100
AcDbText
  0
TEXT
  5
2DA
100
AcDbEntity
  8
M0
 62
     4
100
AcDbText
 10
205.818305
 20
140.813836
 40
2.29824
  1
ＬＥＤ
 50
2.504478E-006
 41
0.796429
  7
STANDARD
100
AcDbText
  0
TEXT
  5
2DB
100
AcDbEntity
  8
M0
 62
     4
100
AcDbText
 10
205.817475
 20
140.813836
 40
2.29824
  1
ＬＥＤ
 50
2.504478E-006
 41
0.796429
  7
STANDARD
100
AcDbText
  0
TEXT
  5
2DC
100
AcDbEntity
  8
M0
 62
     4
100
AcDbText
 10
205.816644
 20
140.813836
 40
2.29824
  1
ＬＥＤ
 50
2.504478E-006
 41
0.796429
  7
STANDARD
100
AcDbText
  0
TEXT
  5
2DD
100
AcDbEntity
  8
M0
 62
     4
100
AcDbText
 10
205.815827
 20
140.813836
 40
2.29824
  1
ＬＥＤ
 50
2.504478E-006
 41
0.796429
  7
STANDARD
100
AcDbText
  0
TEXT
  5
2DE
100
AcDbEntity
  8
M0
 62
     4
100
AcDbText
 10
205.814996
 20
140.813836
 40
2.29824
  1
ＬＥＤ
 50
2.504478E-006
 41
0.796429
  7
STANDARD
100
AcDbText
  0
TEXT
  5
2DF
100
AcDbEntity
  8
M0
 62
     4
100
AcDbText
 10
205.814166
 20
140.813836
 40
2.29824
  1
ＬＥＤ
 50
2.504478E-006
 41
0.796429
  7
STANDARD
100
AcDbText
  0
TEXT
  5
2E0
100
AcDbEntity
  8
M0
 62
     4
100
AcDbText
 10
205.813348
 20
140.813836
 40
2.29824
  1
ＬＥＤ
 50
2.504478E-006
 41
0.796429
  7
STANDARD
100
AcDbText
  0
TEXT
  5
2E1
100
AcDbEntity
  8
M0
 62
     4
100
AcDbText
 10
205.812518
 20
140.813836
 40
2.29824
  1
ＬＥＤ
 50
2.504478E-006
 41
0.796429
  7
STANDARD
100
AcDbText
  0
TEXT
  5
2E2
100
AcDbEntity
  8
M0
 62
     4
100
AcDbText
 10
205.811687
 20
140.813836
 40
2.29824
  1
ＬＥＤ
 50
2.504478E-006
 41
0.796429
  7
STANDARD
100
AcDbText
  0
TEXT
  5
2E3
100
AcDbEntity
  8
M0
 62
     4
100
AcDbText
 10
205.810857
 20
140.813836
 40
2.29824
  1
ＬＥＤ
 50
2.504478E-006
 41
0.796429
  7
STANDARD
100
AcDbText
  0
TEXT
  5
2E4
100
AcDbEntity
  8
M0
 62
     4
100
AcDbText
 10
205.810039
 20
140.813836
 40
2.29824
  1
ＬＥＤ
 50
2.504478E-006
 41
0.796429
  7
STANDARD
100
AcDbText
  0
TEXT
  5
2E5
100
AcDbEntity
  8
M0
 62
     4
100
AcDbText
 10
205.809209
 20
140.813836
 40
2.29824
  1
ＬＥＤ
 50
2.504478E-006
 41
0.796429
  7
STANDARD
100
AcDbText
  0
TEXT
  5
2E6
100
AcDbEntity
  8
M0
 62
     4
100
AcDbText
 10
205.841443
 20
140.813013
 40
2.29824
  1
ＬＥＤ
 50
2.504478E-006
 41
0.796429
  7
STANDARD
100
AcDbText
  0
TEXT
  5
2E7
100
AcDbEntity
  8
M0
 62
     4
100
AcDbText
 10
205.840625
 20
140.813013
 40
2.29824
  1
ＬＥＤ
 50
2.504478E-006
 41
0.796429
  7
STANDARD
100
AcDbText
  0
TEXT
  5
2E8
100
AcDbEntity
  8
M0
 62
     4
100
AcDbText
 10
205.839795
 20
140.813013
 40
2.29824
  1
ＬＥＤ
 50
2.504478E-006
 41
0.796429
  7
STANDARD
100
AcDbText
  0
TEXT
  5
2E9
100
AcDbEntity
  8
M0
 62
     4
100
AcDbText
 10
205.838964
 20
140.813013
 40
2.29824
  1
ＬＥＤ
 50
2.504478E-006
 41
0.796429
  7
STANDARD
100
AcDbText
  0
TEXT
  5
2EA
100
AcDbEntity
  8
M0
 62
     4
100
AcDbText
 10
205.838147
 20
140.813013
 40
2.29824
  1
ＬＥＤ
 50
2.504478E-006
 41
0.796429
  7
STANDARD
100
AcDbText
  0
TEXT
  5
2EB
100
AcDbEntity
  8
M0
 62
     4
100
AcDbText
 10
205.837316
 20
140.813013
 40
2.29824
  1
ＬＥＤ
 50
2.504478E-006
 41
0.796429
  7
STANDARD
100
AcDbText
  0
TEXT
  5
2EC
100
AcDbEntity
  8
M0
 62
     4
100
AcDbText
 10
205.836486
 20
140.813013
 40
2.29824
  1
ＬＥＤ
 50
2.504478E-006
 41
0.796429
  7
STANDARD
100
AcDbText
  0
TEXT
  5
2ED
100
AcDbEntity
  8
M0
 62
     4
100
AcDbText
 10
205.835655
 20
140.813013
 40
2.29824
  1
ＬＥＤ
 50
2.504478E-006
 41
0.796429
  7
STANDARD
100
AcDbText
  0
TEXT
  5
2EE
100
AcDbEntity
  8
M0
 62
     4
100
AcDbText
 10
205.834838
 20
140.813013
 40
2.29824
  1
ＬＥＤ
 50
2.504478E-006
 41
0.796429
  7
STANDARD
100
AcDbText
  0
TEXT
  5
2EF
100
AcDbEntity
  8
M0
 62
     4
100
AcDbText
 10
205.834007
 20
140.813013
 40
2.29824
  1
ＬＥＤ
 50
2.504478E-006
 41
0.796429
  7
STANDARD
100
AcDbText
  0
TEXT
  5
2F0
100
AcDbEntity
  8
M0
 62
     4
100
AcDbText
 10
205.833177
 20
140.813013
 40
2.29824
  1
ＬＥＤ
 50
2.504478E-006
 41
0.796429
  7
STANDARD
100
AcDbText
  0
TEXT
  5
2F1
100
AcDbEntity
  8
M0
 62
     4
100
AcDbText
 10
205.832359
 20
140.813013
 40
2.29824
  1
ＬＥＤ
 50
2.504478E-006
 41
0.796429
  7
STANDARD
100
AcDbText
  0
TEXT
  5
2F2
100
AcDbEntity
  8
M0
 62
     4
100
AcDbText
 10
205.831529
 20
140.813013
 40
2.29824
  1
ＬＥＤ
 50
2.504478E-006
 41
0.796429
  7
STANDARD
100
AcDbText
  0
TEXT
  5
2F3
100
AcDbEntity
  8
M0
 62
     4
100
AcDbText
 10
205.830698
 20
140.813013
 40
2.29824
  1
ＬＥＤ
 50
2.504478E-006
 41
0.796429
  7
STANDARD
100
AcDbText
  0
TEXT
  5
2F4
100
AcDbEntity
  8
M0
 62
     4
100
AcDbText
 10
205.829881
 20
140.813013
 40
2.29824
  1
ＬＥＤ
 50
2.504478E-006
 41
0.796429
  7
STANDARD
100
AcDbText
  0
TEXT
  5
2F5
100
AcDbEntity
  8
M0
 62
     4
100
AcDbText
 10
205.82905
 20
140.813013
 40
2.29824
  1
ＬＥＤ
 50
2.504478E-006
 41
0.796429
  7
STANDARD
100
AcDbText
  0
TEXT
  5
2F6
100
AcDbEntity
  8
M0
 62
     4
100
AcDbText
 10
205.828219
 20
140.813013
 40
2.29824
  1
ＬＥＤ
 50
2.504478E-006
 41
0.796429
  7
STANDARD
100
AcDbText
  0
TEXT
  5
2F7
100
AcDbEntity
  8
M0
 62
     4
100
AcDbText
 10
205.827389
 20
140.813013
 40
2.29824
  1
ＬＥＤ
 50
2.504478E-006
 41
0.796429
  7
STANDARD
100
AcDbText
  0
TEXT
  5
2F8
100
AcDbEntity
  8
M0
 62
     4
100
AcDbText
 10
205.826571
 20
140.813013
 40
2.29824
  1
ＬＥＤ
 50
2.504478E-006
 41
0.796429
  7
STANDARD
100
AcDbText
  0
TEXT
  5
2F9
100
AcDbEntity
  8
M0
 62
     4
100
AcDbText
 10
205.825741
 20
140.813013
 40
2.29824
  1
ＬＥＤ
 50
2.504478E-006
 41
0.796429
  7
STANDARD
100
AcDbText
  0
TEXT
  5
2FA
100
AcDbEntity
  8
M0
 62
     4
100
AcDbText
 10
205.824911
 20
140.813013
 40
2.29824
  1
ＬＥＤ
 50
2.504478E-006
 41
0.796429
  7
STANDARD
100
AcDbText
  0
TEXT
  5
2FB
100
AcDbEntity
  8
M0
 62
     4
100
AcDbText
 10
205.824093
 20
140.813013
 40
2.29824
  1
ＬＥＤ
 50
2.504478E-006
 41
0.796429
  7
STANDARD
100
AcDbText
  0
TEXT
  5
2FC
100
AcDbEntity
  8
M0
 62
     4
100
AcDbText
 10
205.823263
 20
140.813013
 40
2.29824
  1
ＬＥＤ
 50
2.504478E-006
 41
0.796429
  7
STANDARD
100
AcDbText
  0
TEXT
  5
2FD
100
AcDbEntity
  8
M0
 62
     4
100
AcDbText
 10
205.822432
 20
140.813013
 40
2.29824
  1
ＬＥＤ
 50
2.504478E-006
 41
0.796429
  7
STANDARD
100
AcDbText
  0
TEXT
  5
2FE
100
AcDbEntity
  8
M0
 62
     4
100
AcDbText
 10
205.821615
 20
140.813013
 40
2.29824
  1
ＬＥＤ
 50
2.504478E-006
 41
0.796429
  7
STANDARD
100
AcDbText
  0
TEXT
  5
2FF
100
AcDbEntity
  8
M0
 62
     4
100
AcDbText
 10
205.820784
 20
140.813013
 40
2.29824
  1
ＬＥＤ
 50
2.504478E-006
 41
0.796429
  7
STANDARD
100
AcDbText
  0
TEXT
  5
300
100
AcDbEntity
  8
M0
 62
     4
100
AcDbText
 10
205.819953
 20
140.813013
 40
2.29824
  1
ＬＥＤ
 50
2.504478E-006
 41
0.796429
  7
STANDARD
100
AcDbText
  0
TEXT
  5
301
100
AcDbEntity
  8
M0
 62
     4
100
AcDbText
 10
205.819123
 20
140.813013
 40
2.29824
  1
ＬＥＤ
 50
2.504478E-006
 41
0.796429
  7
STANDARD
100
AcDbText
  0
TEXT
  5
302
100
AcDbEntity
  8
M0
 62
     4
100
AcDbText
 10
205.818305
 20
140.813013
 40
2.29824
  1
ＬＥＤ
 50
2.504478E-006
 41
0.796429
  7
STANDARD
100
AcDbText
  0
TEXT
  5
303
100
AcDbEntity
  8
M0
 62
     4
100
AcDbText
 10
205.817475
 20
140.813013
 40
2.29824
  1
ＬＥＤ
 50
2.504478E-006
 41
0.796429
  7
STANDARD
100
AcDbText
  0
TEXT
  5
304
100
AcDbEntity
  8
M0
 62
     4
100
AcDbText
 10
205.816644
 20
140.813013
 40
2.29824
  1
ＬＥＤ
 50
2.504478E-006
 41
0.796429
  7
STANDARD
100
AcDbText
  0
TEXT
  5
305
100
AcDbEntity
  8
M0
 62
     4
100
AcDbText
 10
205.815827
 20
140.813013
 40
2.29824
  1
ＬＥＤ
 50
2.504478E-006
 41
0.796429
  7
STANDARD
100
AcDbText
  0
TEXT
  5
306
100
AcDbEntity
  8
M0
 62
     4
100
AcDbText
 10
205.814996
 20
140.813013
 40
2.29824
  1
ＬＥＤ
 50
2.504478E-006
 41
0.796429
  7
STANDARD
100
AcDbText
  0
TEXT
  5
307
100
AcDbEntity
  8
M0
 62
     4
100
AcDbText
 10
205.814166
 20
140.813013
 40
2.29824
  1
ＬＥＤ
 50
2.504478E-006
 41
0.796429
  7
STANDARD
100
AcDbText
  0
TEXT
  5
308
100
AcDbEntity
  8
M0
 62
     4
100
AcDbText
 10
205.813348
 20
140.813013
 40
2.29824
  1
ＬＥＤ
 50
2.504478E-006
 41
0.796429
  7
STANDARD
100
AcDbText
  0
TEXT
  5
309
100
AcDbEntity
  8
M0
 62
     4
100
AcDbText
 10
205.812518
 20
140.813013
 40
2.29824
  1
ＬＥＤ
 50
2.504478E-006
 41
0.796429
  7
STANDARD
100
AcDbText
  0
TEXT
  5
30A
100
AcDbEntity
  8
M0
 62
     4
100
AcDbText
 10
205.811687
 20
140.813013
 40
2.29824
  1
ＬＥＤ
 50
2.504478E-006
 41
0.796429
  7
STANDARD
100
AcDbText
  0
TEXT
  5
30B
100
AcDbEntity
  8
M0
 62
     4
100
AcDbText
 10
205.810857
 20
140.813013
 40
2.29824
  1
ＬＥＤ
 50
2.504478E-006
 41
0.796429
  7
STANDARD
100
AcDbText
  0
TEXT
  5
30C
100
AcDbEntity
  8
M0
 62
     4
100
AcDbText
 10
205.810039
 20
140.813013
 40
2.29824
  1
ＬＥＤ
 50
2.504478E-006
 41
0.796429
  7
STANDARD
100
AcDbText
  0
TEXT
  5
30D
100
AcDbEntity
  8
M0
 62
     4
100
AcDbText
 10
205.809209
 20
140.813013
 40
2.29824
  1
ＬＥＤ
 50
2.504478E-006
 41
0.796429
  7
STANDARD
100
AcDbText
  0
TEXT
  5
30E
100
AcDbEntity
  8
M0
 62
     4
100
AcDbText
 10
205.841443
 20
140.812196
 40
2.29824
  1
ＬＥＤ
 50
2.504478E-006
 41
0.796429
  7
STANDARD
100
AcDbText
  0
TEXT
  5
30F
100
AcDbEntity
  8
M0
 62
     4
100
AcDbText
 10
205.840625
 20
140.812196
 40
2.29824
  1
ＬＥＤ
 50
2.504478E-006
 41
0.796429
  7
STANDARD
100
AcDbText
  0
TEXT
  5
310
100
AcDbEntity
  8
M0
 62
     4
100
AcDbText
 10
205.839795
 20
140.812196
 40
2.29824
  1
ＬＥＤ
 50
2.504478E-006
 41
0.796429
  7
STANDARD
100
AcDbText
  0
TEXT
  5
311
100
AcDbEntity
  8
M0
 62
     4
100
AcDbText
 10
205.838964
 20
140.812196
 40
2.29824
  1
ＬＥＤ
 50
2.504478E-006
 41
0.796429
  7
STANDARD
100
AcDbText
  0
TEXT
  5
312
100
AcDbEntity
  8
M0
 62
     4
100
AcDbText
 10
205.838147
 20
140.812196
 40
2.29824
  1
ＬＥＤ
 50
2.504478E-006
 41
0.796429
  7
STANDARD
100
AcDbText
  0
TEXT
  5
313
100
AcDbEntity
  8
M0
 62
     4
100
AcDbText
 10
205.837316
 20
140.812196
 40
2.29824
  1
ＬＥＤ
 50
2.504478E-006
 41
0.796429
  7
STANDARD
100
AcDbText
  0
TEXT
  5
314
100
AcDbEntity
  8
M0
 62
     4
100
AcDbText
 10
205.836486
 20
140.812196
 40
2.29824
  1
ＬＥＤ
 50
2.504478E-006
 41
0.796429
  7
STANDARD
100
AcDbText
  0
TEXT
  5
315
100
AcDbEntity
  8
M0
 62
     4
100
AcDbText
 10
205.835655
 20
140.812196
 40
2.29824
  1
ＬＥＤ
 50
2.504478E-006
 41
0.796429
  7
STANDARD
100
AcDbText
  0
TEXT
  5
316
100
AcDbEntity
  8
M0
 62
     4
100
AcDbText
 10
205.834838
 20
140.812196
 40
2.29824
  1
ＬＥＤ
 50
2.504478E-006
 41
0.796429
  7
STANDARD
100
AcDbText
  0
TEXT
  5
317
100
AcDbEntity
  8
M0
 62
     4
100
AcDbText
 10
205.834007
 20
140.812196
 40
2.29824
  1
ＬＥＤ
 50
2.504478E-006
 41
0.796429
  7
STANDARD
100
AcDbText
  0
TEXT
  5
318
100
AcDbEntity
  8
M0
 62
     4
100
AcDbText
 10
205.833177
 20
140.812196
 40
2.29824
  1
ＬＥＤ
 50
2.504478E-006
 41
0.796429
  7
STANDARD
100
AcDbText
  0
TEXT
  5
319
100
AcDbEntity
  8
M0
 62
     4
100
AcDbText
 10
205.832359
 20
140.812196
 40
2.29824
  1
ＬＥＤ
 50
2.504478E-006
 41
0.796429
  7
STANDARD
100
AcDbText
  0
TEXT
  5
31A
100
AcDbEntity
  8
M0
 62
     4
100
AcDbText
 10
205.831529
 20
140.812196
 40
2.29824
  1
ＬＥＤ
 50
2.504478E-006
 41
0.796429
  7
STANDARD
100
AcDbText
  0
LINE
  5
31B
100
AcDbEntity
  8
M0
  6
DASHDOT
 62
     4
100
AcDbLine
 10
253.248386
 20
103.394452
 11
253.248386
 21
110.310381
  0
ARC
  5
31C
100
AcDbEntity
  8
M0
 62
     4
100
AcDbCircle
 10
244.934556
 20
81.17519
 40
11.284634
100
AcDbArc
 50
25.487089
 51
154.512911
  0
LINE
  5
31D
100
AcDbEntity
  8
M0
 62
     4
100
AcDbLine
 10
204.412306
 20
135.715689
 11
202.821268
 21
135.715689
  0
LINE
  5
31E
100
AcDbEntity
  8
M0
  6
DASHED
 62
     4
100
AcDbLine
 10
202.821268
 20
128.764282
 11
202.821268
 21
121.938682
  0
LINE
  5
31F
100
AcDbEntity
  8
M0
  6
DASHED
 62
     4
100
AcDbLine
 10
240.005117
 20
129.282682
 11
221.887527
 21
129.282682
  0
LINE
  5
320
100
AcDbEntity
  8
M0
 62
     4
100
AcDbLine
 10
215.677291
 20
136.049105
 11
218.581765
 21
138.48868
  0
LINE
  5
321
100
AcDbEntity
  8
M0
 62
     4
100
AcDbLine
 10
221.369127
 20
135.715689
 11
219.254737
 21
135.715689
  0
LINE
  5
322
100
AcDbEntity
  8
M0
 62
     4
100
AcDbLine
 10
214.761937
 20
135.715689
 11
212.564316
 21
135.715689
  0
LINE
  5
323
100
AcDbEntity
  8
M0
 62
     4
100
AcDbLine
 10
204.412306
 20
135.715689
 11
204.412306
 21
143.218965
  0
LINE
  5
324
100
AcDbEntity
  8
M0
 62
     4
100
AcDbLine
 10
212.564316
 20
143.218965
 11
212.564316
 21
135.715689
  0
LINE
  5
325
100
AcDbEntity
  8
M0
 62
     4
100
AcDbLine
 10
208.488311
 20
136.285321
 11
208.488311
 21
139.791609
  0
LINE
  5
326
100
AcDbEntity
  8
M0
 62
     4
100
AcDbLine
 10
208.488311
 20
131.639769
 11
208.488311
 21
134.989321
  0
LINE
  5
327
100
AcDbEntity
  8
M0
 62
     4
100
AcDbLine
 10
209.136298
 20
136.285314
 11
207.840298
 21
136.285327
  0
LINE
  5
328
100
AcDbEntity
  8
M0
 62
     4
100
AcDbLine
 10
209.136285
 20
134.989314
 11
207.840285
 21
134.989327
  0
LINE
  5
329
100
AcDbEntity
  8
M0
 62
     4
100
AcDbLine
 10
208.488285
 20
134.989321
 11
207.840298
 21
136.285327
  0
LINE
  5
32A
100
AcDbEntity
  8
M0
 62
     4
100
AcDbLine
 10
209.136298
 20
136.285314
 11
208.488285
 21
134.989321
  0
LINE
  5
32B
100
AcDbEntity
  8
M0
 62
     4
100
AcDbLine
 10
204.412306
 20
135.715689
 11
205.711782
 21
134.41624
  0
LINE
  5
32C
100
AcDbEntity
  8
M0
 62
     4
100
AcDbLine
 10
208.488311
 20
139.791609
 11
207.188878
 21
138.492202
  0
LINE
  5
32D
100
AcDbEntity
  8
M0
 62
     4
100
AcDbLine
 10
209.787745
 20
138.492202
 11
208.488311
 21
139.791609
  0
LINE
  5
32E
100
AcDbEntity
  8
M0
 62
     4
100
AcDbLine
 10
211.26484
 20
134.41624
 11
212.564316
 21
135.715689
  0
LINE
  5
32F
100
AcDbEntity
  8
M0
 62
     4
100
AcDbLine
 10
207.086403
 20
133.95803
 11
205.711792
 21
134.416249
  0
LINE
  5
330
100
AcDbEntity
  8
M0
 62
     4
100
AcDbLine
 10
207.086403
 20
133.95803
 11
206.169983
 21
133.041629
  0
LINE
  5
331
100
AcDbEntity
  8
M0
 62
     4
100
AcDbLine
 10
205.711792
 20
134.416249
 11
206.169983
 21
133.041629
  0
LINE
  5
332
100
AcDbEntity
  8
M0
 62
     4
100
AcDbLine
 10
206.170002
 20
134.87445
 11
205.253582
 21
133.958049
  0
LINE
  5
333
100
AcDbEntity
  8
M0
 62
     4
100
AcDbLine
 10
209.890219
 20
133.95803
 11
211.26483
 21
134.416249
  0
LINE
  5
334
100
AcDbEntity
  8
M0
 62
     4
100
AcDbLine
 10
210.80662
 20
134.87445
 11
211.72304
 21
133.958049
  0
LINE
  5
335
100
AcDbEntity
  8
M0
 62
     4
100
AcDbLine
 10
211.26483
 20
134.416249
 11
210.806639
 21
133.041629
  0
LINE
  5
336
100
AcDbEntity
  8
M0
 62
     4
100
AcDbLine
 10
209.890219
 20
133.95803
 11
210.806639
 21
133.041629
  0
LINE
  5
337
100
AcDbEntity
  8
M0
 62
     4
100
AcDbLine
 10
209.329544
 20
138.033992
 11
210.245945
 21
138.950412
  0
LINE
  5
338
100
AcDbEntity
  8
M0
 62
     4
100
AcDbLine
 10
209.787745
 20
138.492202
 11
211.162365
 21
138.034011
  0
LINE
  5
339
100
AcDbEntity
  8
M0
 62
     4
100
AcDbLine
 10
210.245964
 20
137.117591
 11
211.162365
 21
138.034011
  0
LINE
  5
33A
100
AcDbEntity
  8
M0
 62
     4
100
AcDbLine
 10
210.245964
 20
137.117591
 11
209.787745
 21
138.492202
  0
LINE
  5
33B
100
AcDbEntity
  8
M0
 62
     4
100
AcDbLine
 10
207.647078
 20
138.033992
 11
206.730677
 21
138.950412
  0
LINE
  5
33C
100
AcDbEntity
  8
M0
 62
     4
100
AcDbLine
 10
207.188878
 20
138.492202
 11
205.814257
 21
138.034011
  0
LINE
  5
33D
100
AcDbEntity
  8
M0
 62
     4
100
AcDbLine
 10
206.730658
 20
137.117591
 11
207.188878
 21
138.492202
  0
LINE
  5
33E
100
AcDbEntity
  8
M0
 62
     4
100
AcDbLine
 10
206.730658
 20
137.117591
 11
205.814257
 21
138.034011
  0
LINE
  5
33F
100
AcDbEntity
  8
M0
 62
     4
100
AcDbLine
 10
212.564316
 20
135.715689
 11
210.704165
 21
137.575801
  0
LINE
  5
340
100
AcDbEntity
  8
M0
 62
     4
100
AcDbLine
 10
206.628202
 20
133.499839
 11
208.488311
 21
131.639769
  0
LINE
  5
341
100
AcDbEntity
  8
M0
 62
     4
100
AcDbLine
 10
208.488311
 20
131.639769
 11
210.34842
 21
133.499839
  0
LINE
  5
342
100
AcDbEntity
  8
M0
 62
     4
100
AcDbLine
 10
206.272458
 20
137.575801
 11
204.412306
 21
135.715689
  0
LINE
  5
343
100
AcDbEntity
  8
M0
 62
     4
100
AcDbLine
 10
212.564316
 20
143.218965
 11
204.412306
 21
143.218965
  0
LINE
  5
344
100
AcDbEntity
  8
M0
 62
     4
100
AcDbLine
 10
212.564316
 20
140.532521
 11
204.412306
 21
140.532521
  0
CIRCLE
  5
345
100
AcDbEntity
  8
M0
 62
     4
100
AcDbCircle
 10
218.736337
 20
135.715689
 40
0.5184
  0
CIRCLE
  5
346
100
AcDbEntity
  8
M0
 62
     4
100
AcDbCircle
 10
215.280337
 20
135.715689
 40
0.5184
  0
TEXT
  5
347
100
AcDbEntity
  8
M0
 62
     4
100
AcDbText
 10
205.841443
 20
140.823682
 40
2.29824
  1
ＬＥＤ
 50
2.504478E-006
 41
0.796429
  7
STANDARD
100
AcDbText
  0
TEXT
  5
348
100
AcDbEntity
  8
M0
 62
     4
100
AcDbText
 10
205.840625
 20
140.823682
 40
2.29824
  1
ＬＥＤ
 50
2.504478E-006
 41
0.796429
  7
STANDARD
100
AcDbText
  0
TEXT
  5
349
100
AcDbEntity
  8
M0
 62
     4
100
AcDbText
 10
205.839795
 20
140.823682
 40
2.29824
  1
ＬＥＤ
 50
2.504478E-006
 41
0.796429
  7
STANDARD
100
AcDbText
  0
TEXT
  5
34A
100
AcDbEntity
  8
M0
 62
     4
100
AcDbText
 10
205.838964
 20
140.823682
 40
2.29824
  1
ＬＥＤ
 50
2.504478E-006
 41
0.796429
  7
STANDARD
100
AcDbText
  0
TEXT
  5
34B
100
AcDbEntity
  8
M0
 62
     4
100
AcDbText
 10
205.838147
 20
140.823682
 40
2.29824
  1
ＬＥＤ
 50
2.504478E-006
 41
0.796429
  7
STANDARD
100
AcDbText
  0
TEXT
  5
34C
100
AcDbEntity
  8
M0
 62
     4
100
AcDbText
 10
205.837316
 20
140.823682
 40
2.29824
  1
ＬＥＤ
 50
2.504478E-006
 41
0.796429
  7
STANDARD
100
AcDbText
  0
TEXT
  5
34D
100
AcDbEntity
  8
M0
 62
     4
100
AcDbText
 10
205.836486
 20
140.823682
 40
2.29824
  1
ＬＥＤ
 50
2.504478E-006
 41
0.796429
  7
STANDARD
100
AcDbText
  0
TEXT
  5
34E
100
AcDbEntity
  8
M0
 62
     4
100
AcDbText
 10
205.835655
 20
140.823682
 40
2.29824
  1
ＬＥＤ
 50
2.504478E-006
 41
0.796429
  7
STANDARD
100
AcDbText
  0
TEXT
  5
34F
100
AcDbEntity
  8
M0
 62
     4
100
AcDbText
 10
205.834838
 20
140.823682
 40
2.29824
  1
ＬＥＤ
 50
2.504478E-006
 41
0.796429
  7
STANDARD
100
AcDbText
  0
TEXT
  5
350
100
AcDbEntity
  8
M0
 62
     4
100
AcDbText
 10
205.834007
 20
140.823682
 40
2.29824
  1
ＬＥＤ
 50
2.504478E-006
 41
0.796429
  7
STANDARD
100
AcDbText
  0
TEXT
  5
351
100
AcDbEntity
  8
M0
 62
     4
100
AcDbText
 10
205.833177
 20
140.823682
 40
2.29824
  1
ＬＥＤ
 50
2.504478E-006
 41
0.796429
  7
STANDARD
100
AcDbText
  0
TEXT
  5
352
100
AcDbEntity
  8
M0
 62
     4
100
AcDbText
 10
205.832359
 20
140.823682
 40
2.29824
  1
ＬＥＤ
 50
2.504478E-006
 41
0.796429
  7
STANDARD
100
AcDbText
  0
TEXT
  5
353
100
AcDbEntity
  8
M0
 62
     4
100
AcDbText
 10
205.831529
 20
140.823682
 40
2.29824
  1
ＬＥＤ
 50
2.504478E-006
 41
0.796429
  7
STANDARD
100
AcDbText
  0
TEXT
  5
354
100
AcDbEntity
  8
M0
 62
     4
100
AcDbText
 10
205.824093
 20
140.820402
 40
2.29824
  1
ＬＥＤ
 50
2.504478E-006
 41
0.796429
  7
STANDARD
100
AcDbText
  0
TEXT
  5
355
100
AcDbEntity
  8
M0
 62
     4
100
AcDbText
 10
205.823263
 20
140.820402
 40
2.29824
  1
ＬＥＤ
 50
2.504478E-006
 41
0.796429
  7
STANDARD
100
AcDbText
  0
TEXT
  5
356
100
AcDbEntity
  8
M0
 62
     4
100
AcDbText
 10
205.822432
 20
140.820402
 40
2.29824
  1
ＬＥＤ
 50
2.504478E-006
 41
0.796429
  7
STANDARD
100
AcDbText
  0
TEXT
  5
357
100
AcDbEntity
  8
M0
 62
     4
100
AcDbText
 10
205.821615
 20
140.820402
 40
2.29824
  1
ＬＥＤ
 50
2.504478E-006
 41
0.796429
  7
STANDARD
100
AcDbText
  0
TEXT
  5
358
100
AcDbEntity
  8
M0
 62
     4
100
AcDbText
 10
205.820784
 20
140.820402
 40
2.29824
  1
ＬＥＤ
 50
2.504478E-006
 41
0.796429
  7
STANDARD
100
AcDbText
  0
TEXT
  5
359
100
AcDbEntity
  8
M0
 62
     4
100
AcDbText
 10
205.819953
 20
140.820402
 40
2.29824
  1
ＬＥＤ
 50
2.504478E-006
 41
0.796429
  7
STANDARD
100
AcDbText
  0
TEXT
  5
35A
100
AcDbEntity
  8
M0
 62
     4
100
AcDbText
 10
205.819123
 20
140.820402
 40
2.29824
  1
ＬＥＤ
 50
2.504478E-006
 41
0.796429
  7
STANDARD
100
AcDbText
  0
TEXT
  5
35B
100
AcDbEntity
  8
M0
 62
     4
100
AcDbText
 10
205.818305
 20
140.820402
 40
2.29824
  1
ＬＥＤ
 50
2.504478E-006
 41
0.796429
  7
STANDARD
100
AcDbText
  0
TEXT
  5
35C
100
AcDbEntity
  8
M0
 62
     4
100
AcDbText
 10
205.817475
 20
140.820402
 40
2.29824
  1
ＬＥＤ
 50
2.504478E-006
 41
0.796429
  7
STANDARD
100
AcDbText
  0
TEXT
  5
35D
100
AcDbEntity
  8
M0
 62
     4
100
AcDbText
 10
205.816644
 20
140.820402
 40
2.29824
  1
ＬＥＤ
 50
2.504478E-006
 41
0.796429
  7
STANDARD
100
AcDbText
  0
TEXT
  5
35E
100
AcDbEntity
  8
M0
 62
     4
100
AcDbText
 10
205.815827
 20
140.820402
 40
2.29824
  1
ＬＥＤ
 50
2.504478E-006
 41
0.796429
  7
STANDARD
100
AcDbText
  0
TEXT
  5
35F
100
AcDbEntity
  8
M0
 62
     4
100
AcDbText
 10
205.814996
 20
140.820402
 40
2.29824
  1
ＬＥＤ
 50
2.504478E-006
 41
0.796429
  7
STANDARD
100
AcDbText
  0
TEXT
  5
360
100
AcDbEntity
  8
M0
 62
     4
100
AcDbText
 10
205.814166
 20
140.820402
 40
2.29824
  1
ＬＥＤ
 50
2.504478E-006
 41
0.796429
  7
STANDARD
100
AcDbText
  0
TEXT
  5
361
100
AcDbEntity
  8
M0
 62
     4
100
AcDbText
 10
205.813348
 20
140.820402
 40
2.29824
  1
ＬＥＤ
 50
2.504478E-006
 41
0.796429
  7
STANDARD
100
AcDbText
  0
TEXT
  5
362
100
AcDbEntity
  8
M0
 62
     4
100
AcDbText
 10
205.812518
 20
140.820402
 40
2.29824
  1
ＬＥＤ
 50
2.504478E-006
 41
0.796429
  7
STANDARD
100
AcDbText
  0
TEXT
  5
363
100
AcDbEntity
  8
M0
 62
     4
100
AcDbText
 10
205.811687
 20
140.820402
 40
2.29824
  1
ＬＥＤ
 50
2.504478E-006
 41
0.796429
  7
STANDARD
100
AcDbText
  0
TEXT
  5
364
100
AcDbEntity
  8
M0
 62
     4
100
AcDbText
 10
205.810857
 20
140.820402
 40
2.29824
  1
ＬＥＤ
 50
2.504478E-006
 41
0.796429
  7
STANDARD
100
AcDbText
  0
TEXT
  5
365
100
AcDbEntity
  8
M0
 62
     4
100
AcDbText
 10
205.810039
 20
140.820402
 40
2.29824
  1
ＬＥＤ
 50
2.504478E-006
 41
0.796429
  7
STANDARD
100
AcDbText
  0
TEXT
  5
366
100
AcDbEntity
  8
M0
 62
     4
100
AcDbText
 10
205.809209
 20
140.820402
 40
2.29824
  1
ＬＥＤ
 50
2.504478E-006
 41
0.796429
  7
STANDARD
100
AcDbText
  0
TEXT
  5
367
100
AcDbEntity
  8
M0
 62
     4
100
AcDbText
 10
205.841443
 20
140.819578
 40
2.29824
  1
ＬＥＤ
 50
2.504478E-006
 41
0.796429
  7
STANDARD
100
AcDbText
  0
TEXT
  5
368
100
AcDbEntity
  8
M0
 62
     4
100
AcDbText
 10
205.840625
 20
140.819578
 40
2.29824
  1
ＬＥＤ
 50
2.504478E-006
 41
0.796429
  7
STANDARD
100
AcDbText
  0
TEXT
  5
369
100
AcDbEntity
  8
M0
 62
     4
100
AcDbText
 10
205.839795
 20
140.819578
 40
2.29824
  1
ＬＥＤ
 50
2.504478E-006
 41
0.796429
  7
STANDARD
100
AcDbText
  0
TEXT
  5
36A
100
AcDbEntity
  8
M0
 62
     4
100
AcDbText
 10
205.838964
 20
140.819578
 40
2.29824
  1
ＬＥＤ
 50
2.504478E-006
 41
0.796429
  7
STANDARD
100
AcDbText
  0
TEXT
  5
36B
100
AcDbEntity
  8
M0
 62
     4
100
AcDbText
 10
205.838147
 20
140.819578
 40
2.29824
  1
ＬＥＤ
 50
2.504478E-006
 41
0.796429
  7
STANDARD
100
AcDbText
  0
TEXT
  5
36C
100
AcDbEntity
  8
M0
 62
     4
100
AcDbText
 10
205.837316
 20
140.819578
 40
2.29824
  1
ＬＥＤ
 50
2.504478E-006
 41
0.796429
  7
STANDARD
100
AcDbText
  0
TEXT
  5
36D
100
AcDbEntity
  8
M0
 62
     4
100
AcDbText
 10
205.836486
 20
140.819578
 40
2.29824
  1
ＬＥＤ
 50
2.504478E-006
 41
0.796429
  7
STANDARD
100
AcDbText
  0
TEXT
  5
36E
100
AcDbEntity
  8
M0
 62
     4
100
AcDbText
 10
205.835655
 20
140.819578
 40
2.29824
  1
ＬＥＤ
 50
2.504478E-006
 41
0.796429
  7
STANDARD
100
AcDbText
  0
TEXT
  5
36F
100
AcDbEntity
  8
M0
 62
     4
100
AcDbText
 10
205.834838
 20
140.819578
 40
2.29824
  1
ＬＥＤ
 50
2.504478E-006
 41
0.796429
  7
STANDARD
100
AcDbText
  0
TEXT
  5
370
100
AcDbEntity
  8
M0
 62
     4
100
AcDbText
 10
205.834007
 20
140.819578
 40
2.29824
  1
ＬＥＤ
 50
2.504478E-006
 41
0.796429
  7
STANDARD
100
AcDbText
  0
TEXT
  5
371
100
AcDbEntity
  8
M0
 62
     4
100
AcDbText
 10
205.833177
 20
140.819578
 40
2.29824
  1
ＬＥＤ
 50
2.504478E-006
 41
0.796429
  7
STANDARD
100
AcDbText
  0
TEXT
  5
372
100
AcDbEntity
  8
M0
 62
     4
100
AcDbText
 10
205.832359
 20
140.819578
 40
2.29824
  1
ＬＥＤ
 50
2.504478E-006
 41
0.796429
  7
STANDARD
100
AcDbText
  0
TEXT
  5
373
100
AcDbEntity
  8
M0
 62
     4
100
AcDbText
 10
205.831529
 20
140.819578
 40
2.29824
  1
ＬＥＤ
 50
2.504478E-006
 41
0.796429
  7
STANDARD
100
AcDbText
  0
TEXT
  5
374
100
AcDbEntity
  8
M0
 62
     4
100
AcDbText
 10
205.830698
 20
140.819578
 40
2.29824
  1
ＬＥＤ
 50
2.504478E-006
 41
0.796429
  7
STANDARD
100
AcDbText
  0
TEXT
  5
375
100
AcDbEntity
  8
M0
 62
     4
100
AcDbText
 10
205.829881
 20
140.819578
 40
2.29824
  1
ＬＥＤ
 50
2.504478E-006
 41
0.796429
  7
STANDARD
100
AcDbText
  0
TEXT
  5
376
100
AcDbEntity
  8
M0
 62
     4
100
AcDbText
 10
205.82905
 20
140.819578
 40
2.29824
  1
ＬＥＤ
 50
2.504478E-006
 41
0.796429
  7
STANDARD
100
AcDbText
  0
TEXT
  5
377
100
AcDbEntity
  8
M0
 62
     4
100
AcDbText
 10
205.828219
 20
140.819578
 40
2.29824
  1
ＬＥＤ
 50
2.504478E-006
 41
0.796429
  7
STANDARD
100
AcDbText
  0
TEXT
  5
378
100
AcDbEntity
  8
M0
 62
     4
100
AcDbText
 10
205.827389
 20
140.819578
 40
2.29824
  1
ＬＥＤ
 50
2.504478E-006
 41
0.796429
  7
STANDARD
100
AcDbText
  0
TEXT
  5
379
100
AcDbEntity
  8
M0
 62
     4
100
AcDbText
 10
205.826571
 20
140.819578
 40
2.29824
  1
ＬＥＤ
 50
2.504478E-006
 41
0.796429
  7
STANDARD
100
AcDbText
  0
TEXT
  5
37A
100
AcDbEntity
  8
M0
 62
     4
100
AcDbText
 10
205.825741
 20
140.819578
 40
2.29824
  1
ＬＥＤ
 50
2.504478E-006
 41
0.796429
  7
STANDARD
100
AcDbText
  0
TEXT
  5
37B
100
AcDbEntity
  8
M0
 62
     4
100
AcDbText
 10
205.824911
 20
140.819578
 40
2.29824
  1
ＬＥＤ
 50
2.504478E-006
 41
0.796429
  7
STANDARD
100
AcDbText
  0
TEXT
  5
37C
100
AcDbEntity
  8
M0
 62
     4
100
AcDbText
 10
205.824093
 20
140.819578
 40
2.29824
  1
ＬＥＤ
 50
2.504478E-006
 41
0.796429
  7
STANDARD
100
AcDbText
  0
TEXT
  5
37D
100
AcDbEntity
  8
M0
 62
     4
100
AcDbText
 10
205.823263
 20
140.819578
 40
2.29824
  1
ＬＥＤ
 50
2.504478E-006
 41
0.796429
  7
STANDARD
100
AcDbText
  0
TEXT
  5
37E
100
AcDbEntity
  8
M0
 62
     4
100
AcDbText
 10
205.822432
 20
140.819578
 40
2.29824
  1
ＬＥＤ
 50
2.504478E-006
 41
0.796429
  7
STANDARD
100
AcDbText
  0
TEXT
  5
37F
100
AcDbEntity
  8
M0
 62
     4
100
AcDbText
 10
205.821615
 20
140.819578
 40
2.29824
  1
ＬＥＤ
 50
2.504478E-006
 41
0.796429
  7
STANDARD
100
AcDbText
  0
TEXT
  5
380
100
AcDbEntity
  8
M0
 62
     4
100
AcDbText
 10
205.820784
 20
140.819578
 40
2.29824
  1
ＬＥＤ
 50
2.504478E-006
 41
0.796429
  7
STANDARD
100
AcDbText
  0
TEXT
  5
381
100
AcDbEntity
  8
M0
 62
     4
100
AcDbText
 10
205.819953
 20
140.819578
 40
2.29824
  1
ＬＥＤ
 50
2.504478E-006
 41
0.796429
  7
STANDARD
100
AcDbText
  0
TEXT
  5
382
100
AcDbEntity
  8
M0
 62
     4
100
AcDbText
 10
205.819123
 20
140.819578
 40
2.29824
  1
ＬＥＤ
 50
2.504478E-006
 41
0.796429
  7
STANDARD
100
AcDbText
  0
TEXT
  5
383
100
AcDbEntity
  8
M0
 62
     4
100
AcDbText
 10
205.818305
 20
140.819578
 40
2.29824
  1
ＬＥＤ
 50
2.504478E-006
 41
0.796429
  7
STANDARD
100
AcDbText
  0
TEXT
  5
384
100
AcDbEntity
  8
M0
 62
     4
100
AcDbText
 10
205.817475
 20
140.819578
 40
2.29824
  1
ＬＥＤ
 50
2.504478E-006
 41
0.796429
  7
STANDARD
100
AcDbText
  0
TEXT
  5
385
100
AcDbEntity
  8
M0
 62
     4
100
AcDbText
 10
205.816644
 20
140.819578
 40
2.29824
  1
ＬＥＤ
 50
2.504478E-006
 41
0.796429
  7
STANDARD
100
AcDbText
  0
TEXT
  5
386
100
AcDbEntity
  8
M0
 62
     4
100
AcDbText
 10
205.815827
 20
140.819578
 40
2.29824
  1
ＬＥＤ
 50
2.504478E-006
 41
0.796429
  7
STANDARD
100
AcDbText
  0
TEXT
  5
387
100
AcDbEntity
  8
M0
 62
     4
100
AcDbText
 10
205.814996
 20
140.819578
 40
2.29824
  1
ＬＥＤ
 50
2.504478E-006
 41
0.796429
  7
STANDARD
100
AcDbText
  0
TEXT
  5
388
100
AcDbEntity
  8
M0
 62
     4
100
AcDbText
 10
205.814166
 20
140.819578
 40
2.29824
  1
ＬＥＤ
 50
2.504478E-006
 41
0.796429
  7
STANDARD
100
AcDbText
  0
TEXT
  5
389
100
AcDbEntity
  8
M0
 62
     4
100
AcDbText
 10
205.813348
 20
140.819578
 40
2.29824
  1
ＬＥＤ
 50
2.504478E-006
 41
0.796429
  7
STANDARD
100
AcDbText
  0
TEXT
  5
38A
100
AcDbEntity
  8
M0
 62
     4
100
AcDbText
 10
205.812518
 20
140.819578
 40
2.29824
  1
ＬＥＤ
 50
2.504478E-006
 41
0.796429
  7
STANDARD
100
AcDbText
  0
TEXT
  5
38B
100
AcDbEntity
  8
M0
 62
     4
100
AcDbText
 10
205.811687
 20
140.819578
 40
2.29824
  1
ＬＥＤ
 50
2.504478E-006
 41
0.796429
  7
STANDARD
100
AcDbText
  0
TEXT
  5
38C
100
AcDbEntity
  8
M0
 62
     4
100
AcDbText
 10
205.810857
 20
140.808095
 40
2.29824
  1
ＬＥＤ
 50
2.504478E-006
 41
0.796429
  7
STANDARD
100
AcDbText
  0
TEXT
  5
38D
100
AcDbEntity
  8
M0
 62
     4
100
AcDbText
 10
205.810039
 20
140.808095
 40
2.29824
  1
ＬＥＤ
 50
2.504478E-006
 41
0.796429
  7
STANDARD
100
AcDbText
  0
TEXT
  5
38E
100
AcDbEntity
  8
M0
 62
     4
100
AcDbText
 10
205.809209
 20
140.808095
 40
2.29824
  1
ＬＥＤ
 50
2.504478E-006
 41
0.796429
  7
STANDARD
100
AcDbText
  0
TEXT
  5
38F
100
AcDbEntity
  8
M0
 62
     4
100
AcDbText
 10
205.841443
 20
140.807271
 40
2.29824
  1
ＬＥＤ
 50
2.504478E-006
 41
0.796429
  7
STANDARD
100
AcDbText
  0
TEXT
  5
390
100
AcDbEntity
  8
M0
 62
     4
100
AcDbText
 10
205.840625
 20
140.807271
 40
2.29824
  1
ＬＥＤ
 50
2.504478E-006
 41
0.796429
  7
STANDARD
100
AcDbText
  0
TEXT
  5
391
100
AcDbEntity
  8
M0
 62
     4
100
AcDbText
 10
205.839795
 20
140.807271
 40
2.29824
  1
ＬＥＤ
 50
2.504478E-006
 41
0.796429
  7
STANDARD
100
AcDbText
  0
TEXT
  5
392
100
AcDbEntity
  8
M0
 62
     4
100
AcDbText
 10
205.838964
 20
140.807271
 40
2.29824
  1
ＬＥＤ
 50
2.504478E-006
 41
0.796429
  7
STANDARD
100
AcDbText
  0
TEXT
  5
393
100
AcDbEntity
  8
M0
 62
     4
100
AcDbText
 10
205.838147
 20
140.807271
 40
2.29824
  1
ＬＥＤ
 50
2.504478E-006
 41
0.796429
  7
STANDARD
100
AcDbText
  0
TEXT
  5
394
100
AcDbEntity
  8
M0
 62
     4
100
AcDbText
 10
205.837316
 20
140.807271
 40
2.29824
  1
ＬＥＤ
 50
2.504478E-006
 41
0.796429
  7
STANDARD
100
AcDbText
  0
TEXT
  5
395
100
AcDbEntity
  8
M0
 62
     4
100
AcDbText
 10
205.836486
 20
140.807271
 40
2.29824
  1
ＬＥＤ
 50
2.504478E-006
 41
0.796429
  7
STANDARD
100
AcDbText
  0
TEXT
  5
396
100
AcDbEntity
  8
M0
 62
     4
100
AcDbText
 10
205.835655
 20
140.807271
 40
2.29824
  1
ＬＥＤ
 50
2.504478E-006
 41
0.796429
  7
STANDARD
100
AcDbText
  0
TEXT
  5
397
100
AcDbEntity
  8
M0
 62
     4
100
AcDbText
 10
205.834838
 20
140.807271
 40
2.29824
  1
ＬＥＤ
 50
2.504478E-006
 41
0.796429
  7
STANDARD
100
AcDbText
  0
TEXT
  5
398
100
AcDbEntity
  8
M0
 62
     4
100
AcDbText
 10
205.834007
 20
140.807271
 40
2.29824
  1
ＬＥＤ
 50
2.504478E-006
 41
0.796429
  7
STANDARD
100
AcDbText
  0
TEXT
  5
399
100
AcDbEntity
  8
M0
 62
     4
100
AcDbText
 10
205.833177
 20
140.807271
 40
2.29824
  1
ＬＥＤ
 50
2.504478E-006
 41
0.796429
  7
STANDARD
100
AcDbText
  0
TEXT
  5
39A
100
AcDbEntity
  8
M0
 62
     4
100
AcDbText
 10
205.832359
 20
140.807271
 40
2.29824
  1
ＬＥＤ
 50
2.504478E-006
 41
0.796429
  7
STANDARD
100
AcDbText
  0
TEXT
  5
39B
100
AcDbEntity
  8
M0
 62
     4
100
AcDbText
 10
205.831529
 20
140.807271
 40
2.29824
  1
ＬＥＤ
 50
2.504478E-006
 41
0.796429
  7
STANDARD
100
AcDbText
  0
TEXT
  5
39C
100
AcDbEntity
  8
M0
 62
     4
100
AcDbText
 10
205.830698
 20
140.807271
 40
2.29824
  1
ＬＥＤ
 50
2.504478E-006
 41
0.796429
  7
STANDARD
100
AcDbText
  0
TEXT
  5
39D
100
AcDbEntity
  8
M0
 62
     4
100
AcDbText
 10
205.829881
 20
140.807271
 40
2.29824
  1
ＬＥＤ
 50
2.504478E-006
 41
0.796429
  7
STANDARD
100
AcDbText
  0
TEXT
  5
39E
100
AcDbEntity
  8
M0
 62
     4
100
AcDbText
 10
205.82905
 20
140.807271
 40
2.29824
  1
ＬＥＤ
 50
2.504478E-006
 41
0.796429
  7
STANDARD
100
AcDbText
  0
TEXT
  5
39F
100
AcDbEntity
  8
M0
 62
     4
100
AcDbText
 10
205.828219
 20
140.807271
 40
2.29824
  1
ＬＥＤ
 50
2.504478E-006
 41
0.796429
  7
STANDARD
100
AcDbText
  0
TEXT
  5
3A0
100
AcDbEntity
  8
M0
 62
     4
100
AcDbText
 10
205.827389
 20
140.807271
 40
2.29824
  1
ＬＥＤ
 50
2.504478E-006
 41
0.796429
  7
STANDARD
100
AcDbText
  0
TEXT
  5
3A1
100
AcDbEntity
  8
M0
 62
     4
100
AcDbText
 10
205.826571
 20
140.807271
 40
2.29824
  1
ＬＥＤ
 50
2.504478E-006
 41
0.796429
  7
STANDARD
100
AcDbText
  0
TEXT
  5
3A2
100
AcDbEntity
  8
M0
 62
     4
100
AcDbText
 10
205.825741
 20
140.807271
 40
2.29824
  1
ＬＥＤ
 50
2.504478E-006
 41
0.796429
  7
STANDARD
100
AcDbText
  0
TEXT
  5
3A3
100
AcDbEntity
  8
M0
 62
     4
100
AcDbText
 10
205.824911
 20
140.807271
 40
2.29824
  1
ＬＥＤ
 50
2.504478E-006
 41
0.796429
  7
STANDARD
100
AcDbText
  0
TEXT
  5
3A4
100
AcDbEntity
  8
M0
 62
     4
100
AcDbText
 10
205.824093
 20
140.807271
 40
2.29824
  1
ＬＥＤ
 50
2.504478E-006
 41
0.796429
  7
STANDARD
100
AcDbText
  0
TEXT
  5
3A5
100
AcDbEntity
  8
M0
 62
     4
100
AcDbText
 10
205.823263
 20
140.807271
 40
2.29824
  1
ＬＥＤ
 50
2.504478E-006
 41
0.796429
  7
STANDARD
100
AcDbText
  0
TEXT
  5
3A6
100
AcDbEntity
  8
M0
 62
     4
100
AcDbText
 10
205.822432
 20
140.807271
 40
2.29824
  1
ＬＥＤ
 50
2.504478E-006
 41
0.796429
  7
STANDARD
100
AcDbText
  0
TEXT
  5
3A7
100
AcDbEntity
  8
M0
 62
     4
100
AcDbText
 10
205.821615
 20
140.807271
 40
2.29824
  1
ＬＥＤ
 50
2.504478E-006
 41
0.796429
  7
STANDARD
100
AcDbText
  0
TEXT
  5
3A8
100
AcDbEntity
  8
M0
 62
     4
100
AcDbText
 10
205.820784
 20
140.807271
 40
2.29824
  1
ＬＥＤ
 50
2.504478E-006
 41
0.796429
  7
STANDARD
100
AcDbText
  0
TEXT
  5
3A9
100
AcDbEntity
  8
M0
 62
     4
100
AcDbText
 10
205.819953
 20
140.807271
 40
2.29824
  1
ＬＥＤ
 50
2.504478E-006
 41
0.796429
  7
STANDARD
100
AcDbText
  0
TEXT
  5
3AA
100
AcDbEntity
  8
M0
 62
     4
100
AcDbText
 10
205.819123
 20
140.807271
 40
2.29824
  1
ＬＥＤ
 50
2.504478E-006
 41
0.796429
  7
STANDARD
100
AcDbText
  0
TEXT
  5
3AB
100
AcDbEntity
  8
M0
 62
     4
100
AcDbText
 10
205.818305
 20
140.807271
 40
2.29824
  1
ＬＥＤ
 50
2.504478E-006
 41
0.796429
  7
STANDARD
100
AcDbText
  0
TEXT
  5
3AC
100
AcDbEntity
  8
M0
 62
     4
100
AcDbText
 10
205.817475
 20
140.807271
 40
2.29824
  1
ＬＥＤ
 50
2.504478E-006
 41
0.796429
  7
STANDARD
100
AcDbText
  0
TEXT
  5
3AD
100
AcDbEntity
  8
M0
 62
     4
100
AcDbText
 10
205.816644
 20
140.807271
 40
2.29824
  1
ＬＥＤ
 50
2.504478E-006
 41
0.796429
  7
STANDARD
100
AcDbText
  0
TEXT
  5
3AE
100
AcDbEntity
  8
M0
 62
     4
100
AcDbText
 10
205.815827
 20
140.807271
 40
2.29824
  1
ＬＥＤ
 50
2.504478E-006
 41
0.796429
  7
STANDARD
100
AcDbText
  0
TEXT
  5
3AF
100
AcDbEntity
  8
M0
 62
     4
100
AcDbText
 10
205.814996
 20
140.807271
 40
2.29824
  1
ＬＥＤ
 50
2.504478E-006
 41
0.796429
  7
STANDARD
100
AcDbText
  0
TEXT
  5
3B0
100
AcDbEntity
  8
M0
 62
     4
100
AcDbText
 10
205.814166
 20
140.807271
 40
2.29824
  1
ＬＥＤ
 50
2.504478E-006
 41
0.796429
  7
STANDARD
100
AcDbText
  0
TEXT
  5
3B1
100
AcDbEntity
  8
M0
 62
     4
100
AcDbText
 10
205.813348
 20
140.807271
 40
2.29824
  1
ＬＥＤ
 50
2.504478E-006
 41
0.796429
  7
STANDARD
100
AcDbText
  0
TEXT
  5
3B2
100
AcDbEntity
  8
M0
 62
     4
100
AcDbText
 10
205.812518
 20
140.807271
 40
2.29824
  1
ＬＥＤ
 50
2.504478E-006
 41
0.796429
  7
STANDARD
100
AcDbText
  0
TEXT
  5
3B3
100
AcDbEntity
  8
M0
 62
     4
100
AcDbText
 10
205.811687
 20
140.807271
 40
2.29824
  1
ＬＥＤ
 50
2.504478E-006
 41
0.796429
  7
STANDARD
100
AcDbText
  0
TEXT
  5
3B4
100
AcDbEntity
  8
M0
 62
     4
100
AcDbText
 10
205.810857
 20
140.807271
 40
2.29824
  1
ＬＥＤ
 50
2.504478E-006
 41
0.796429
  7
STANDARD
100
AcDbText
  0
TEXT
  5
3B5
100
AcDbEntity
  8
M0
 62
     4
100
AcDbText
 10
205.810039
 20
140.807271
 40
2.29824
  1
ＬＥＤ
 50
2.504478E-006
 41
0.796429
  7
STANDARD
100
AcDbText
  0
TEXT
  5
3B6
100
AcDbEntity
  8
M0
 62
     4
100
AcDbText
 10
205.809209
 20
140.807271
 40
2.29824
  1
ＬＥＤ
 50
2.504478E-006
 41
0.796429
  7
STANDARD
100
AcDbText
  0
TEXT
  5
3B7
100
AcDbEntity
  8
M0
 62
     4
100
AcDbText
 10
205.841443
 20
140.806455
 40
2.29824
  1
ＬＥＤ
 50
2.504478E-006
 41
0.796429
  7
STANDARD
100
AcDbText
  0
TEXT
  5
3B8
100
AcDbEntity
  8
M0
 62
     4
100
AcDbText
 10
205.840625
 20
140.806455
 40
2.29824
  1
ＬＥＤ
 50
2.504478E-006
 41
0.796429
  7
STANDARD
100
AcDbText
  0
TEXT
  5
3B9
100
AcDbEntity
  8
M0
 62
     4
100
AcDbText
 10
205.839795
 20
140.806455
 40
2.29824
  1
ＬＥＤ
 50
2.504478E-006
 41
0.796429
  7
STANDARD
100
AcDbText
  0
TEXT
  5
3BA
100
AcDbEntity
  8
M0
 62
     4
100
AcDbText
 10
205.838964
 20
140.806455
 40
2.29824
  1
ＬＥＤ
 50
2.504478E-006
 41
0.796429
  7
STANDARD
100
AcDbText
  0
TEXT
  5
3BB
100
AcDbEntity
  8
M0
 62
     4
100
AcDbText
 10
205.838147
 20
140.806455
 40
2.29824
  1
ＬＥＤ
 50
2.504478E-006
 41
0.796429
  7
STANDARD
100
AcDbText
  0
TEXT
  5
3BC
100
AcDbEntity
  8
M0
 62
     4
100
AcDbText
 10
205.837316
 20
140.806455
 40
2.29824
  1
ＬＥＤ
 50
2.504478E-006
 41
0.796429
  7
STANDARD
100
AcDbText
  0
TEXT
  5
3BD
100
AcDbEntity
  8
M0
 62
     4
100
AcDbText
 10
205.836486
 20
140.806455
 40
2.29824
  1
ＬＥＤ
 50
2.504478E-006
 41
0.796429
  7
STANDARD
100
AcDbText
  0
TEXT
  5
3BE
100
AcDbEntity
  8
M0
 62
     4
100
AcDbText
 10
205.835655
 20
140.806455
 40
2.29824
  1
ＬＥＤ
 50
2.504478E-006
 41
0.796429
  7
STANDARD
100
AcDbText
  0
TEXT
  5
3BF
100
AcDbEntity
  8
M0
 62
     4
100
AcDbText
 10
205.834838
 20
140.806455
 40
2.29824
  1
ＬＥＤ
 50
2.504478E-006
 41
0.796429
  7
STANDARD
100
AcDbText
  0
TEXT
  5
3C0
100
AcDbEntity
  8
M0
 62
     4
100
AcDbText
 10
205.834007
 20
140.806455
 40
2.29824
  1
ＬＥＤ
 50
2.504478E-006
 41
0.796429
  7
STANDARD
100
AcDbText
  0
TEXT
  5
3C1
100
AcDbEntity
  8
M0
 62
     4
100
AcDbText
 10
205.833177
 20
140.806455
 40
2.29824
  1
ＬＥＤ
 50
2.504478E-006
 41
0.796429
  7
STANDARD
100
AcDbText
  0
TEXT
  5
3C2
100
AcDbEntity
  8
M0
 62
     4
100
AcDbText
 10
205.832359
 20
140.806455
 40
2.29824
  1
ＬＥＤ
 50
2.504478E-006
 41
0.796429
  7
STANDARD
100
AcDbText
  0
TEXT
  5
3C3
100
AcDbEntity
  8
M0
 62
     4
100
AcDbText
 10
205.831529
 20
140.806455
 40
2.29824
  1
ＬＥＤ
 50
2.504478E-006
 41
0.796429
  7
STANDARD
100
AcDbText
  0
TEXT
  5
3C4
100
AcDbEntity
  8
M0
 62
     4
100
AcDbText
 10
205.824093
 20
140.808912
 40
2.29824
  1
ＬＥＤ
 50
2.504478E-006
 41
0.796429
  7
STANDARD
100
AcDbText
  0
TEXT
  5
3C5
100
AcDbEntity
  8
M0
 62
     4
100
AcDbText
 10
205.823263
 20
140.808912
 40
2.29824
  1
ＬＥＤ
 50
2.504478E-006
 41
0.796429
  7
STANDARD
100
AcDbText
  0
TEXT
  5
3C6
100
AcDbEntity
  8
M0
 62
     4
100
AcDbText
 10
205.822432
 20
140.808912
 40
2.29824
  1
ＬＥＤ
 50
2.504478E-006
 41
0.796429
  7
STANDARD
100
AcDbText
  0
TEXT
  5
3C7
100
AcDbEntity
  8
M0
 62
     4
100
AcDbText
 10
205.821615
 20
140.808912
 40
2.29824
  1
ＬＥＤ
 50
2.504478E-006
 41
0.796429
  7
STANDARD
100
AcDbText
  0
TEXT
  5
3C8
100
AcDbEntity
  8
M0
 62
     4
100
AcDbText
 10
205.820784
 20
140.808912
 40
2.29824
  1
ＬＥＤ
 50
2.504478E-006
 41
0.796429
  7
STANDARD
100
AcDbText
  0
TEXT
  5
3C9
100
AcDbEntity
  8
M0
 62
     4
100
AcDbText
 10
205.819953
 20
140.808912
 40
2.29824
  1
ＬＥＤ
 50
2.504478E-006
 41
0.796429
  7
STANDARD
100
AcDbText
  0
TEXT
  5
3CA
100
AcDbEntity
  8
M0
 62
     4
100
AcDbText
 10
205.819123
 20
140.808912
 40
2.29824
  1
ＬＥＤ
 50
2.504478E-006
 41
0.796429
  7
STANDARD
100
AcDbText
  0
TEXT
  5
3CB
100
AcDbEntity
  8
M0
 62
     4
100
AcDbText
 10
205.818305
 20
140.808912
 40
2.29824
  1
ＬＥＤ
 50
2.504478E-006
 41
0.796429
  7
STANDARD
100
AcDbText
  0
TEXT
  5
3CC
100
AcDbEntity
  8
M0
 62
     4
100
AcDbText
 10
205.817475
 20
140.808912
 40
2.29824
  1
ＬＥＤ
 50
2.504478E-006
 41
0.796429
  7
STANDARD
100
AcDbText
  0
TEXT
  5
3CD
100
AcDbEntity
  8
M0
 62
     4
100
AcDbText
 10
205.816644
 20
140.808912
 40
2.29824
  1
ＬＥＤ
 50
2.504478E-006
 41
0.796429
  7
STANDARD
100
AcDbText
  0
TEXT
  5
3CE
100
AcDbEntity
  8
M0
 62
     4
100
AcDbText
 10
205.815827
 20
140.808912
 40
2.29824
  1
ＬＥＤ
 50
2.504478E-006
 41
0.796429
  7
STANDARD
100
AcDbText
  0
TEXT
  5
3CF
100
AcDbEntity
  8
M0
 62
     4
100
AcDbText
 10
205.814996
 20
140.808912
 40
2.29824
  1
ＬＥＤ
 50
2.504478E-006
 41
0.796429
  7
STANDARD
100
AcDbText
  0
TEXT
  5
3D0
100
AcDbEntity
  8
M0
 62
     4
100
AcDbText
 10
205.814166
 20
140.808912
 40
2.29824
  1
ＬＥＤ
 50
2.504478E-006
 41
0.796429
  7
STANDARD
100
AcDbText
  0
TEXT
  5
3D1
100
AcDbEntity
  8
M0
 62
     4
100
AcDbText
 10
205.813348
 20
140.808912
 40
2.29824
  1
ＬＥＤ
 50
2.504478E-006
 41
0.796429
  7
STANDARD
100
AcDbText
  0
TEXT
  5
3D2
100
AcDbEntity
  8
M0
 62
     4
100
AcDbText
 10
205.812518
 20
140.808912
 40
2.29824
  1
ＬＥＤ
 50
2.504478E-006
 41
0.796429
  7
STANDARD
100
AcDbText
  0
TEXT
  5
3D3
100
AcDbEntity
  8
M0
 62
     4
100
AcDbText
 10
205.811687
 20
140.808912
 40
2.29824
  1
ＬＥＤ
 50
2.504478E-006
 41
0.796429
  7
STANDARD
100
AcDbText
  0
TEXT
  5
3D4
100
AcDbEntity
  8
M0
 62
     4
100
AcDbText
 10
205.810857
 20
140.808912
 40
2.29824
  1
ＬＥＤ
 50
2.504478E-006
 41
0.796429
  7
STANDARD
100
AcDbText
  0
TEXT
  5
3D5
100
AcDbEntity
  8
M0
 62
     4
100
AcDbText
 10
205.810039
 20
140.808912
 40
2.29824
  1
ＬＥＤ
 50
2.504478E-006
 41
0.796429
  7
STANDARD
100
AcDbText
  0
TEXT
  5
3D6
100
AcDbEntity
  8
M0
 62
     4
100
AcDbText
 10
205.809209
 20
140.808912
 40
2.29824
  1
ＬＥＤ
 50
2.504478E-006
 41
0.796429
  7
STANDARD
100
AcDbText
  0
TEXT
  5
3D7
100
AcDbEntity
  8
M0
 62
     4
100
AcDbText
 10
205.841443
 20
140.808095
 40
2.29824
  1
ＬＥＤ
 50
2.504478E-006
 41
0.796429
  7
STANDARD
100
AcDbText
  0
TEXT
  5
3D8
100
AcDbEntity
  8
M0
 62
     4
100
AcDbText
 10
205.840625
 20
140.808095
 40
2.29824
  1
ＬＥＤ
 50
2.504478E-006
 41
0.796429
  7
STANDARD
100
AcDbText
  0
TEXT
  5
3D9
100
AcDbEntity
  8
M0
 62
     4
100
AcDbText
 10
205.839795
 20
140.808095
 40
2.29824
  1
ＬＥＤ
 50
2.504478E-006
 41
0.796429
  7
STANDARD
100
AcDbText
  0
TEXT
  5
3DA
100
AcDbEntity
  8
M0
 62
     4
100
AcDbText
 10
205.838964
 20
140.808095
 40
2.29824
  1
ＬＥＤ
 50
2.504478E-006
 41
0.796429
  7
STANDARD
100
AcDbText
  0
TEXT
  5
3DB
100
AcDbEntity
  8
M0
 62
     4
100
AcDbText
 10
205.838147
 20
140.808095
 40
2.29824
  1
ＬＥＤ
 50
2.504478E-006
 41
0.796429
  7
STANDARD
100
AcDbText
  0
TEXT
  5
3DC
100
AcDbEntity
  8
M0
 62
     4
100
AcDbText
 10
205.837316
 20
140.808095
 40
2.29824
  1
ＬＥＤ
 50
2.504478E-006
 41
0.796429
  7
STANDARD
100
AcDbText
  0
TEXT
  5
3DD
100
AcDbEntity
  8
M0
 62
     4
100
AcDbText
 10
205.836486
 20
140.808095
 40
2.29824
  1
ＬＥＤ
 50
2.504478E-006
 41
0.796429
  7
STANDARD
100
AcDbText
  0
TEXT
  5
3DE
100
AcDbEntity
  8
M0
 62
     4
100
AcDbText
 10
205.835655
 20
140.808095
 40
2.29824
  1
ＬＥＤ
 50
2.504478E-006
 41
0.796429
  7
STANDARD
100
AcDbText
  0
TEXT
  5
3DF
100
AcDbEntity
  8
M0
 62
     4
100
AcDbText
 10
205.834838
 20
140.808095
 40
2.29824
  1
ＬＥＤ
 50
2.504478E-006
 41
0.796429
  7
STANDARD
100
AcDbText
  0
TEXT
  5
3E0
100
AcDbEntity
  8
M0
 62
     4
100
AcDbText
 10
205.834007
 20
140.808095
 40
2.29824
  1
ＬＥＤ
 50
2.504478E-006
 41
0.796429
  7
STANDARD
100
AcDbText
  0
TEXT
  5
3E1
100
AcDbEntity
  8
M0
 62
     4
100
AcDbText
 10
205.833177
 20
140.808095
 40
2.29824
  1
ＬＥＤ
 50
2.504478E-006
 41
0.796429
  7
STANDARD
100
AcDbText
  0
TEXT
  5
3E2
100
AcDbEntity
  8
M0
 62
     4
100
AcDbText
 10
205.832359
 20
140.808095
 40
2.29824
  1
ＬＥＤ
 50
2.504478E-006
 41
0.796429
  7
STANDARD
100
AcDbText
  0
TEXT
  5
3E3
100
AcDbEntity
  8
M0
 62
     4
100
AcDbText
 10
205.831529
 20
140.808095
 40
2.29824
  1
ＬＥＤ
 50
2.504478E-006
 41
0.796429
  7
STANDARD
100
AcDbText
  0
TEXT
  5
3E4
100
AcDbEntity
  8
M0
 62
     4
100
AcDbText
 10
205.830698
 20
140.808095
 40
2.29824
  1
ＬＥＤ
 50
2.504478E-006
 41
0.796429
  7
STANDARD
100
AcDbText
  0
TEXT
  5
3E5
100
AcDbEntity
  8
M0
 62
     4
100
AcDbText
 10
205.829881
 20
140.808095
 40
2.29824
  1
ＬＥＤ
 50
2.504478E-006
 41
0.796429
  7
STANDARD
100
AcDbText
  0
TEXT
  5
3E6
100
AcDbEntity
  8
M0
 62
     4
100
AcDbText
 10
205.82905
 20
140.808095
 40
2.29824
  1
ＬＥＤ
 50
2.504478E-006
 41
0.796429
  7
STANDARD
100
AcDbText
  0
TEXT
  5
3E7
100
AcDbEntity
  8
M0
 62
     4
100
AcDbText
 10
205.828219
 20
140.808095
 40
2.29824
  1
ＬＥＤ
 50
2.504478E-006
 41
0.796429
  7
STANDARD
100
AcDbText
  0
TEXT
  5
3E8
100
AcDbEntity
  8
M0
 62
     4
100
AcDbText
 10
205.827389
 20
140.808095
 40
2.29824
  1
ＬＥＤ
 50
2.504478E-006
 41
0.796429
  7
STANDARD
100
AcDbText
  0
TEXT
  5
3E9
100
AcDbEntity
  8
M0
 62
     4
100
AcDbText
 10
205.826571
 20
140.808095
 40
2.29824
  1
ＬＥＤ
 50
2.504478E-006
 41
0.796429
  7
STANDARD
100
AcDbText
  0
TEXT
  5
3EA
100
AcDbEntity
  8
M0
 62
     4
100
AcDbText
 10
205.825741
 20
140.808095
 40
2.29824
  1
ＬＥＤ
 50
2.504478E-006
 41
0.796429
  7
STANDARD
100
AcDbText
  0
TEXT
  5
3EB
100
AcDbEntity
  8
M0
 62
     4
100
AcDbText
 10
205.824911
 20
140.808095
 40
2.29824
  1
ＬＥＤ
 50
2.504478E-006
 41
0.796429
  7
STANDARD
100
AcDbText
  0
TEXT
  5
3EC
100
AcDbEntity
  8
M0
 62
     4
100
AcDbText
 10
205.824093
 20
140.808095
 40
2.29824
  1
ＬＥＤ
 50
2.504478E-006
 41
0.796429
  7
STANDARD
100
AcDbText
  0
TEXT
  5
3ED
100
AcDbEntity
  8
M0
 62
     4
100
AcDbText
 10
205.823263
 20
140.808095
 40
2.29824
  1
ＬＥＤ
 50
2.504478E-006
 41
0.796429
  7
STANDARD
100
AcDbText
  0
TEXT
  5
3EE
100
AcDbEntity
  8
M0
 62
     4
100
AcDbText
 10
205.822432
 20
140.808095
 40
2.29824
  1
ＬＥＤ
 50
2.504478E-006
 41
0.796429
  7
STANDARD
100
AcDbText
  0
TEXT
  5
3EF
100
AcDbEntity
  8
M0
 62
     4
100
AcDbText
 10
205.821615
 20
140.808095
 40
2.29824
  1
ＬＥＤ
 50
2.504478E-006
 41
0.796429
  7
STANDARD
100
AcDbText
  0
TEXT
  5
3F0
100
AcDbEntity
  8
M0
 62
     4
100
AcDbText
 10
205.820784
 20
140.808095
 40
2.29824
  1
ＬＥＤ
 50
2.504478E-006
 41
0.796429
  7
STANDARD
100
AcDbText
  0
TEXT
  5
3F1
100
AcDbEntity
  8
M0
 62
     4
100
AcDbText
 10
205.819953
 20
140.808095
 40
2.29824
  1
ＬＥＤ
 50
2.504478E-006
 41
0.796429
  7
STANDARD
100
AcDbText
  0
TEXT
  5
3F2
100
AcDbEntity
  8
M0
 62
     4
100
AcDbText
 10
205.819123
 20
140.808095
 40
2.29824
  1
ＬＥＤ
 50
2.504478E-006
 41
0.796429
  7
STANDARD
100
AcDbText
  0
TEXT
  5
3F3
100
AcDbEntity
  8
M0
 62
     4
100
AcDbText
 10
205.818305
 20
140.808095
 40
2.29824
  1
ＬＥＤ
 50
2.504478E-006
 41
0.796429
  7
STANDARD
100
AcDbText
  0
TEXT
  5
3F4
100
AcDbEntity
  8
M0
 62
     4
100
AcDbText
 10
205.817475
 20
140.808095
 40
2.29824
  1
ＬＥＤ
 50
2.504478E-006
 41
0.796429
  7
STANDARD
100
AcDbText
  0
TEXT
  5
3F5
100
AcDbEntity
  8
M0
 62
     4
100
AcDbText
 10
205.816644
 20
140.808095
 40
2.29824
  1
ＬＥＤ
 50
2.504478E-006
 41
0.796429
  7
STANDARD
100
AcDbText
  0
TEXT
  5
3F6
100
AcDbEntity
  8
M0
 62
     4
100
AcDbText
 10
205.815827
 20
140.808095
 40
2.29824
  1
ＬＥＤ
 50
2.504478E-006
 41
0.796429
  7
STANDARD
100
AcDbText
  0
TEXT
  5
3F7
100
AcDbEntity
  8
M0
 62
     4
100
AcDbText
 10
205.814996
 20
140.808095
 40
2.29824
  1
ＬＥＤ
 50
2.504478E-006
 41
0.796429
  7
STANDARD
100
AcDbText
  0
TEXT
  5
3F8
100
AcDbEntity
  8
M0
 62
     4
100
AcDbText
 10
205.814166
 20
140.808095
 40
2.29824
  1
ＬＥＤ
 50
2.504478E-006
 41
0.796429
  7
STANDARD
100
AcDbText
  0
TEXT
  5
3F9
100
AcDbEntity
  8
M0
 62
     4
100
AcDbText
 10
205.813348
 20
140.808095
 40
2.29824
  1
ＬＥＤ
 50
2.504478E-006
 41
0.796429
  7
STANDARD
100
AcDbText
  0
TEXT
  5
3FA
100
AcDbEntity
  8
M0
 62
     4
100
AcDbText
 10
205.812518
 20
140.808095
 40
2.29824
  1
ＬＥＤ
 50
2.504478E-006
 41
0.796429
  7
STANDARD
100
AcDbText
  0
TEXT
  5
3FB
100
AcDbEntity
  8
M0
 62
     4
100
AcDbText
 10
205.811687
 20
140.808095
 40
2.29824
  1
ＬＥＤ
 50
2.504478E-006
 41
0.796429
  7
STANDARD
100
AcDbText
  0
TEXT
  5
3FC
100
AcDbEntity
  8
M0
 62
     4
100
AcDbText
 10
205.837316
 20
140.809736
 40
2.29824
  1
ＬＥＤ
 50
2.504478E-006
 41
0.796429
  7
STANDARD
100
AcDbText
  0
TEXT
  5
3FD
100
AcDbEntity
  8
M0
 62
     4
100
AcDbText
 10
205.836486
 20
140.809736
 40
2.29824
  1
ＬＥＤ
 50
2.504478E-006
 41
0.796429
  7
STANDARD
100
AcDbText
  0
TEXT
  5
3FE
100
AcDbEntity
  8
M0
 62
     4
100
AcDbText
 10
205.835655
 20
140.809736
 40
2.29824
  1
ＬＥＤ
 50
2.504478E-006
 41
0.796429
  7
STANDARD
100
AcDbText
  0
TEXT
  5
3FF
100
AcDbEntity
  8
M0
 62
     4
100
AcDbText
 10
205.834838
 20
140.809736
 40
2.29824
  1
ＬＥＤ
 50
2.504478E-006
 41
0.796429
  7
STANDARD
100
AcDbText
  0
TEXT
  5
400
100
AcDbEntity
  8
M0
 62
     4
100
AcDbText
 10
205.834007
 20
140.809736
 40
2.29824
  1
ＬＥＤ
 50
2.504478E-006
 41
0.796429
  7
STANDARD
100
AcDbText
  0
TEXT
  5
401
100
AcDbEntity
  8
M0
 62
     4
100
AcDbText
 10
205.833177
 20
140.809736
 40
2.29824
  1
ＬＥＤ
 50
2.504478E-006
 41
0.796429
  7
STANDARD
100
AcDbText
  0
TEXT
  5
402
100
AcDbEntity
  8
M0
 62
     4
100
AcDbText
 10
205.832359
 20
140.809736
 40
2.29824
  1
ＬＥＤ
 50
2.504478E-006
 41
0.796429
  7
STANDARD
100
AcDbText
  0
TEXT
  5
403
100
AcDbEntity
  8
M0
 62
     4
100
AcDbText
 10
205.831529
 20
140.809736
 40
2.29824
  1
ＬＥＤ
 50
2.504478E-006
 41
0.796429
  7
STANDARD
100
AcDbText
  0
TEXT
  5
404
100
AcDbEntity
  8
M0
 62
     4
100
AcDbText
 10
205.830698
 20
140.809736
 40
2.29824
  1
ＬＥＤ
 50
2.504478E-006
 41
0.796429
  7
STANDARD
100
AcDbText
  0
TEXT
  5
405
100
AcDbEntity
  8
M0
 62
     4
100
AcDbText
 10
205.829881
 20
140.809736
 40
2.29824
  1
ＬＥＤ
 50
2.504478E-006
 41
0.796429
  7
STANDARD
100
AcDbText
  0
TEXT
  5
406
100
AcDbEntity
  8
M0
 62
     4
100
AcDbText
 10
205.82905
 20
140.809736
 40
2.29824
  1
ＬＥＤ
 50
2.504478E-006
 41
0.796429
  7
STANDARD
100
AcDbText
  0
TEXT
  5
407
100
AcDbEntity
  8
M0
 62
     4
100
AcDbText
 10
205.828219
 20
140.809736
 40
2.29824
  1
ＬＥＤ
 50
2.504478E-006
 41
0.796429
  7
STANDARD
100
AcDbText
  0
TEXT
  5
408
100
AcDbEntity
  8
M0
 62
     4
100
AcDbText
 10
205.827389
 20
140.809736
 40
2.29824
  1
ＬＥＤ
 50
2.504478E-006
 41
0.796429
  7
STANDARD
100
AcDbText
  0
TEXT
  5
409
100
AcDbEntity
  8
M0
 62
     4
100
AcDbText
 10
205.826571
 20
140.809736
 40
2.29824
  1
ＬＥＤ
 50
2.504478E-006
 41
0.796429
  7
STANDARD
100
AcDbText
  0
TEXT
  5
40A
100
AcDbEntity
  8
M0
 62
     4
100
AcDbText
 10
205.825741
 20
140.809736
 40
2.29824
  1
ＬＥＤ
 50
2.504478E-006
 41
0.796429
  7
STANDARD
100
AcDbText
  0
TEXT
  5
40B
100
AcDbEntity
  8
M0
 62
     4
100
AcDbText
 10
205.824911
 20
140.809736
 40
2.29824
  1
ＬＥＤ
 50
2.504478E-006
 41
0.796429
  7
STANDARD
100
AcDbText
  0
TEXT
  5
40C
100
AcDbEntity
  8
M0
 62
     4
100
AcDbText
 10
205.824093
 20
140.809736
 40
2.29824
  1
ＬＥＤ
 50
2.504478E-006
 41
0.796429
  7
STANDARD
100
AcDbText
  0
TEXT
  5
40D
100
AcDbEntity
  8
M0
 62
     4
100
AcDbText
 10
205.823263
 20
140.809736
 40
2.29824
  1
ＬＥＤ
 50
2.504478E-006
 41
0.796429
  7
STANDARD
100
AcDbText
  0
TEXT
  5
40E
100
AcDbEntity
  8
M0
 62
     4
100
AcDbText
 10
205.822432
 20
140.809736
 40
2.29824
  1
ＬＥＤ
 50
2.504478E-006
 41
0.796429
  7
STANDARD
100
AcDbText
  0
TEXT
  5
40F
100
AcDbEntity
  8
M0
 62
     4
100
AcDbText
 10
205.821615
 20
140.809736
 40
2.29824
  1
ＬＥＤ
 50
2.504478E-006
 41
0.796429
  7
STANDARD
100
AcDbText
  0
TEXT
  5
410
100
AcDbEntity
  8
M0
 62
     4
100
AcDbText
 10
205.820784
 20
140.809736
 40
2.29824
  1
ＬＥＤ
 50
2.504478E-006
 41
0.796429
  7
STANDARD
100
AcDbText
  0
TEXT
  5
411
100
AcDbEntity
  8
M0
 62
     4
100
AcDbText
 10
205.819953
 20
140.809736
 40
2.29824
  1
ＬＥＤ
 50
2.504478E-006
 41
0.796429
  7
STANDARD
100
AcDbText
  0
TEXT
  5
412
100
AcDbEntity
  8
M0
 62
     4
100
AcDbText
 10
205.819123
 20
140.809736
 40
2.29824
  1
ＬＥＤ
 50
2.504478E-006
 41
0.796429
  7
STANDARD
100
AcDbText
  0
TEXT
  5
413
100
AcDbEntity
  8
M0
 62
     4
100
AcDbText
 10
205.818305
 20
140.809736
 40
2.29824
  1
ＬＥＤ
 50
2.504478E-006
 41
0.796429
  7
STANDARD
100
AcDbText
  0
TEXT
  5
414
100
AcDbEntity
  8
M0
 62
     4
100
AcDbText
 10
205.817475
 20
140.809736
 40
2.29824
  1
ＬＥＤ
 50
2.504478E-006
 41
0.796429
  7
STANDARD
100
AcDbText
  0
TEXT
  5
415
100
AcDbEntity
  8
M0
 62
     4
100
AcDbText
 10
205.816644
 20
140.809736
 40
2.29824
  1
ＬＥＤ
 50
2.504478E-006
 41
0.796429
  7
STANDARD
100
AcDbText
  0
TEXT
  5
416
100
AcDbEntity
  8
M0
 62
     4
100
AcDbText
 10
205.815827
 20
140.809736
 40
2.29824
  1
ＬＥＤ
 50
2.504478E-006
 41
0.796429
  7
STANDARD
100
AcDbText
  0
TEXT
  5
417
100
AcDbEntity
  8
M0
 62
     4
100
AcDbText
 10
205.814996
 20
140.809736
 40
2.29824
  1
ＬＥＤ
 50
2.504478E-006
 41
0.796429
  7
STANDARD
100
AcDbText
  0
TEXT
  5
418
100
AcDbEntity
  8
M0
 62
     4
100
AcDbText
 10
205.814166
 20
140.809736
 40
2.29824
  1
ＬＥＤ
 50
2.504478E-006
 41
0.796429
  7
STANDARD
100
AcDbText
  0
TEXT
  5
419
100
AcDbEntity
  8
M0
 62
     4
100
AcDbText
 10
205.813348
 20
140.809736
 40
2.29824
  1
ＬＥＤ
 50
2.504478E-006
 41
0.796429
  7
STANDARD
100
AcDbText
  0
TEXT
  5
41A
100
AcDbEntity
  8
M0
 62
     4
100
AcDbText
 10
205.812518
 20
140.809736
 40
2.29824
  1
ＬＥＤ
 50
2.504478E-006
 41
0.796429
  7
STANDARD
100
AcDbText
  0
TEXT
  5
41B
100
AcDbEntity
  8
M0
 62
     4
100
AcDbText
 10
205.811687
 20
140.809736
 40
2.29824
  1
ＬＥＤ
 50
2.504478E-006
 41
0.796429
  7
STANDARD
100
AcDbText
  0
TEXT
  5
41C
100
AcDbEntity
  8
M0
 62
     4
100
AcDbText
 10
205.810857
 20
140.809736
 40
2.29824
  1
ＬＥＤ
 50
2.504478E-006
 41
0.796429
  7
STANDARD
100
AcDbText
  0
TEXT
  5
41D
100
AcDbEntity
  8
M0
 62
     4
100
AcDbText
 10
205.810039
 20
140.809736
 40
2.29824
  1
ＬＥＤ
 50
2.504478E-006
 41
0.796429
  7
STANDARD
100
AcDbText
  0
TEXT
  5
41E
100
AcDbEntity
  8
M0
 62
     4
100
AcDbText
 10
205.809209
 20
140.809736
 40
2.29824
  1
ＬＥＤ
 50
2.504478E-006
 41
0.796429
  7
STANDARD
100
AcDbText
  0
TEXT
  5
41F
100
AcDbEntity
  8
M0
 62
     4
100
AcDbText
 10
205.841443
 20
140.808912
 40
2.29824
  1
ＬＥＤ
 50
2.504478E-006
 41
0.796429
  7
STANDARD
100
AcDbText
  0
TEXT
  5
420
100
AcDbEntity
  8
M0
 62
     4
100
AcDbText
 10
205.840625
 20
140.808912
 40
2.29824
  1
ＬＥＤ
 50
2.504478E-006
 41
0.796429
  7
STANDARD
100
AcDbText
  0
TEXT
  5
421
100
AcDbEntity
  8
M0
 62
     4
100
AcDbText
 10
205.839795
 20
140.808912
 40
2.29824
  1
ＬＥＤ
 50
2.504478E-006
 41
0.796429
  7
STANDARD
100
AcDbText
  0
TEXT
  5
422
100
AcDbEntity
  8
M0
 62
     4
100
AcDbText
 10
205.838964
 20
140.808912
 40
2.29824
  1
ＬＥＤ
 50
2.504478E-006
 41
0.796429
  7
STANDARD
100
AcDbText
  0
TEXT
  5
423
100
AcDbEntity
  8
M0
 62
     4
100
AcDbText
 10
205.838147
 20
140.808912
 40
2.29824
  1
ＬＥＤ
 50
2.504478E-006
 41
0.796429
  7
STANDARD
100
AcDbText
  0
TEXT
  5
424
100
AcDbEntity
  8
M0
 62
     4
100
AcDbText
 10
205.837316
 20
140.808912
 40
2.29824
  1
ＬＥＤ
 50
2.504478E-006
 41
0.796429
  7
STANDARD
100
AcDbText
  0
TEXT
  5
425
100
AcDbEntity
  8
M0
 62
     4
100
AcDbText
 10
205.836486
 20
140.808912
 40
2.29824
  1
ＬＥＤ
 50
2.504478E-006
 41
0.796429
  7
STANDARD
100
AcDbText
  0
TEXT
  5
426
100
AcDbEntity
  8
M0
 62
     4
100
AcDbText
 10
205.835655
 20
140.808912
 40
2.29824
  1
ＬＥＤ
 50
2.504478E-006
 41
0.796429
  7
STANDARD
100
AcDbText
  0
TEXT
  5
427
100
AcDbEntity
  8
M0
 62
     4
100
AcDbText
 10
205.834838
 20
140.808912
 40
2.29824
  1
ＬＥＤ
 50
2.504478E-006
 41
0.796429
  7
STANDARD
100
AcDbText
  0
TEXT
  5
428
100
AcDbEntity
  8
M0
 62
     4
100
AcDbText
 10
205.834007
 20
140.808912
 40
2.29824
  1
ＬＥＤ
 50
2.504478E-006
 41
0.796429
  7
STANDARD
100
AcDbText
  0
TEXT
  5
429
100
AcDbEntity
  8
M0
 62
     4
100
AcDbText
 10
205.833177
 20
140.808912
 40
2.29824
  1
ＬＥＤ
 50
2.504478E-006
 41
0.796429
  7
STANDARD
100
AcDbText
  0
TEXT
  5
42A
100
AcDbEntity
  8
M0
 62
     4
100
AcDbText
 10
205.832359
 20
140.808912
 40
2.29824
  1
ＬＥＤ
 50
2.504478E-006
 41
0.796429
  7
STANDARD
100
AcDbText
  0
TEXT
  5
42B
100
AcDbEntity
  8
M0
 62
     4
100
AcDbText
 10
205.831529
 20
140.808912
 40
2.29824
  1
ＬＥＤ
 50
2.504478E-006
 41
0.796429
  7
STANDARD
100
AcDbText
  0
TEXT
  5
42C
100
AcDbEntity
  8
M0
 62
     4
100
AcDbText
 10
205.830698
 20
140.808912
 40
2.29824
  1
ＬＥＤ
 50
2.504478E-006
 41
0.796429
  7
STANDARD
100
AcDbText
  0
TEXT
  5
42D
100
AcDbEntity
  8
M0
 62
     4
100
AcDbText
 10
205.829881
 20
140.808912
 40
2.29824
  1
ＬＥＤ
 50
2.504478E-006
 41
0.796429
  7
STANDARD
100
AcDbText
  0
TEXT
  5
42E
100
AcDbEntity
  8
M0
 62
     4
100
AcDbText
 10
205.82905
 20
140.808912
 40
2.29824
  1
ＬＥＤ
 50
2.504478E-006
 41
0.796429
  7
STANDARD
100
AcDbText
  0
TEXT
  5
42F
100
AcDbEntity
  8
M0
 62
     4
100
AcDbText
 10
205.828219
 20
140.808912
 40
2.29824
  1
ＬＥＤ
 50
2.504478E-006
 41
0.796429
  7
STANDARD
100
AcDbText
  0
TEXT
  5
430
100
AcDbEntity
  8
M0
 62
     4
100
AcDbText
 10
205.827389
 20
140.808912
 40
2.29824
  1
ＬＥＤ
 50
2.504478E-006
 41
0.796429
  7
STANDARD
100
AcDbText
  0
TEXT
  5
431
100
AcDbEntity
  8
M0
 62
     4
100
AcDbText
 10
205.826571
 20
140.808912
 40
2.29824
  1
ＬＥＤ
 50
2.504478E-006
 41
0.796429
  7
STANDARD
100
AcDbText
  0
TEXT
  5
432
100
AcDbEntity
  8
M0
 62
     4
100
AcDbText
 10
205.825741
 20
140.808912
 40
2.29824
  1
ＬＥＤ
 50
2.504478E-006
 41
0.796429
  7
STANDARD
100
AcDbText
  0
TEXT
  5
433
100
AcDbEntity
  8
M0
 62
     4
100
AcDbText
 10
205.824911
 20
140.808912
 40
2.29824
  1
ＬＥＤ
 50
2.504478E-006
 41
0.796429
  7
STANDARD
100
AcDbText
  0
TEXT
  5
434
100
AcDbEntity
  8
M0
 62
     4
100
AcDbText
 10
205.830698
 20
140.823682
 40
2.29824
  1
ＬＥＤ
 50
2.504478E-006
 41
0.796429
  7
STANDARD
100
AcDbText
  0
TEXT
  5
435
100
AcDbEntity
  8
M0
 62
     4
100
AcDbText
 10
205.829881
 20
140.823682
 40
2.29824
  1
ＬＥＤ
 50
2.504478E-006
 41
0.796429
  7
STANDARD
100
AcDbText
  0
TEXT
  5
436
100
AcDbEntity
  8
M0
 62
     4
100
AcDbText
 10
205.82905
 20
140.823682
 40
2.29824
  1
ＬＥＤ
 50
2.504478E-006
 41
0.796429
  7
STANDARD
100
AcDbText
  0
TEXT
  5
437
100
AcDbEntity
  8
M0
 62
     4
100
AcDbText
 10
205.828219
 20
140.823682
 40
2.29824
  1
ＬＥＤ
 50
2.504478E-006
 41
0.796429
  7
STANDARD
100
AcDbText
  0
TEXT
  5
438
100
AcDbEntity
  8
M0
 62
     4
100
AcDbText
 10
205.827389
 20
140.823682
 40
2.29824
  1
ＬＥＤ
 50
2.504478E-006
 41
0.796429
  7
STANDARD
100
AcDbText
  0
TEXT
  5
439
100
AcDbEntity
  8
M0
 62
     4
100
AcDbText
 10
205.826571
 20
140.823682
 40
2.29824
  1
ＬＥＤ
 50
2.504478E-006
 41
0.796429
  7
STANDARD
100
AcDbText
  0
TEXT
  5
43A
100
AcDbEntity
  8
M0
 62
     4
100
AcDbText
 10
205.825741
 20
140.823682
 40
2.29824
  1
ＬＥＤ
 50
2.504478E-006
 41
0.796429
  7
STANDARD
100
AcDbText
  0
TEXT
  5
43B
100
AcDbEntity
  8
M0
 62
     4
100
AcDbText
 10
205.824911
 20
140.823682
 40
2.29824
  1
ＬＥＤ
 50
2.504478E-006
 41
0.796429
  7
STANDARD
100
AcDbText
  0
TEXT
  5
43C
100
AcDbEntity
  8
M0
 62
     4
100
AcDbText
 10
205.824093
 20
140.823682
 40
2.29824
  1
ＬＥＤ
 50
2.504478E-006
 41
0.796429
  7
STANDARD
100
AcDbText
  0
TEXT
  5
43D
100
AcDbEntity
  8
M0
 62
     4
100
AcDbText
 10
205.823263
 20
140.823682
 40
2.29824
  1
ＬＥＤ
 50
2.504478E-006
 41
0.796429
  7
STANDARD
100
AcDbText
  0
TEXT
  5
43E
100
AcDbEntity
  8
M0
 62
     4
100
AcDbText
 10
205.822432
 20
140.823682
 40
2.29824
  1
ＬＥＤ
 50
2.504478E-006
 41
0.796429
  7
STANDARD
100
AcDbText
  0
TEXT
  5
43F
100
AcDbEntity
  8
M0
 62
     4
100
AcDbText
 10
205.821615
 20
140.823682
 40
2.29824
  1
ＬＥＤ
 50
2.504478E-006
 41
0.796429
  7
STANDARD
100
AcDbText
  0
TEXT
  5
440
100
AcDbEntity
  8
M0
 62
     4
100
AcDbText
 10
205.820784
 20
140.823682
 40
2.29824
  1
ＬＥＤ
 50
2.504478E-006
 41
0.796429
  7
STANDARD
100
AcDbText
  0
TEXT
  5
441
100
AcDbEntity
  8
M0
 62
     4
100
AcDbText
 10
205.819953
 20
140.823682
 40
2.29824
  1
ＬＥＤ
 50
2.504478E-006
 41
0.796429
  7
STANDARD
100
AcDbText
  0
TEXT
  5
442
100
AcDbEntity
  8
M0
 62
     4
100
AcDbText
 10
205.819123
 20
140.823682
 40
2.29824
  1
ＬＥＤ
 50
2.504478E-006
 41
0.796429
  7
STANDARD
100
AcDbText
  0
TEXT
  5
443
100
AcDbEntity
  8
M0
 62
     4
100
AcDbText
 10
205.818305
 20
140.823682
 40
2.29824
  1
ＬＥＤ
 50
2.504478E-006
 41
0.796429
  7
STANDARD
100
AcDbText
  0
TEXT
  5
444
100
AcDbEntity
  8
M0
 62
     4
100
AcDbText
 10
205.817475
 20
140.823682
 40
2.29824
  1
ＬＥＤ
 50
2.504478E-006
 41
0.796429
  7
STANDARD
100
AcDbText
  0
TEXT
  5
445
100
AcDbEntity
  8
M0
 62
     4
100
AcDbText
 10
205.816644
 20
140.823682
 40
2.29824
  1
ＬＥＤ
 50
2.504478E-006
 41
0.796429
  7
STANDARD
100
AcDbText
  0
TEXT
  5
446
100
AcDbEntity
  8
M0
 62
     4
100
AcDbText
 10
205.815827
 20
140.823682
 40
2.29824
  1
ＬＥＤ
 50
2.504478E-006
 41
0.796429
  7
STANDARD
100
AcDbText
  0
TEXT
  5
447
100
AcDbEntity
  8
M0
 62
     4
100
AcDbText
 10
205.814996
 20
140.823682
 40
2.29824
  1
ＬＥＤ
 50
2.504478E-006
 41
0.796429
  7
STANDARD
100
AcDbText
  0
TEXT
  5
448
100
AcDbEntity
  8
M0
 62
     4
100
AcDbText
 10
205.814166
 20
140.823682
 40
2.29824
  1
ＬＥＤ
 50
2.504478E-006
 41
0.796429
  7
STANDARD
100
AcDbText
  0
TEXT
  5
449
100
AcDbEntity
  8
M0
 62
     4
100
AcDbText
 10
205.813348
 20
140.823682
 40
2.29824
  1
ＬＥＤ
 50
2.504478E-006
 41
0.796429
  7
STANDARD
100
AcDbText
  0
TEXT
  5
44A
100
AcDbEntity
  8
M0
 62
     4
100
AcDbText
 10
205.812518
 20
140.823682
 40
2.29824
  1
ＬＥＤ
 50
2.504478E-006
 41
0.796429
  7
STANDARD
100
AcDbText
  0
TEXT
  5
44B
100
AcDbEntity
  8
M0
 62
     4
100
AcDbText
 10
205.811687
 20
140.823682
 40
2.29824
  1
ＬＥＤ
 50
2.504478E-006
 41
0.796429
  7
STANDARD
100
AcDbText
  0
TEXT
  5
44C
100
AcDbEntity
  8
M0
 62
     4
100
AcDbText
 10
205.810857
 20
140.823682
 40
2.29824
  1
ＬＥＤ
 50
2.504478E-006
 41
0.796429
  7
STANDARD
100
AcDbText
  0
TEXT
  5
44D
100
AcDbEntity
  8
M0
 62
     4
100
AcDbText
 10
205.810039
 20
140.823682
 40
2.29824
  1
ＬＥＤ
 50
2.504478E-006
 41
0.796429
  7
STANDARD
100
AcDbText
  0
TEXT
  5
44E
100
AcDbEntity
  8
M0
 62
     4
100
AcDbText
 10
205.809209
 20
140.823682
 40
2.29824
  1
ＬＥＤ
 50
2.504478E-006
 41
0.796429
  7
STANDARD
100
AcDbText
  0
TEXT
  5
44F
100
AcDbEntity
  8
M0
 62
     4
100
AcDbText
 10
205.841443
 20
140.822862
 40
2.29824
  1
ＬＥＤ
 50
2.504478E-006
 41
0.796429
  7
STANDARD
100
AcDbText
  0
TEXT
  5
450
100
AcDbEntity
  8
M0
 62
     4
100
AcDbText
 10
205.840625
 20
140.822862
 40
2.29824
  1
ＬＥＤ
 50
2.504478E-006
 41
0.796429
  7
STANDARD
100
AcDbText
  0
TEXT
  5
451
100
AcDbEntity
  8
M0
 62
     4
100
AcDbText
 10
205.839795
 20
140.822862
 40
2.29824
  1
ＬＥＤ
 50
2.504478E-006
 41
0.796429
  7
STANDARD
100
AcDbText
  0
TEXT
  5
452
100
AcDbEntity
  8
M0
 62
     4
100
AcDbText
 10
205.838964
 20
140.822862
 40
2.29824
  1
ＬＥＤ
 50
2.504478E-006
 41
0.796429
  7
STANDARD
100
AcDbText
  0
TEXT
  5
453
100
AcDbEntity
  8
M0
 62
     4
100
AcDbText
 10
205.838147
 20
140.822862
 40
2.29824
  1
ＬＥＤ
 50
2.504478E-006
 41
0.796429
  7
STANDARD
100
AcDbText
  0
TEXT
  5
454
100
AcDbEntity
  8
M0
 62
     4
100
AcDbText
 10
205.837316
 20
140.822862
 40
2.29824
  1
ＬＥＤ
 50
2.504478E-006
 41
0.796429
  7
STANDARD
100
AcDbText
  0
TEXT
  5
455
100
AcDbEntity
  8
M0
 62
     4
100
AcDbText
 10
205.836486
 20
140.822862
 40
2.29824
  1
ＬＥＤ
 50
2.504478E-006
 41
0.796429
  7
STANDARD
100
AcDbText
  0
TEXT
  5
456
100
AcDbEntity
  8
M0
 62
     4
100
AcDbText
 10
205.835655
 20
140.822862
 40
2.29824
  1
ＬＥＤ
 50
2.504478E-006
 41
0.796429
  7
STANDARD
100
AcDbText
  0
TEXT
  5
457
100
AcDbEntity
  8
M0
 62
     4
100
AcDbText
 10
205.834838
 20
140.822862
 40
2.29824
  1
ＬＥＤ
 50
2.504478E-006
 41
0.796429
  7
STANDARD
100
AcDbText
  0
TEXT
  5
458
100
AcDbEntity
  8
M0
 62
     4
100
AcDbText
 10
205.834007
 20
140.822862
 40
2.29824
  1
ＬＥＤ
 50
2.504478E-006
 41
0.796429
  7
STANDARD
100
AcDbText
  0
TEXT
  5
459
100
AcDbEntity
  8
M0
 62
     4
100
AcDbText
 10
205.833177
 20
140.822862
 40
2.29824
  1
ＬＥＤ
 50
2.504478E-006
 41
0.796429
  7
STANDARD
100
AcDbText
  0
TEXT
  5
45A
100
AcDbEntity
  8
M0
 62
     4
100
AcDbText
 10
205.832359
 20
140.822862
 40
2.29824
  1
ＬＥＤ
 50
2.504478E-006
 41
0.796429
  7
STANDARD
100
AcDbText
  0
TEXT
  5
45B
100
AcDbEntity
  8
M0
 62
     4
100
AcDbText
 10
205.831529
 20
140.822862
 40
2.29824
  1
ＬＥＤ
 50
2.504478E-006
 41
0.796429
  7
STANDARD
100
AcDbText
  0
TEXT
  5
45C
100
AcDbEntity
  8
M0
 62
     4
100
AcDbText
 10
205.830698
 20
140.822862
 40
2.29824
  1
ＬＥＤ
 50
2.504478E-006
 41
0.796429
  7
STANDARD
100
AcDbText
  0
TEXT
  5
45D
100
AcDbEntity
  8
M0
 62
     4
100
AcDbText
 10
205.829881
 20
140.822862
 40
2.29824
  1
ＬＥＤ
 50
2.504478E-006
 41
0.796429
  7
STANDARD
100
AcDbText
  0
TEXT
  5
45E
100
AcDbEntity
  8
M0
 62
     4
100
AcDbText
 10
205.82905
 20
140.822862
 40
2.29824
  1
ＬＥＤ
 50
2.504478E-006
 41
0.796429
  7
STANDARD
100
AcDbText
  0
TEXT
  5
45F
100
AcDbEntity
  8
M0
 62
     4
100
AcDbText
 10
205.828219
 20
140.822862
 40
2.29824
  1
ＬＥＤ
 50
2.504478E-006
 41
0.796429
  7
STANDARD
100
AcDbText
  0
TEXT
  5
460
100
AcDbEntity
  8
M0
 62
     4
100
AcDbText
 10
205.827389
 20
140.822862
 40
2.29824
  1
ＬＥＤ
 50
2.504478E-006
 41
0.796429
  7
STANDARD
100
AcDbText
  0
TEXT
  5
461
100
AcDbEntity
  8
M0
 62
     4
100
AcDbText
 10
205.826571
 20
140.822862
 40
2.29824
  1
ＬＥＤ
 50
2.504478E-006
 41
0.796429
  7
STANDARD
100
AcDbText
  0
TEXT
  5
462
100
AcDbEntity
  8
M0
 62
     4
100
AcDbText
 10
205.825741
 20
140.822862
 40
2.29824
  1
ＬＥＤ
 50
2.504478E-006
 41
0.796429
  7
STANDARD
100
AcDbText
  0
TEXT
  5
463
100
AcDbEntity
  8
M0
 62
     4
100
AcDbText
 10
205.824911
 20
140.822862
 40
2.29824
  1
ＬＥＤ
 50
2.504478E-006
 41
0.796429
  7
STANDARD
100
AcDbText
  0
TEXT
  5
464
100
AcDbEntity
  8
M0
 62
     4
100
AcDbText
 10
205.824093
 20
140.822862
 40
2.29824
  1
ＬＥＤ
 50
2.504478E-006
 41
0.796429
  7
STANDARD
100
AcDbText
  0
TEXT
  5
465
100
AcDbEntity
  8
M0
 62
     4
100
AcDbText
 10
205.823263
 20
140.822862
 40
2.29824
  1
ＬＥＤ
 50
2.504478E-006
 41
0.796429
  7
STANDARD
100
AcDbText
  0
TEXT
  5
466
100
AcDbEntity
  8
M0
 62
     4
100
AcDbText
 10
205.822432
 20
140.822862
 40
2.29824
  1
ＬＥＤ
 50
2.504478E-006
 41
0.796429
  7
STANDARD
100
AcDbText
  0
TEXT
  5
467
100
AcDbEntity
  8
M0
 62
     4
100
AcDbText
 10
205.821615
 20
140.822862
 40
2.29824
  1
ＬＥＤ
 50
2.504478E-006
 41
0.796429
  7
STANDARD
100
AcDbText
  0
TEXT
  5
468
100
AcDbEntity
  8
M0
 62
     4
100
AcDbText
 10
205.820784
 20
140.822862
 40
2.29824
  1
ＬＥＤ
 50
2.504478E-006
 41
0.796429
  7
STANDARD
100
AcDbText
  0
TEXT
  5
469
100
AcDbEntity
  8
M0
 62
     4
100
AcDbText
 10
205.819953
 20
140.822862
 40
2.29824
  1
ＬＥＤ
 50
2.504478E-006
 41
0.796429
  7
STANDARD
100
AcDbText
  0
TEXT
  5
46A
100
AcDbEntity
  8
M0
 62
     4
100
AcDbText
 10
205.819123
 20
140.822862
 40
2.29824
  1
ＬＥＤ
 50
2.504478E-006
 41
0.796429
  7
STANDARD
100
AcDbText
  0
TEXT
  5
46B
100
AcDbEntity
  8
M0
 62
     4
100
AcDbText
 10
205.818305
 20
140.822862
 40
2.29824
  1
ＬＥＤ
 50
2.504478E-006
 41
0.796429
  7
STANDARD
100
AcDbText
  0
TEXT
  5
46C
100
AcDbEntity
  8
M0
 62
     4
100
AcDbText
 10
205.830698
 20
140.817937
 40
2.29824
  1
ＬＥＤ
 50
2.504478E-006
 41
0.796429
  7
STANDARD
100
AcDbText
  0
TEXT
  5
46D
100
AcDbEntity
  8
M0
 62
     4
100
AcDbText
 10
205.829881
 20
140.817937
 40
2.29824
  1
ＬＥＤ
 50
2.504478E-006
 41
0.796429
  7
STANDARD
100
AcDbText
  0
TEXT
  5
46E
100
AcDbEntity
  8
M0
 62
     4
100
AcDbText
 10
205.82905
 20
140.817937
 40
2.29824
  1
ＬＥＤ
 50
2.504478E-006
 41
0.796429
  7
STANDARD
100
AcDbText
  0
TEXT
  5
46F
100
AcDbEntity
  8
M0
 62
     4
100
AcDbText
 10
205.828219
 20
140.817937
 40
2.29824
  1
ＬＥＤ
 50
2.504478E-006
 41
0.796429
  7
STANDARD
100
AcDbText
  0
TEXT
  5
470
100
AcDbEntity
  8
M0
 62
     4
100
AcDbText
 10
205.827389
 20
140.817937
 40
2.29824
  1
ＬＥＤ
 50
2.504478E-006
 41
0.796429
  7
STANDARD
100
AcDbText
  0
TEXT
  5
471
100
AcDbEntity
  8
M0
 62
     4
100
AcDbText
 10
205.826571
 20
140.817937
 40
2.29824
  1
ＬＥＤ
 50
2.504478E-006
 41
0.796429
  7
STANDARD
100
AcDbText
  0
TEXT
  5
472
100
AcDbEntity
  8
M0
 62
     4
100
AcDbText
 10
205.825741
 20
140.817937
 40
2.29824
  1
ＬＥＤ
 50
2.504478E-006
 41
0.796429
  7
STANDARD
100
AcDbText
  0
TEXT
  5
473
100
AcDbEntity
  8
M0
 62
     4
100
AcDbText
 10
205.824911
 20
140.817937
 40
2.29824
  1
ＬＥＤ
 50
2.504478E-006
 41
0.796429
  7
STANDARD
100
AcDbText
  0
TEXT
  5
474
100
AcDbEntity
  8
M0
 62
     4
100
AcDbText
 10
205.824093
 20
140.817937
 40
2.29824
  1
ＬＥＤ
 50
2.504478E-006
 41
0.796429
  7
STANDARD
100
AcDbText
  0
TEXT
  5
475
100
AcDbEntity
  8
M0
 62
     4
100
AcDbText
 10
205.823263
 20
140.817937
 40
2.29824
  1
ＬＥＤ
 50
2.504478E-006
 41
0.796429
  7
STANDARD
100
AcDbText
  0
TEXT
  5
476
100
AcDbEntity
  8
M0
 62
     4
100
AcDbText
 10
205.822432
 20
140.817937
 40
2.29824
  1
ＬＥＤ
 50
2.504478E-006
 41
0.796429
  7
STANDARD
100
AcDbText
  0
TEXT
  5
477
100
AcDbEntity
  8
M0
 62
     4
100
AcDbText
 10
205.821615
 20
140.817937
 40
2.29824
  1
ＬＥＤ
 50
2.504478E-006
 41
0.796429
  7
STANDARD
100
AcDbText
  0
TEXT
  5
478
100
AcDbEntity
  8
M0
 62
     4
100
AcDbText
 10
205.820784
 20
140.817937
 40
2.29824
  1
ＬＥＤ
 50
2.504478E-006
 41
0.796429
  7
STANDARD
100
AcDbText
  0
TEXT
  5
479
100
AcDbEntity
  8
M0
 62
     4
100
AcDbText
 10
205.819953
 20
140.817937
 40
2.29824
  1
ＬＥＤ
 50
2.504478E-006
 41
0.796429
  7
STANDARD
100
AcDbText
  0
TEXT
  5
47A
100
AcDbEntity
  8
M0
 62
     4
100
AcDbText
 10
205.819123
 20
140.817937
 40
2.29824
  1
ＬＥＤ
 50
2.504478E-006
 41
0.796429
  7
STANDARD
100
AcDbText
  0
TEXT
  5
47B
100
AcDbEntity
  8
M0
 62
     4
100
AcDbText
 10
205.818305
 20
140.817937
 40
2.29824
  1
ＬＥＤ
 50
2.504478E-006
 41
0.796429
  7
STANDARD
100
AcDbText
  0
TEXT
  5
47C
100
AcDbEntity
  8
M0
 62
     4
100
AcDbText
 10
205.817475
 20
140.817937
 40
2.29824
  1
ＬＥＤ
 50
2.504478E-006
 41
0.796429
  7
STANDARD
100
AcDbText
  0
TEXT
  5
47D
100
AcDbEntity
  8
M0
 62
     4
100
AcDbText
 10
205.816644
 20
140.817937
 40
2.29824
  1
ＬＥＤ
 50
2.504478E-006
 41
0.796429
  7
STANDARD
100
AcDbText
  0
TEXT
  5
47E
100
AcDbEntity
  8
M0
 62
     4
100
AcDbText
 10
205.815827
 20
140.817937
 40
2.29824
  1
ＬＥＤ
 50
2.504478E-006
 41
0.796429
  7
STANDARD
100
AcDbText
  0
TEXT
  5
47F
100
AcDbEntity
  8
M0
 62
     4
100
AcDbText
 10
205.814996
 20
140.817937
 40
2.29824
  1
ＬＥＤ
 50
2.504478E-006
 41
0.796429
  7
STANDARD
100
AcDbText
  0
TEXT
  5
480
100
AcDbEntity
  8
M0
 62
     4
100
AcDbText
 10
205.814166
 20
140.817937
 40
2.29824
  1
ＬＥＤ
 50
2.504478E-006
 41
0.796429
  7
STANDARD
100
AcDbText
  0
TEXT
  5
481
100
AcDbEntity
  8
M0
 62
     4
100
AcDbText
 10
205.813348
 20
140.817937
 40
2.29824
  1
ＬＥＤ
 50
2.504478E-006
 41
0.796429
  7
STANDARD
100
AcDbText
  0
TEXT
  5
482
100
AcDbEntity
  8
M0
 62
     4
100
AcDbText
 10
205.812518
 20
140.817937
 40
2.29824
  1
ＬＥＤ
 50
2.504478E-006
 41
0.796429
  7
STANDARD
100
AcDbText
  0
TEXT
  5
483
100
AcDbEntity
  8
M0
 62
     4
100
AcDbText
 10
205.811687
 20
140.817937
 40
2.29824
  1
ＬＥＤ
 50
2.504478E-006
 41
0.796429
  7
STANDARD
100
AcDbText
  0
TEXT
  5
484
100
AcDbEntity
  8
M0
 62
     4
100
AcDbText
 10
205.810857
 20
140.817937
 40
2.29824
  1
ＬＥＤ
 50
2.504478E-006
 41
0.796429
  7
STANDARD
100
AcDbText
  0
TEXT
  5
485
100
AcDbEntity
  8
M0
 62
     4
100
AcDbText
 10
205.810039
 20
140.817937
 40
2.29824
  1
ＬＥＤ
 50
2.504478E-006
 41
0.796429
  7
STANDARD
100
AcDbText
  0
TEXT
  5
486
100
AcDbEntity
  8
M0
 62
     4
100
AcDbText
 10
205.809209
 20
140.817937
 40
2.29824
  1
ＬＥＤ
 50
2.504478E-006
 41
0.796429
  7
STANDARD
100
AcDbText
  0
TEXT
  5
487
100
AcDbEntity
  8
M0
 62
     4
100
AcDbText
 10
205.841443
 20
140.817121
 40
2.29824
  1
ＬＥＤ
 50
2.504478E-006
 41
0.796429
  7
STANDARD
100
AcDbText
  0
TEXT
  5
488
100
AcDbEntity
  8
M0
 62
     4
100
AcDbText
 10
205.840625
 20
140.817121
 40
2.29824
  1
ＬＥＤ
 50
2.504478E-006
 41
0.796429
  7
STANDARD
100
AcDbText
  0
TEXT
  5
489
100
AcDbEntity
  8
M0
 62
     4
100
AcDbText
 10
205.839795
 20
140.817121
 40
2.29824
  1
ＬＥＤ
 50
2.504478E-006
 41
0.796429
  7
STANDARD
100
AcDbText
  0
TEXT
  5
48A
100
AcDbEntity
  8
M0
 62
     4
100
AcDbText
 10
205.838964
 20
140.817121
 40
2.29824
  1
ＬＥＤ
 50
2.504478E-006
 41
0.796429
  7
STANDARD
100
AcDbText
  0
TEXT
  5
48B
100
AcDbEntity
  8
M0
 62
     4
100
AcDbText
 10
205.838147
 20
140.817121
 40
2.29824
  1
ＬＥＤ
 50
2.504478E-006
 41
0.796429
  7
STANDARD
100
AcDbText
  0
TEXT
  5
48C
100
AcDbEntity
  8
M0
 62
     4
100
AcDbText
 10
205.837316
 20
140.817121
 40
2.29824
  1
ＬＥＤ
 50
2.504478E-006
 41
0.796429
  7
STANDARD
100
AcDbText
  0
TEXT
  5
48D
100
AcDbEntity
  8
M0
 62
     4
100
AcDbText
 10
205.836486
 20
140.817121
 40
2.29824
  1
ＬＥＤ
 50
2.504478E-006
 41
0.796429
  7
STANDARD
100
AcDbText
  0
TEXT
  5
48E
100
AcDbEntity
  8
M0
 62
     4
100
AcDbText
 10
205.835655
 20
140.817121
 40
2.29824
  1
ＬＥＤ
 50
2.504478E-006
 41
0.796429
  7
STANDARD
100
AcDbText
  0
TEXT
  5
48F
100
AcDbEntity
  8
M0
 62
     4
100
AcDbText
 10
205.834838
 20
140.817121
 40
2.29824
  1
ＬＥＤ
 50
2.504478E-006
 41
0.796429
  7
STANDARD
100
AcDbText
  0
TEXT
  5
490
100
AcDbEntity
  8
M0
 62
     4
100
AcDbText
 10
205.834007
 20
140.817121
 40
2.29824
  1
ＬＥＤ
 50
2.504478E-006
 41
0.796429
  7
STANDARD
100
AcDbText
  0
TEXT
  5
491
100
AcDbEntity
  8
M0
 62
     4
100
AcDbText
 10
205.833177
 20
140.817121
 40
2.29824
  1
ＬＥＤ
 50
2.504478E-006
 41
0.796429
  7
STANDARD
100
AcDbText
  0
TEXT
  5
492
100
AcDbEntity
  8
M0
 62
     4
100
AcDbText
 10
205.832359
 20
140.817121
 40
2.29824
  1
ＬＥＤ
 50
2.504478E-006
 41
0.796429
  7
STANDARD
100
AcDbText
  0
TEXT
  5
493
100
AcDbEntity
  8
M0
 62
     4
100
AcDbText
 10
205.831529
 20
140.817121
 40
2.29824
  1
ＬＥＤ
 50
2.504478E-006
 41
0.796429
  7
STANDARD
100
AcDbText
  0
TEXT
  5
494
100
AcDbEntity
  8
M0
 62
     4
100
AcDbText
 10
205.830698
 20
140.817121
 40
2.29824
  1
ＬＥＤ
 50
2.504478E-006
 41
0.796429
  7
STANDARD
100
AcDbText
  0
TEXT
  5
495
100
AcDbEntity
  8
M0
 62
     4
100
AcDbText
 10
205.829881
 20
140.817121
 40
2.29824
  1
ＬＥＤ
 50
2.504478E-006
 41
0.796429
  7
STANDARD
100
AcDbText
  0
TEXT
  5
496
100
AcDbEntity
  8
M0
 62
     4
100
AcDbText
 10
205.82905
 20
140.817121
 40
2.29824
  1
ＬＥＤ
 50
2.504478E-006
 41
0.796429
  7
STANDARD
100
AcDbText
  0
TEXT
  5
497
100
AcDbEntity
  8
M0
 62
     4
100
AcDbText
 10
205.828219
 20
140.817121
 40
2.29824
  1
ＬＥＤ
 50
2.504478E-006
 41
0.796429
  7
STANDARD
100
AcDbText
  0
TEXT
  5
498
100
AcDbEntity
  8
M0
 62
     4
100
AcDbText
 10
205.827389
 20
140.817121
 40
2.29824
  1
ＬＥＤ
 50
2.504478E-006
 41
0.796429
  7
STANDARD
100
AcDbText
  0
TEXT
  5
499
100
AcDbEntity
  8
M0
 62
     4
100
AcDbText
 10
205.826571
 20
140.817121
 40
2.29824
  1
ＬＥＤ
 50
2.504478E-006
 41
0.796429
  7
STANDARD
100
AcDbText
  0
TEXT
  5
49A
100
AcDbEntity
  8
M0
 62
     4
100
AcDbText
 10
205.825741
 20
140.817121
 40
2.29824
  1
ＬＥＤ
 50
2.504478E-006
 41
0.796429
  7
STANDARD
100
AcDbText
  0
TEXT
  5
49B
100
AcDbEntity
  8
M0
 62
     4
100
AcDbText
 10
205.824911
 20
140.817121
 40
2.29824
  1
ＬＥＤ
 50
2.504478E-006
 41
0.796429
  7
STANDARD
100
AcDbText
  0
TEXT
  5
49C
100
AcDbEntity
  8
M0
 62
     4
100
AcDbText
 10
205.824093
 20
140.817121
 40
2.29824
  1
ＬＥＤ
 50
2.504478E-006
 41
0.796429
  7
STANDARD
100
AcDbText
  0
TEXT
  5
49D
100
AcDbEntity
  8
M0
 62
     4
100
AcDbText
 10
205.823263
 20
140.817121
 40
2.29824
  1
ＬＥＤ
 50
2.504478E-006
 41
0.796429
  7
STANDARD
100
AcDbText
  0
TEXT
  5
49E
100
AcDbEntity
  8
M0
 62
     4
100
AcDbText
 10
205.822432
 20
140.817121
 40
2.29824
  1
ＬＥＤ
 50
2.504478E-006
 41
0.796429
  7
STANDARD
100
AcDbText
  0
TEXT
  5
49F
100
AcDbEntity
  8
M0
 62
     4
100
AcDbText
 10
205.821615
 20
140.817121
 40
2.29824
  1
ＬＥＤ
 50
2.504478E-006
 41
0.796429
  7
STANDARD
100
AcDbText
  0
TEXT
  5
4A0
100
AcDbEntity
  8
M0
 62
     4
100
AcDbText
 10
205.820784
 20
140.817121
 40
2.29824
  1
ＬＥＤ
 50
2.504478E-006
 41
0.796429
  7
STANDARD
100
AcDbText
  0
TEXT
  5
4A1
100
AcDbEntity
  8
M0
 62
     4
100
AcDbText
 10
205.819953
 20
140.817121
 40
2.29824
  1
ＬＥＤ
 50
2.504478E-006
 41
0.796429
  7
STANDARD
100
AcDbText
  0
TEXT
  5
4A2
100
AcDbEntity
  8
M0
 62
     4
100
AcDbText
 10
205.819123
 20
140.817121
 40
2.29824
  1
ＬＥＤ
 50
2.504478E-006
 41
0.796429
  7
STANDARD
100
AcDbText
  0
TEXT
  5
4A3
100
AcDbEntity
  8
M0
 62
     4
100
AcDbText
 10
205.818305
 20
140.817121
 40
2.29824
  1
ＬＥＤ
 50
2.504478E-006
 41
0.796429
  7
STANDARD
100
AcDbText
  0
TEXT
  5
4A4
100
AcDbEntity
  8
M0
 62
     4
100
AcDbText
 10
205.817475
 20
140.81138
 40
2.29824
  1
ＬＥＤ
 50
2.504478E-006
 41
0.796429
  7
STANDARD
100
AcDbText
  0
TEXT
  5
4A5
100
AcDbEntity
  8
M0
 62
     4
100
AcDbText
 10
205.816644
 20
140.81138
 40
2.29824
  1
ＬＥＤ
 50
2.504478E-006
 41
0.796429
  7
STANDARD
100
AcDbText
  0
TEXT
  5
4A6
100
AcDbEntity
  8
M0
 62
     4
100
AcDbText
 10
205.815827
 20
140.81138
 40
2.29824
  1
ＬＥＤ
 50
2.504478E-006
 41
0.796429
  7
STANDARD
100
AcDbText
  0
TEXT
  5
4A7
100
AcDbEntity
  8
M0
 62
     4
100
AcDbText
 10
205.814996
 20
140.81138
 40
2.29824
  1
ＬＥＤ
 50
2.504478E-006
 41
0.796429
  7
STANDARD
100
AcDbText
  0
TEXT
  5
4A8
100
AcDbEntity
  8
M0
 62
     4
100
AcDbText
 10
205.814166
 20
140.81138
 40
2.29824
  1
ＬＥＤ
 50
2.504478E-006
 41
0.796429
  7
STANDARD
100
AcDbText
  0
TEXT
  5
4A9
100
AcDbEntity
  8
M0
 62
     4
100
AcDbText
 10
205.813348
 20
140.81138
 40
2.29824
  1
ＬＥＤ
 50
2.504478E-006
 41
0.796429
  7
STANDARD
100
AcDbText
  0
TEXT
  5
4AA
100
AcDbEntity
  8
M0
 62
     4
100
AcDbText
 10
205.812518
 20
140.81138
 40
2.29824
  1
ＬＥＤ
 50
2.504478E-006
 41
0.796429
  7
STANDARD
100
AcDbText
  0
TEXT
  5
4AB
100
AcDbEntity
  8
M0
 62
     4
100
AcDbText
 10
205.811687
 20
140.81138
 40
2.29824
  1
ＬＥＤ
 50
2.504478E-006
 41
0.796429
  7
STANDARD
100
AcDbText
  0
TEXT
  5
4AC
100
AcDbEntity
  8
M0
 62
     4
100
AcDbText
 10
205.810857
 20
140.81138
 40
2.29824
  1
ＬＥＤ
 50
2.504478E-006
 41
0.796429
  7
STANDARD
100
AcDbText
  0
TEXT
  5
4AD
100
AcDbEntity
  8
M0
 62
     4
100
AcDbText
 10
205.810039
 20
140.81138
 40
2.29824
  1
ＬＥＤ
 50
2.504478E-006
 41
0.796429
  7
STANDARD
100
AcDbText
  0
TEXT
  5
4AE
100
AcDbEntity
  8
M0
 62
     4
100
AcDbText
 10
205.809209
 20
140.81138
 40
2.29824
  1
ＬＥＤ
 50
2.504478E-006
 41
0.796429
  7
STANDARD
100
AcDbText
  0
TEXT
  5
4AF
100
AcDbEntity
  8
M0
 62
     4
100
AcDbText
 10
205.841443
 20
140.810556
 40
2.29824
  1
ＬＥＤ
 50
2.504478E-006
 41
0.796429
  7
STANDARD
100
AcDbText
  0
TEXT
  5
4B0
100
AcDbEntity
  8
M0
 62
     4
100
AcDbText
 10
205.840625
 20
140.810556
 40
2.29824
  1
ＬＥＤ
 50
2.504478E-006
 41
0.796429
  7
STANDARD
100
AcDbText
  0
TEXT
  5
4B1
100
AcDbEntity
  8
M0
 62
     4
100
AcDbText
 10
205.839795
 20
140.810556
 40
2.29824
  1
ＬＥＤ
 50
2.504478E-006
 41
0.796429
  7
STANDARD
100
AcDbText
  0
TEXT
  5
4B2
100
AcDbEntity
  8
M0
 62
     4
100
AcDbText
 10
205.838964
 20
140.810556
 40
2.29824
  1
ＬＥＤ
 50
2.504478E-006
 41
0.796429
  7
STANDARD
100
AcDbText
  0
TEXT
  5
4B3
100
AcDbEntity
  8
M0
 62
     4
100
AcDbText
 10
205.838147
 20
140.810556
 40
2.29824
  1
ＬＥＤ
 50
2.504478E-006
 41
0.796429
  7
STANDARD
100
AcDbText
  0
TEXT
  5
4B4
100
AcDbEntity
  8
M0
 62
     4
100
AcDbText
 10
205.837316
 20
140.810556
 40
2.29824
  1
ＬＥＤ
 50
2.504478E-006
 41
0.796429
  7
STANDARD
100
AcDbText
  0
TEXT
  5
4B5
100
AcDbEntity
  8
M0
 62
     4
100
AcDbText
 10
205.836486
 20
140.810556
 40
2.29824
  1
ＬＥＤ
 50
2.504478E-006
 41
0.796429
  7
STANDARD
100
AcDbText
  0
TEXT
  5
4B6
100
AcDbEntity
  8
M0
 62
     4
100
AcDbText
 10
205.835655
 20
140.810556
 40
2.29824
  1
ＬＥＤ
 50
2.504478E-006
 41
0.796429
  7
STANDARD
100
AcDbText
  0
TEXT
  5
4B7
100
AcDbEntity
  8
M0
 62
     4
100
AcDbText
 10
205.834838
 20
140.810556
 40
2.29824
  1
ＬＥＤ
 50
2.504478E-006
 41
0.796429
  7
STANDARD
100
AcDbText
  0
TEXT
  5
4B8
100
AcDbEntity
  8
M0
 62
     4
100
AcDbText
 10
205.834007
 20
140.810556
 40
2.29824
  1
ＬＥＤ
 50
2.504478E-006
 41
0.796429
  7
STANDARD
100
AcDbText
  0
TEXT
  5
4B9
100
AcDbEntity
  8
M0
 62
     4
100
AcDbText
 10
205.833177
 20
140.810556
 40
2.29824
  1
ＬＥＤ
 50
2.504478E-006
 41
0.796429
  7
STANDARD
100
AcDbText
  0
TEXT
  5
4BA
100
AcDbEntity
  8
M0
 62
     4
100
AcDbText
 10
205.832359
 20
140.810556
 40
2.29824
  1
ＬＥＤ
 50
2.504478E-006
 41
0.796429
  7
STANDARD
100
AcDbText
  0
TEXT
  5
4BB
100
AcDbEntity
  8
M0
 62
     4
100
AcDbText
 10
205.831529
 20
140.810556
 40
2.29824
  1
ＬＥＤ
 50
2.504478E-006
 41
0.796429
  7
STANDARD
100
AcDbText
  0
TEXT
  5
4BC
100
AcDbEntity
  8
M0
 62
     4
100
AcDbText
 10
205.830698
 20
140.810556
 40
2.29824
  1
ＬＥＤ
 50
2.504478E-006
 41
0.796429
  7
STANDARD
100
AcDbText
  0
TEXT
  5
4BD
100
AcDbEntity
  8
M0
 62
     4
100
AcDbText
 10
205.829881
 20
140.810556
 40
2.29824
  1
ＬＥＤ
 50
2.504478E-006
 41
0.796429
  7
STANDARD
100
AcDbText
  0
TEXT
  5
4BE
100
AcDbEntity
  8
M0
 62
     4
100
AcDbText
 10
205.82905
 20
140.810556
 40
2.29824
  1
ＬＥＤ
 50
2.504478E-006
 41
0.796429
  7
STANDARD
100
AcDbText
  0
TEXT
  5
4BF
100
AcDbEntity
  8
M0
 62
     4
100
AcDbText
 10
205.828219
 20
140.810556
 40
2.29824
  1
ＬＥＤ
 50
2.504478E-006
 41
0.796429
  7
STANDARD
100
AcDbText
  0
TEXT
  5
4C0
100
AcDbEntity
  8
M0
 62
     4
100
AcDbText
 10
205.827389
 20
140.810556
 40
2.29824
  1
ＬＥＤ
 50
2.504478E-006
 41
0.796429
  7
STANDARD
100
AcDbText
  0
TEXT
  5
4C1
100
AcDbEntity
  8
M0
 62
     4
100
AcDbText
 10
205.826571
 20
140.810556
 40
2.29824
  1
ＬＥＤ
 50
2.504478E-006
 41
0.796429
  7
STANDARD
100
AcDbText
  0
TEXT
  5
4C2
100
AcDbEntity
  8
M0
 62
     4
100
AcDbText
 10
205.825741
 20
140.810556
 40
2.29824
  1
ＬＥＤ
 50
2.504478E-006
 41
0.796429
  7
STANDARD
100
AcDbText
  0
TEXT
  5
4C3
100
AcDbEntity
  8
M0
 62
     4
100
AcDbText
 10
205.824911
 20
140.810556
 40
2.29824
  1
ＬＥＤ
 50
2.504478E-006
 41
0.796429
  7
STANDARD
100
AcDbText
  0
TEXT
  5
4C4
100
AcDbEntity
  8
M0
 62
     4
100
AcDbText
 10
205.824093
 20
140.810556
 40
2.29824
  1
ＬＥＤ
 50
2.504478E-006
 41
0.796429
  7
STANDARD
100
AcDbText
  0
TEXT
  5
4C5
100
AcDbEntity
  8
M0
 62
     4
100
AcDbText
 10
205.823263
 20
140.810556
 40
2.29824
  1
ＬＥＤ
 50
2.504478E-006
 41
0.796429
  7
STANDARD
100
AcDbText
  0
TEXT
  5
4C6
100
AcDbEntity
  8
M0
 62
     4
100
AcDbText
 10
205.822432
 20
140.810556
 40
2.29824
  1
ＬＥＤ
 50
2.504478E-006
 41
0.796429
  7
STANDARD
100
AcDbText
  0
TEXT
  5
4C7
100
AcDbEntity
  8
M0
 62
     4
100
AcDbText
 10
205.821615
 20
140.810556
 40
2.29824
  1
ＬＥＤ
 50
2.504478E-006
 41
0.796429
  7
STANDARD
100
AcDbText
  0
TEXT
  5
4C8
100
AcDbEntity
  8
M0
 62
     4
100
AcDbText
 10
205.820784
 20
140.810556
 40
2.29824
  1
ＬＥＤ
 50
2.504478E-006
 41
0.796429
  7
STANDARD
100
AcDbText
  0
TEXT
  5
4C9
100
AcDbEntity
  8
M0
 62
     4
100
AcDbText
 10
205.819953
 20
140.810556
 40
2.29824
  1
ＬＥＤ
 50
2.504478E-006
 41
0.796429
  7
STANDARD
100
AcDbText
  0
TEXT
  5
4CA
100
AcDbEntity
  8
M0
 62
     4
100
AcDbText
 10
205.819123
 20
140.810556
 40
2.29824
  1
ＬＥＤ
 50
2.504478E-006
 41
0.796429
  7
STANDARD
100
AcDbText
  0
TEXT
  5
4CB
100
AcDbEntity
  8
M0
 62
     4
100
AcDbText
 10
205.818305
 20
140.810556
 40
2.29824
  1
ＬＥＤ
 50
2.504478E-006
 41
0.796429
  7
STANDARD
100
AcDbText
  0
TEXT
  5
4CC
100
AcDbEntity
  8
M0
 62
     4
100
AcDbText
 10
205.817475
 20
140.810556
 40
2.29824
  1
ＬＥＤ
 50
2.504478E-006
 41
0.796429
  7
STANDARD
100
AcDbText
  0
TEXT
  5
4CD
100
AcDbEntity
  8
M0
 62
     4
100
AcDbText
 10
205.816644
 20
140.810556
 40
2.29824
  1
ＬＥＤ
 50
2.504478E-006
 41
0.796429
  7
STANDARD
100
AcDbText
  0
TEXT
  5
4CE
100
AcDbEntity
  8
M0
 62
     4
100
AcDbText
 10
205.815827
 20
140.810556
 40
2.29824
  1
ＬＥＤ
 50
2.504478E-006
 41
0.796429
  7
STANDARD
100
AcDbText
  0
TEXT
  5
4CF
100
AcDbEntity
  8
M0
 62
     4
100
AcDbText
 10
205.814996
 20
140.810556
 40
2.29824
  1
ＬＥＤ
 50
2.504478E-006
 41
0.796429
  7
STANDARD
100
AcDbText
  0
TEXT
  5
4D0
100
AcDbEntity
  8
M0
 62
     4
100
AcDbText
 10
205.814166
 20
140.810556
 40
2.29824
  1
ＬＥＤ
 50
2.504478E-006
 41
0.796429
  7
STANDARD
100
AcDbText
  0
TEXT
  5
4D1
100
AcDbEntity
  8
M0
 62
     4
100
AcDbText
 10
205.813348
 20
140.810556
 40
2.29824
  1
ＬＥＤ
 50
2.504478E-006
 41
0.796429
  7
STANDARD
100
AcDbText
  0
TEXT
  5
4D2
100
AcDbEntity
  8
M0
 62
     4
100
AcDbText
 10
205.812518
 20
140.810556
 40
2.29824
  1
ＬＥＤ
 50
2.504478E-006
 41
0.796429
  7
STANDARD
100
AcDbText
  0
TEXT
  5
4D3
100
AcDbEntity
  8
M0
 62
     4
100
AcDbText
 10
205.811687
 20
140.810556
 40
2.29824
  1
ＬＥＤ
 50
2.504478E-006
 41
0.796429
  7
STANDARD
100
AcDbText
  0
TEXT
  5
4D4
100
AcDbEntity
  8
M0
 62
     4
100
AcDbText
 10
205.810857
 20
140.810556
 40
2.29824
  1
ＬＥＤ
 50
2.504478E-006
 41
0.796429
  7
STANDARD
100
AcDbText
  0
TEXT
  5
4D5
100
AcDbEntity
  8
M0
 62
     4
100
AcDbText
 10
205.810039
 20
140.810556
 40
2.29824
  1
ＬＥＤ
 50
2.504478E-006
 41
0.796429
  7
STANDARD
100
AcDbText
  0
TEXT
  5
4D6
100
AcDbEntity
  8
M0
 62
     4
100
AcDbText
 10
205.809209
 20
140.810556
 40
2.29824
  1
ＬＥＤ
 50
2.504478E-006
 41
0.796429
  7
STANDARD
100
AcDbText
  0
TEXT
  5
4D7
100
AcDbEntity
  8
M0
 62
     4
100
AcDbText
 10
205.841443
 20
140.809736
 40
2.29824
  1
ＬＥＤ
 50
2.504478E-006
 41
0.796429
  7
STANDARD
100
AcDbText
  0
TEXT
  5
4D8
100
AcDbEntity
  8
M0
 62
     4
100
AcDbText
 10
205.840625
 20
140.809736
 40
2.29824
  1
ＬＥＤ
 50
2.504478E-006
 41
0.796429
  7
STANDARD
100
AcDbText
  0
TEXT
  5
4D9
100
AcDbEntity
  8
M0
 62
     4
100
AcDbText
 10
205.839795
 20
140.809736
 40
2.29824
  1
ＬＥＤ
 50
2.504478E-006
 41
0.796429
  7
STANDARD
100
AcDbText
  0
TEXT
  5
4DA
100
AcDbEntity
  8
M0
 62
     4
100
AcDbText
 10
205.838964
 20
140.809736
 40
2.29824
  1
ＬＥＤ
 50
2.504478E-006
 41
0.796429
  7
STANDARD
100
AcDbText
  0
TEXT
  5
4DB
100
AcDbEntity
  8
M0
 62
     4
100
AcDbText
 10
205.838147
 20
140.809736
 40
2.29824
  1
ＬＥＤ
 50
2.504478E-006
 41
0.796429
  7
STANDARD
100
AcDbText
  0
LINE
  5
4DC
100
AcDbEntity
  8
M0
 62
     4
100
AcDbLine
 10
239.380402
 20
151.937088
 11
240.629833
 21
151.937088
  0
LINE
  5
4DD
100
AcDbEntity
  8
M0
 62
     4
100
AcDbLine
 10
249.239279
 20
151.937088
 11
250.48871
 21
151.937088
  0
LINE
  5
4DE
100
AcDbEntity
  8
M0
 62
     4
100
AcDbLine
 10
240.005117
 20
154.260489
 11
240.629833
 21
151.937088
  0
LINE
  5
4DF
100
AcDbEntity
  8
M0
 62
     4
100
AcDbLine
 10
240.005117
 20
154.260489
 11
239.380402
 21
151.937088
  0
LINE
  5
4E0
100
AcDbEntity
  8
M0
 62
     4
100
AcDbLine
 10
249.863995
 20
154.260489
 11
250.48871
 21
151.937088
  0
LINE
  5
4E1
100
AcDbEntity
  8
M0
 62
     4
100
AcDbLine
 10
249.863995
 20
154.260489
 11
249.239279
 21
151.937088
  0
LINE
  5
4E2
100
AcDbEntity
  8
M0
  6
DIVIDE
 62
     4
100
AcDbLine
 10
226.353628
 20
145.463029
 11
195.135666
 21
145.463029
  0
LINE
  5
4E3
100
AcDbEntity
  8
M0
  6
DIVIDE
 62
     4
100
AcDbLine
 10
195.135666
 20
145.463029
 11
195.135666
 21
118.674875
  0
LINE
  5
4E4
100
AcDbEntity
  8
M0
  6
DIVIDE
 62
     4
100
AcDbLine
 10
226.353628
 20
118.674875
 11
195.135666
 21
118.674875
  0
LINE
  5
4E5
100
AcDbEntity
  8
M0
  6
DIVIDE
 62
     4
100
AcDbLine
 10
226.353628
 20
118.674875
 11
226.353628
 21
145.463029
  0
LINE
  5
4E6
100
AcDbEntity
  8
M0
 62
     4
100
AcDbLine
 10
240.005117
 20
91.32623
 11
240.005117
 21
105.988416
  0
LINE
  5
4E7
100
AcDbEntity
  8
M0
 62
     4
100
AcDbLine
 10
249.863995
 20
91.32623
 11
249.863995
 21
105.988416
  0
LINE
  5
4E8
100
AcDbEntity
  8
M0
  6
DASHED
 62
     4
100
AcDbLine
 10
240.005117
 20
121.938682
 11
202.821268
 21
121.938682
  0
LINE
  5
4E9
100
AcDbEntity
  8
M0
  6
DASHED
 62
     4
100
AcDbLine
 10
240.005117
 20
129.282682
 11
240.005117
 21
154.260489
  0
LINE
  5
4EA
100
AcDbEntity
  8
M0
  6
DASHED
 62
     4
100
AcDbLine
 10
240.005117
 20
107.716416
 11
240.005117
 21
121.938682
  0
LINE
  5
4EB
100
AcDbEntity
  8
M0
  6
DASHED
 62
     4
100
AcDbLine
 10
249.863995
 20
107.716416
 11
249.863995
 21
151.937088
  0
LINE
  5
4EC
100
AcDbEntity
  8
M0
 62
     4
100
AcDbLine
 10
221.369127
 20
140.856734
 11
221.369127
 21
129.801082
  0
LINE
  5
4ED
100
AcDbEntity
  8
M0
 62
     4
100
AcDbLine
 10
202.821268
 20
129.801082
 11
202.821268
 21
140.856734
  0
LINE
  5
4EE
100
AcDbEntity
  8
M0
 62
     4
100
AcDbLine
 10
224.018821
 20
142.98182
 11
224.018821
 21
128.416908
  0
LINE
  5
4EF
100
AcDbEntity
  8
M0
 62
     4
100
AcDbLine
 10
223.154821
 20
143.84582
 11
201.035574
 21
143.84582
  0
LINE
  5
4F0
100
AcDbEntity
  8
M0
 62
     4
100
AcDbLine
 10
223.154821
 20
127.552908
 11
201.035574
 21
127.552908
  0
LINE
  5
4F1
100
AcDbEntity
  8
M0
 62
     4
100
AcDbLine
 10
200.171574
 20
128.416908
 11
200.171574
 21
142.98182
  0
LINE
  5
4F2
100
AcDbEntity
  8
M0
  6
DASHDOT
 62
     4
100
AcDbLine
 10
236.620726
 20
103.394452
 11
253.248386
 21
103.394452
  0
LINE
  5
4F3
100
AcDbEntity
  8
M0
  6
DASHDOT
 62
     4
100
AcDbLine
 10
236.620726
 20
110.310381
 11
253.248386
 21
110.310381
  0
LINE
  5
4F4
100
AcDbEntity
  8
M0
  6
DASHDOT
 62
     4
100
AcDbLine
 10
236.620726
 20
103.394452
 11
236.620726
 21
110.310381
  0
CIRCLE
  5
4F5
100
AcDbEntity
  8
M0
 62
     4
100
AcDbCircle
 10
202.821268
 20
129.282682
 40
0.5184
  0
CIRCLE
  5
4F6
100
AcDbEntity
  8
M0
 62
     4
100
AcDbCircle
 10
221.369127
 20
129.282682
 40
0.5184
  0
CIRCLE
  5
4F7
100
AcDbEntity
  8
M0
 62
     4
100
AcDbCircle
 10
221.369127
 20
141.375134
 40
0.5184
  0
CIRCLE
  5
4F8
100
AcDbEntity
  8
M0
 62
     4
100
AcDbCircle
 10
202.821268
 20
141.375134
 40
0.5184
  0
CIRCLE
  5
4F9
100
AcDbEntity
  8
M0
 62
     4
100
AcDbCircle
 10
240.005117
 20
106.852416
 40
0.864
  0
CIRCLE
  5
4FA
100
AcDbEntity
  8
M0
 62
     4
100
AcDbCircle
 10
249.863995
 20
106.852416
 40
0.864
  0
ARC
  5
4FB
100
AcDbEntity
  8
M0
 62
     4
100
AcDbCircle
 10
223.154821
 20
142.98182
 40
0.864
100
AcDbArc
 50
0.0
 51
90.0
  0
ARC
  5
4FC
100
AcDbEntity
  8
M0
 62
     4
100
AcDbCircle
 10
223.154821
 20
128.416908
 40
0.864
100
AcDbArc
 50
270.0
 51
360.0
  0
ARC
  5
4FD
100
AcDbEntity
  8
M0
 62
     4
100
AcDbCircle
 10
201.035574
 20
128.416908
 40
0.864
100
AcDbArc
 50
180.0
 51
270.0
  0
ARC
  5
4FE
100
AcDbEntity
  8
M0
 62
     4
100
AcDbCircle
 10
201.035574
 20
142.98182
 40
0.864
100
AcDbArc
 50
90.0
 51
180.0
  0
TEXT
  5
4FF
100
AcDbEntity
  8
M0
 62
     4
100
AcDbText
 10
205.830698
 20
140.806455
 40
2.29824
  1
ＬＥＤ
 50
2.504478E-006
 41
0.796429
  7
STANDARD
100
AcDbText
  0
TEXT
  5
500
100
AcDbEntity
  8
M0
 62
     4
100
AcDbText
 10
205.829881
 20
140.806455
 40
2.29824
  1
ＬＥＤ
 50
2.504478E-006
 41
0.796429
  7
STANDARD
100
AcDbText
  0
TEXT
  5
501
100
AcDbEntity
  8
M0
 62
     4
100
AcDbText
 10
205.82905
 20
140.806455
 40
2.29824
  1
ＬＥＤ
 50
2.504478E-006
 41
0.796429
  7
STANDARD
100
AcDbText
  0
TEXT
  5
502
100
AcDbEntity
  8
M0
 62
     4
100
AcDbText
 10
205.828219
 20
140.806455
 40
2.29824
  1
ＬＥＤ
 50
2.504478E-006
 41
0.796429
  7
STANDARD
100
AcDbText
  0
TEXT
  5
503
100
AcDbEntity
  8
M0
 62
     4
100
AcDbText
 10
205.827389
 20
140.806455
 40
2.29824
  1
ＬＥＤ
 50
2.504478E-006
 41
0.796429
  7
STANDARD
100
AcDbText
  0
TEXT
  5
504
100
AcDbEntity
  8
M0
 62
     4
100
AcDbText
 10
205.826571
 20
140.806455
 40
2.29824
  1
ＬＥＤ
 50
2.504478E-006
 41
0.796429
  7
STANDARD
100
AcDbText
  0
TEXT
  5
505
100
AcDbEntity
  8
M0
 62
     4
100
AcDbText
 10
205.825741
 20
140.806455
 40
2.29824
  1
ＬＥＤ
 50
2.504478E-006
 41
0.796429
  7
STANDARD
100
AcDbText
  0
TEXT
  5
506
100
AcDbEntity
  8
M0
 62
     4
100
AcDbText
 10
205.824911
 20
140.806455
 40
2.29824
  1
ＬＥＤ
 50
2.504478E-006
 41
0.796429
  7
STANDARD
100
AcDbText
  0
TEXT
  5
507
100
AcDbEntity
  8
M0
 62
     4
100
AcDbText
 10
205.824093
 20
140.806455
 40
2.29824
  1
ＬＥＤ
 50
2.504478E-006
 41
0.796429
  7
STANDARD
100
AcDbText
  0
TEXT
  5
508
100
AcDbEntity
  8
M0
 62
     4
100
AcDbText
 10
205.823263
 20
140.806455
 40
2.29824
  1
ＬＥＤ
 50
2.504478E-006
 41
0.796429
  7
STANDARD
100
AcDbText
  0
TEXT
  5
509
100
AcDbEntity
  8
M0
 62
     4
100
AcDbText
 10
205.822432
 20
140.806455
 40
2.29824
  1
ＬＥＤ
 50
2.504478E-006
 41
0.796429
  7
STANDARD
100
AcDbText
  0
TEXT
  5
50A
100
AcDbEntity
  8
M0
 62
     4
100
AcDbText
 10
205.821615
 20
140.806455
 40
2.29824
  1
ＬＥＤ
 50
2.504478E-006
 41
0.796429
  7
STANDARD
100
AcDbText
  0
TEXT
  5
50B
100
AcDbEntity
  8
M0
 62
     4
100
AcDbText
 10
205.820784
 20
140.806455
 40
2.29824
  1
ＬＥＤ
 50
2.504478E-006
 41
0.796429
  7
STANDARD
100
AcDbText
  0
TEXT
  5
50C
100
AcDbEntity
  8
M0
 62
     4
100
AcDbText
 10
205.819953
 20
140.806455
 40
2.29824
  1
ＬＥＤ
 50
2.504478E-006
 41
0.796429
  7
STANDARD
100
AcDbText
  0
TEXT
  5
50D
100
AcDbEntity
  8
M0
 62
     4
100
AcDbText
 10
205.819123
 20
140.806455
 40
2.29824
  1
ＬＥＤ
 50
2.504478E-006
 41
0.796429
  7
STANDARD
100
AcDbText
  0
TEXT
  5
50E
100
AcDbEntity
  8
M0
 62
     4
100
AcDbText
 10
205.818305
 20
140.806455
 40
2.29824
  1
ＬＥＤ
 50
2.504478E-006
 41
0.796429
  7
STANDARD
100
AcDbText
  0
TEXT
  5
50F
100
AcDbEntity
  8
M0
 62
     4
100
AcDbText
 10
205.817475
 20
140.806455
 40
2.29824
  1
ＬＥＤ
 50
2.504478E-006
 41
0.796429
  7
STANDARD
100
AcDbText
  0
TEXT
  5
510
100
AcDbEntity
  8
M0
 62
     4
100
AcDbText
 10
205.816644
 20
140.806455
 40
2.29824
  1
ＬＥＤ
 50
2.504478E-006
 41
0.796429
  7
STANDARD
100
AcDbText
  0
TEXT
  5
511
100
AcDbEntity
  8
M0
 62
     4
100
AcDbText
 10
205.815827
 20
140.806455
 40
2.29824
  1
ＬＥＤ
 50
2.504478E-006
 41
0.796429
  7
STANDARD
100
AcDbText
  0
TEXT
  5
512
100
AcDbEntity
  8
M0
 62
     4
100
AcDbText
 10
205.814996
 20
140.806455
 40
2.29824
  1
ＬＥＤ
 50
2.504478E-006
 41
0.796429
  7
STANDARD
100
AcDbText
  0
TEXT
  5
513
100
AcDbEntity
  8
M0
 62
     4
100
AcDbText
 10
205.814166
 20
140.806455
 40
2.29824
  1
ＬＥＤ
 50
2.504478E-006
 41
0.796429
  7
STANDARD
100
AcDbText
  0
TEXT
  5
514
100
AcDbEntity
  8
M0
 62
     4
100
AcDbText
 10
205.813348
 20
140.806455
 40
2.29824
  1
ＬＥＤ
 50
2.504478E-006
 41
0.796429
  7
STANDARD
100
AcDbText
  0
TEXT
  5
515
100
AcDbEntity
  8
M0
 62
     4
100
AcDbText
 10
205.812518
 20
140.806455
 40
2.29824
  1
ＬＥＤ
 50
2.504478E-006
 41
0.796429
  7
STANDARD
100
AcDbText
  0
TEXT
  5
516
100
AcDbEntity
  8
M0
 62
     4
100
AcDbText
 10
205.811687
 20
140.806455
 40
2.29824
  1
ＬＥＤ
 50
2.504478E-006
 41
0.796429
  7
STANDARD
100
AcDbText
  0
TEXT
  5
517
100
AcDbEntity
  8
M0
 62
     4
100
AcDbText
 10
205.810857
 20
140.806455
 40
2.29824
  1
ＬＥＤ
 50
2.504478E-006
 41
0.796429
  7
STANDARD
100
AcDbText
  0
TEXT
  5
518
100
AcDbEntity
  8
M0
 62
     4
100
AcDbText
 10
205.810039
 20
140.806455
 40
2.29824
  1
ＬＥＤ
 50
2.504478E-006
 41
0.796429
  7
STANDARD
100
AcDbText
  0
TEXT
  5
519
100
AcDbEntity
  8
M0
 62
     4
100
AcDbText
 10
205.809209
 20
140.806455
 40
2.29824
  1
ＬＥＤ
 50
2.504478E-006
 41
0.796429
  7
STANDARD
100
AcDbText
  0
TEXT
  5
51A
100
AcDbEntity
  8
M0
 62
     4
100
AcDbText
 10
205.817475
 20
140.822862
 40
2.29824
  1
ＬＥＤ
 50
2.504478E-006
 41
0.796429
  7
STANDARD
100
AcDbText
  0
TEXT
  5
51B
100
AcDbEntity
  8
M0
 62
     4
100
AcDbText
 10
205.816644
 20
140.822862
 40
2.29824
  1
ＬＥＤ
 50
2.504478E-006
 41
0.796429
  7
STANDARD
100
AcDbText
  0
TEXT
  5
51C
100
AcDbEntity
  8
M0
 62
     4
100
AcDbText
 10
205.815827
 20
140.822862
 40
2.29824
  1
ＬＥＤ
 50
2.504478E-006
 41
0.796429
  7
STANDARD
100
AcDbText
  0
TEXT
  5
51D
100
AcDbEntity
  8
M0
 62
     4
100
AcDbText
 10
205.814996
 20
140.822862
 40
2.29824
  1
ＬＥＤ
 50
2.504478E-006
 41
0.796429
  7
STANDARD
100
AcDbText
  0
TEXT
  5
51E
100
AcDbEntity
  8
M0
 62
     4
100
AcDbText
 10
205.814166
 20
140.822862
 40
2.29824
  1
ＬＥＤ
 50
2.504478E-006
 41
0.796429
  7
STANDARD
100
AcDbText
  0
TEXT
  5
51F
100
AcDbEntity
  8
M0
 62
     4
100
AcDbText
 10
205.813348
 20
140.822862
 40
2.29824
  1
ＬＥＤ
 50
2.504478E-006
 41
0.796429
  7
STANDARD
100
AcDbText
  0
TEXT
  5
520
100
AcDbEntity
  8
M0
 62
     4
100
AcDbText
 10
205.812518
 20
140.822862
 40
2.29824
  1
ＬＥＤ
 50
2.504478E-006
 41
0.796429
  7
STANDARD
100
AcDbText
  0
TEXT
  5
521
100
AcDbEntity
  8
M0
 62
     4
100
AcDbText
 10
205.811687
 20
140.822862
 40
2.29824
  1
ＬＥＤ
 50
2.504478E-006
 41
0.796429
  7
STANDARD
100
AcDbText
  0
TEXT
  5
522
100
AcDbEntity
  8
M0
 62
     4
100
AcDbText
 10
205.810857
 20
140.822862
 40
2.29824
  1
ＬＥＤ
 50
2.504478E-006
 41
0.796429
  7
STANDARD
100
AcDbText
  0
TEXT
  5
523
100
AcDbEntity
  8
M0
 62
     4
100
AcDbText
 10
205.810039
 20
140.822862
 40
2.29824
  1
ＬＥＤ
 50
2.504478E-006
 41
0.796429
  7
STANDARD
100
AcDbText
  0
TEXT
  5
524
100
AcDbEntity
  8
M0
 62
     4
100
AcDbText
 10
205.809209
 20
140.822862
 40
2.29824
  1
ＬＥＤ
 50
2.504478E-006
 41
0.796429
  7
STANDARD
100
AcDbText
  0
TEXT
  5
525
100
AcDbEntity
  8
M0
 62
     4
100
AcDbText
 10
205.841443
 20
140.822038
 40
2.29824
  1
ＬＥＤ
 50
2.504478E-006
 41
0.796429
  7
STANDARD
100
AcDbText
  0
TEXT
  5
526
100
AcDbEntity
  8
M0
 62
     4
100
AcDbText
 10
205.840625
 20
140.822038
 40
2.29824
  1
ＬＥＤ
 50
2.504478E-006
 41
0.796429
  7
STANDARD
100
AcDbText
  0
TEXT
  5
527
100
AcDbEntity
  8
M0
 62
     4
100
AcDbText
 10
205.839795
 20
140.822038
 40
2.29824
  1
ＬＥＤ
 50
2.504478E-006
 41
0.796429
  7
STANDARD
100
AcDbText
  0
TEXT
  5
528
100
AcDbEntity
  8
M0
 62
     4
100
AcDbText
 10
205.838964
 20
140.822038
 40
2.29824
  1
ＬＥＤ
 50
2.504478E-006
 41
0.796429
  7
STANDARD
100
AcDbText
  0
TEXT
  5
529
100
AcDbEntity
  8
M0
 62
     4
100
AcDbText
 10
205.838147
 20
140.822038
 40
2.29824
  1
ＬＥＤ
 50
2.504478E-006
 41
0.796429
  7
STANDARD
100
AcDbText
  0
TEXT
  5
52A
100
AcDbEntity
  8
M0
 62
     4
100
AcDbText
 10
205.837316
 20
140.822038
 40
2.29824
  1
ＬＥＤ
 50
2.504478E-006
 41
0.796429
  7
STANDARD
100
AcDbText
  0
TEXT
  5
52B
100
AcDbEntity
  8
M0
 62
     4
100
AcDbText
 10
205.836486
 20
140.822038
 40
2.29824
  1
ＬＥＤ
 50
2.504478E-006
 41
0.796429
  7
STANDARD
100
AcDbText
  0
TEXT
  5
52C
100
AcDbEntity
  8
M0
 62
     4
100
AcDbText
 10
205.835655
 20
140.822038
 40
2.29824
  1
ＬＥＤ
 50
2.504478E-006
 41
0.796429
  7
STANDARD
100
AcDbText
  0
TEXT
  5
52D
100
AcDbEntity
  8
M0
 62
     4
100
AcDbText
 10
205.834838
 20
140.822038
 40
2.29824
  1
ＬＥＤ
 50
2.504478E-006
 41
0.796429
  7
STANDARD
100
AcDbText
  0
TEXT
  5
52E
100
AcDbEntity
  8
M0
 62
     4
100
AcDbText
 10
205.834007
 20
140.822038
 40
2.29824
  1
ＬＥＤ
 50
2.504478E-006
 41
0.796429
  7
STANDARD
100
AcDbText
  0
TEXT
  5
52F
100
AcDbEntity
  8
M0
 62
     4
100
AcDbText
 10
205.833177
 20
140.822038
 40
2.29824
  1
ＬＥＤ
 50
2.504478E-006
 41
0.796429
  7
STANDARD
100
AcDbText
  0
TEXT
  5
530
100
AcDbEntity
  8
M0
 62
     4
100
AcDbText
 10
205.832359
 20
140.822038
 40
2.29824
  1
ＬＥＤ
 50
2.504478E-006
 41
0.796429
  7
STANDARD
100
AcDbText
  0
TEXT
  5
531
100
AcDbEntity
  8
M0
 62
     4
100
AcDbText
 10
205.831529
 20
140.822038
 40
2.29824
  1
ＬＥＤ
 50
2.504478E-006
 41
0.796429
  7
STANDARD
100
AcDbText
  0
TEXT
  5
532
100
AcDbEntity
  8
M0
 62
     4
100
AcDbText
 10
205.830698
 20
140.822038
 40
2.29824
  1
ＬＥＤ
 50
2.504478E-006
 41
0.796429
  7
STANDARD
100
AcDbText
  0
TEXT
  5
533
100
AcDbEntity
  8
M0
 62
     4
100
AcDbText
 10
205.829881
 20
140.822038
 40
2.29824
  1
ＬＥＤ
 50
2.504478E-006
 41
0.796429
  7
STANDARD
100
AcDbText
  0
TEXT
  5
534
100
AcDbEntity
  8
M0
 62
     4
100
AcDbText
 10
205.82905
 20
140.822038
 40
2.29824
  1
ＬＥＤ
 50
2.504478E-006
 41
0.796429
  7
STANDARD
100
AcDbText
  0
TEXT
  5
535
100
AcDbEntity
  8
M0
 62
     4
100
AcDbText
 10
205.828219
 20
140.822038
 40
2.29824
  1
ＬＥＤ
 50
2.504478E-006
 41
0.796429
  7
STANDARD
100
AcDbText
  0
TEXT
  5
536
100
AcDbEntity
  8
M0
 62
     4
100
AcDbText
 10
205.827389
 20
140.822038
 40
2.29824
  1
ＬＥＤ
 50
2.504478E-006
 41
0.796429
  7
STANDARD
100
AcDbText
  0
TEXT
  5
537
100
AcDbEntity
  8
M0
 62
     4
100
AcDbText
 10
205.826571
 20
140.822038
 40
2.29824
  1
ＬＥＤ
 50
2.504478E-006
 41
0.796429
  7
STANDARD
100
AcDbText
  0
TEXT
  5
538
100
AcDbEntity
  8
M0
 62
     4
100
AcDbText
 10
205.825741
 20
140.822038
 40
2.29824
  1
ＬＥＤ
 50
2.504478E-006
 41
0.796429
  7
STANDARD
100
AcDbText
  0
TEXT
  5
539
100
AcDbEntity
  8
M0
 62
     4
100
AcDbText
 10
205.824911
 20
140.822038
 40
2.29824
  1
ＬＥＤ
 50
2.504478E-006
 41
0.796429
  7
STANDARD
100
AcDbText
  0
TEXT
  5
53A
100
AcDbEntity
  8
M0
 62
     4
100
AcDbText
 10
205.824093
 20
140.822038
 40
2.29824
  1
ＬＥＤ
 50
2.504478E-006
 41
0.796429
  7
STANDARD
100
AcDbText
  0
TEXT
  5
53B
100
AcDbEntity
  8
M0
 62
     4
100
AcDbText
 10
205.823263
 20
140.822038
 40
2.29824
  1
ＬＥＤ
 50
2.504478E-006
 41
0.796429
  7
STANDARD
100
AcDbText
  0
TEXT
  5
53C
100
AcDbEntity
  8
M0
 62
     4
100
AcDbText
 10
205.822432
 20
140.822038
 40
2.29824
  1
ＬＥＤ
 50
2.504478E-006
 41
0.796429
  7
STANDARD
100
AcDbText
  0
TEXT
  5
53D
100
AcDbEntity
  8
M0
 62
     4
100
AcDbText
 10
205.821615
 20
140.822038
 40
2.29824
  1
ＬＥＤ
 50
2.504478E-006
 41
0.796429
  7
STANDARD
100
AcDbText
  0
TEXT
  5
53E
100
AcDbEntity
  8
M0
 62
     4
100
AcDbText
 10
205.820784
 20
140.822038
 40
2.29824
  1
ＬＥＤ
 50
2.504478E-006
 41
0.796429
  7
STANDARD
100
AcDbText
  0
TEXT
  5
53F
100
AcDbEntity
  8
M0
 62
     4
100
AcDbText
 10
205.819953
 20
140.822038
 40
2.29824
  1
ＬＥＤ
 50
2.504478E-006
 41
0.796429
  7
STANDARD
100
AcDbText
  0
TEXT
  5
540
100
AcDbEntity
  8
M0
 62
     4
100
AcDbText
 10
205.819123
 20
140.822038
 40
2.29824
  1
ＬＥＤ
 50
2.504478E-006
 41
0.796429
  7
STANDARD
100
AcDbText
  0
TEXT
  5
541
100
AcDbEntity
  8
M0
 62
     4
100
AcDbText
 10
205.818305
 20
140.822038
 40
2.29824
  1
ＬＥＤ
 50
2.504478E-006
 41
0.796429
  7
STANDARD
100
AcDbText
  0
TEXT
  5
542
100
AcDbEntity
  8
M0
 62
     4
100
AcDbText
 10
205.817475
 20
140.822038
 40
2.29824
  1
ＬＥＤ
 50
2.504478E-006
 41
0.796429
  7
STANDARD
100
AcDbText
  0
TEXT
  5
543
100
AcDbEntity
  8
M0
 62
     4
100
AcDbText
 10
205.816644
 20
140.822038
 40
2.29824
  1
ＬＥＤ
 50
2.504478E-006
 41
0.796429
  7
STANDARD
100
AcDbText
  0
TEXT
  5
544
100
AcDbEntity
  8
M0
 62
     4
100
AcDbText
 10
205.815827
 20
140.822038
 40
2.29824
  1
ＬＥＤ
 50
2.504478E-006
 41
0.796429
  7
STANDARD
100
AcDbText
  0
TEXT
  5
545
100
AcDbEntity
  8
M0
 62
     4
100
AcDbText
 10
205.814996
 20
140.822038
 40
2.29824
  1
ＬＥＤ
 50
2.504478E-006
 41
0.796429
  7
STANDARD
100
AcDbText
  0
TEXT
  5
546
100
AcDbEntity
  8
M0
 62
     4
100
AcDbText
 10
205.814166
 20
140.822038
 40
2.29824
  1
ＬＥＤ
 50
2.504478E-006
 41
0.796429
  7
STANDARD
100
AcDbText
  0
TEXT
  5
547
100
AcDbEntity
  8
M0
 62
     4
100
AcDbText
 10
205.813348
 20
140.822038
 40
2.29824
  1
ＬＥＤ
 50
2.504478E-006
 41
0.796429
  7
STANDARD
100
AcDbText
  0
TEXT
  5
548
100
AcDbEntity
  8
M0
 62
     4
100
AcDbText
 10
205.812518
 20
140.822038
 40
2.29824
  1
ＬＥＤ
 50
2.504478E-006
 41
0.796429
  7
STANDARD
100
AcDbText
  0
TEXT
  5
549
100
AcDbEntity
  8
M0
 62
     4
100
AcDbText
 10
205.811687
 20
140.822038
 40
2.29824
  1
ＬＥＤ
 50
2.504478E-006
 41
0.796429
  7
STANDARD
100
AcDbText
  0
TEXT
  5
54A
100
AcDbEntity
  8
M0
 62
     4
100
AcDbText
 10
205.810857
 20
140.822038
 40
2.29824
  1
ＬＥＤ
 50
2.504478E-006
 41
0.796429
  7
STANDARD
100
AcDbText
  0
TEXT
  5
54B
100
AcDbEntity
  8
M0
 62
     4
100
AcDbText
 10
205.810039
 20
140.822038
 40
2.29824
  1
ＬＥＤ
 50
2.504478E-006
 41
0.796429
  7
STANDARD
100
AcDbText
  0
TEXT
  5
54C
100
AcDbEntity
  8
M0
 62
     4
100
AcDbText
 10
205.809209
 20
140.822038
 40
2.29824
  1
ＬＥＤ
 50
2.504478E-006
 41
0.796429
  7
STANDARD
100
AcDbText
  0
TEXT
  5
54D
100
AcDbEntity
  8
M0
 62
     4
100
AcDbText
 10
205.841443
 20
140.821222
 40
2.29824
  1
ＬＥＤ
 50
2.504478E-006
 41
0.796429
  7
STANDARD
100
AcDbText
  0
TEXT
  5
54E
100
AcDbEntity
  8
M0
 62
     4
100
AcDbText
 10
205.840625
 20
140.821222
 40
2.29824
  1
ＬＥＤ
 50
2.504478E-006
 41
0.796429
  7
STANDARD
100
AcDbText
  0
TEXT
  5
54F
100
AcDbEntity
  8
M0
 62
     4
100
AcDbText
 10
205.839795
 20
140.821222
 40
2.29824
  1
ＬＥＤ
 50
2.504478E-006
 41
0.796429
  7
STANDARD
100
AcDbText
  0
TEXT
  5
550
100
AcDbEntity
  8
M0
 62
     4
100
AcDbText
 10
205.838964
 20
140.821222
 40
2.29824
  1
ＬＥＤ
 50
2.504478E-006
 41
0.796429
  7
STANDARD
100
AcDbText
  0
TEXT
  5
551
100
AcDbEntity
  8
M0
 62
     4
100
AcDbText
 10
205.838147
 20
140.821222
 40
2.29824
  1
ＬＥＤ
 50
2.504478E-006
 41
0.796429
  7
STANDARD
100
AcDbText
  0
TEXT
  5
552
100
AcDbEntity
  8
M0
 62
     4
100
AcDbText
 10
241.0262
 20
86.347079
 40
3.5
  1
換気扇
 50
2.504478E-006
 41
0.689524
  7
STANDARD
100
AcDbText
  0
TEXT
  5
553
100
AcDbEntity
  8
M0
 62
     4
100
AcDbText
 10
228.054267
 20
105.25942
 40
3.5
  1
端子台
 50
2.504478E-006
 41
0.689524
  7
STANDARD
100
AcDbText
  0
TEXT
  5
554
100
AcDbEntity
  8
M0
 62
     4
100
AcDbText
 10
200.664001
 20
134.425622
 40
2.4192
  1
１
 50
2.504478E-006
 41
0.858135
  7
STANDARD
100
AcDbText
  0
TEXT
  5
555
100
AcDbEntity
  8
M0
 62
     4
100
AcDbText
 10
221.844651
 20
134.231656
 40
2.4192
  1
２
 50
2.504478E-006
 41
0.858135
  7
STANDARD
100
AcDbText
  0
TEXT
  5
556
100
AcDbEntity
  8
M0
 62
     4
100
AcDbText
 10
239.285597
 20
156.226739
 40
3.456
  1
電　　源
 50
2.504478E-006
 41
0.572917
  7
STANDARD
100
AcDbText
  0
TEXT
  5
557
100
AcDbEntity
  8
M0
100
AcDbText
 10
195.077794
 20
158.440025
 40
3.5
  1
■　結線図
 41
0.871905
  7
STANDARD
100
AcDbText
  0
TEXT
  5
558
100
AcDbEntity
  8
M0
100
AcDbText
 10
195.077794
 20
67.907586
 40
3.5
  1
■　付属品：２４時間ラベル（１枚）
 41
0.871905
  7
STANDARD
100
AcDbText
  0
TEXT
  5
559
100
AcDbEntity
  8
M0
100
AcDbText
 10
195.077794
 20
73.640565
 40
3.5
  1
■　定格：０．５Ａ
 41
0.871905
  7
STANDARD
100
AcDbText
  0
ENDSEC
  0
SECTION
  2
OBJECTS
  0
DICTIONARY
  5
C
100
AcDbDictionary
  3
ACAD_GROUP
350
D
  3
ACAD_MLINESTYLE
350
E
  0
DICTIONARY
  5
D
102
{ACAD_REACTORS
330
C
102
}
100
AcDbDictionary
  0
DICTIONARY
  5
E
102
{ACAD_REACTORS
330
C
102
}
100
AcDbDictionary
  3
STANDARD
350
13
  0
MLINESTYLE
  5
13
102
{ACAD_REACTORS
330
E
102
}
100
AcDbMlineStyle
  2
STANDARD
 70
     0
  3

 62
     0
 51
90.0
 52
90.0
 71
     2
 49
0.5
 62
   256
  6
BYLAYER
 49
-0.5
 62
   256
  6
BYLAYER
  0
ENDSEC
  0
EOF
