   0
SECTION
   2
HEADER
   9
$ACADVER
   1
AC1014
   9
$LIMMIN
  10
 998.00000000000
  20
-20.000000000000
   9
$LIMMAX
  10
 1418.0000000000
  20
 277.00000000000
   9
$EXTMIN
  10
 998.00000000000
  20
-20.000000000000
  30
0.0
   9
$EXTMAX
  10
 1418.0000000000
  20
 277.00000000000
  30
0.0
   9
$LTSCALE
  40
 8.4000000000000
   9
$HANDSEED
   5
295
   0
ENDSEC
   0
SECTION
   2
TABLES
  0
TABLE
  2
VPORT
  5
8
100
AcDbSymbolTable
 70
     1
  0
VPORT
  5
294
100
AcDbSymbolTableRecord
100
AcDbViewportTableRecord
  2
*ACTIVE
 70
     0
 10
0.0
 20
0.0
 11
1.0
 21
1.0
  12
 1208.0000000000
  22
 128.50000000000
 13
0.0
 23
0.0
 14
1.0
 24
1.0
 15
0.0
 25
0.0
 16
0.0
 26
0.0
 36
1.0
 17
0.0
 27
0.0
 37
0.0
  40
 420.00000000000
  41
 1.4787878787879
 42
50.0
 43
0.0
 44
0.0
 50
0.0
 51
0.0
 71
     0
 72
   100
 73
     1
 74
     1
 75
     0
 76
     0
 77
     0
 78
     0
  0
ENDTAB
  0
TABLE
  2
LTYPE
  5
5
100
AcDbSymbolTable
 70
    25
  0
LTYPE
  5
12
100
AcDbSymbolTableRecord
100
AcDbLinetypeTableRecord
  2
BYBLOCK
 70
     0
  3

 72
    65
 73
     0
 40
0.0
  0
LTYPE
  5
13
100
AcDbSymbolTableRecord
100
AcDbLinetypeTableRecord
  2
BYLAYER
 70
     0
  3

 72
    65
 73
     0
 40
0.0
  0
LTYPE
  5
14
100
AcDbSymbolTableRecord
100
AcDbLinetypeTableRecord
  2
CONTINUOUS
 70
     0
  3
Solid line
 72
    65
 73
     0
 40
0.0
  0
LTYPE
  5
20
100
AcDbSymbolTableRecord
100
AcDbLinetypeTableRecord
  2
BORDER
 70
     0
  3
__ __ . __ __ . __ __ . __ __ . __ __ . __ __ .
 72
    65
 73
     6
 40
1.75
 49
0.5
 74
     0
 49
-0.25
 74
     0
 49
0.5
 74
     0
 49
-0.25
 74
     0
 49
0.0
 74
     0
 49
-0.25
 74
     0
  0
LTYPE
  5
21
100
AcDbSymbolTableRecord
100
AcDbLinetypeTableRecord
  2
BORDER2
 70
     0
  3
__.__.__.__.__.__.__.__.__.__.__.__.__.__.__.__
 72
    65
 73
     6
 40
0.875
 49
0.25
 74
     0
 49
-0.125
 74
     0
 49
0.25
 74
     0
 49
-0.125
 74
     0
 49
0.0
 74
     0
 49
-0.125
 74
     0
  0
LTYPE
  5
22
100
AcDbSymbolTableRecord
100
AcDbLinetypeTableRecord
  2
BORDERX2
 70
     0
  3
____  ____  .  ____  ____  .  ____  ____  .  __
 72
    65
 73
     6
 40
3.5
 49
1.0
 74
     0
 49
-0.5
 74
     0
 49
1.0
 74
     0
 49
-0.5
 74
     0
 49
0.0
 74
     0
 49
-0.5
 74
     0
  0
LTYPE
  5
23
100
AcDbSymbolTableRecord
100
AcDbLinetypeTableRecord
  2
CENTER
 70
     0
  3
____ _ ____ _ ____ _ ____ _ ____ _ ____ _ ____ 
 72
    65
 73
     4
 40
2.0
 49
1.25
 74
     0
 49
-0.25
 74
     0
 49
0.25
 74
     0
 49
-0.25
 74
     0
  0
LTYPE
  5
24
100
AcDbSymbolTableRecord
100
AcDbLinetypeTableRecord
  2
CENTER2
 70
     0
  3
___ _ ___ _ ___ _ ___ _ ___ _ ___ _ ___ _ ___ _
 72
    65
 73
     4
 40
1.125
 49
0.75
 74
     0
 49
-0.125
 74
     0
 49
0.125
 74
     0
 49
-0.125
 74
     0
  0
LTYPE
  5
25
100
AcDbSymbolTableRecord
100
AcDbLinetypeTableRecord
  2
CENTERX2
 70
     0
  3
________  __  ________  __  ________  __  _____
 72
    65
 73
     4
 40
4.0
 49
2.5
 74
     0
 49
-0.5
 74
     0
 49
0.5
 74
     0
 49
-0.5
 74
     0
  0
LTYPE
  5
26
100
AcDbSymbolTableRecord
100
AcDbLinetypeTableRecord
  2
DASHDOT
 70
     0
  3
__ . __ . __ . __ . __ . __ . __ . __ . __ . __
 72
    65
 73
     4
 40
1.0
 49
0.5
 74
     0
 49
-0.25
 74
     0
 49
0.0
 74
     0
 49
-0.25
 74
     0
  0
LTYPE
  5
27
100
AcDbSymbolTableRecord
100
AcDbLinetypeTableRecord
  2
DASHDOT2
 70
     0
  3
_._._._._._._._._._._._._._._._._._._._._._._._
 72
    65
 73
     4
 40
0.5
 49
0.25
 74
     0
 49
-0.125
 74
     0
 49
0.0
 74
     0
 49
-0.125
 74
     0
  0
LTYPE
  5
28
100
AcDbSymbolTableRecord
100
AcDbLinetypeTableRecord
  2
DASHDOTX2
 70
     0
  3
____  .  ____  .  ____  .  ____  .  ____  .  __
 72
    65
 73
     4
 40
2.0
 49
1.0
 74
     0
 49
-0.5
 74
     0
 49
0.0
 74
     0
 49
-0.5
 74
     0
  0
LTYPE
  5
29
100
AcDbSymbolTableRecord
100
AcDbLinetypeTableRecord
  2
DASHED
 70
     0
  3
__ __ __ __ __ __ __ __ __ __ __ __ __ __ __ __
 72
    65
 73
     2
 40
0.75
 49
0.5
 74
     0
 49
-0.25
 74
     0
  0
LTYPE
  5
2A
100
AcDbSymbolTableRecord
100
AcDbLinetypeTableRecord
  2
DASHED2
 70
     0
  3
_ _ _ _ _ _ _ _ _ _ _ _ _ _ _ _ _ _ _ _ _ _ _ _
 72
    65
 73
     2
 40
0.375
 49
0.25
 74
     0
 49
-0.125
 74
     0
  0
LTYPE
  5
2B
100
AcDbSymbolTableRecord
100
AcDbLinetypeTableRecord
  2
DASHEDX2
 70
     0
  3
____  ____  ____  ____  ____  ____  ____  ____ 
 72
    65
 73
     2
 40
1.5
 49
1.0
 74
     0
 49
-0.5
 74
     0
  0
LTYPE
  5
2C
100
AcDbSymbolTableRecord
100
AcDbLinetypeTableRecord
  2
DIVIDE
 70
     0
  3
____ . . ____ . . ____ . . ____ . . ____ . . __
 72
    65
 73
     6
 40
1.25
 49
0.5
 74
     0
 49
-0.25
 74
     0
 49
0.0
 74
     0
 49
-0.25
 74
     0
 49
0.0
 74
     0
 49
-0.25
 74
     0
  0
LTYPE
  5
2D
100
AcDbSymbolTableRecord
100
AcDbLinetypeTableRecord
  2
DIVIDE2
 70
     0
  3
__..__..__..__..__..__..__..__..__..__..__..__.
 72
    65
 73
     6
 40
0.625
 49
0.25
 74
     0
 49
-0.125
 74
     0
 49
0.0
 74
     0
 49
-0.125
 74
     0
 49
0.0
 74
     0
 49
-0.125
 74
     0
  0
LTYPE
  5
2E
100
AcDbSymbolTableRecord
100
AcDbLinetypeTableRecord
  2
DIVIDEX2
 70
     0
  3
________  .  .  ________  .  .  ________  .  . 
 72
    65
 73
     6
 40
2.5
 49
1.0
 74
     0
 49
-0.5
 74
     0
 49
0.0
 74
     0
 49
-0.5
 74
     0
 49
0.0
 74
     0
 49
-0.5
 74
     0
  0
LTYPE
  5
2F
100
AcDbSymbolTableRecord
100
AcDbLinetypeTableRecord
  2
DOT
 70
     0
  3
. . . . . . . . . . . . . . . . . . . . . . . .
 72
    65
 73
     2
 40
0.25
 49
0.0
 74
     0
 49
-0.25
 74
     0
  0
LTYPE
  5
30
100
AcDbSymbolTableRecord
100
AcDbLinetypeTableRecord
  2
DOT2
 70
     0
  3
...............................................
 72
    65
 73
     2
 40
0.125
 49
0.0
 74
     0
 49
-0.125
 74
     0
  0
LTYPE
  5
31
100
AcDbSymbolTableRecord
100
AcDbLinetypeTableRecord
  2
DOTX2
 70
     0
  3
.  .  .  .  .  .  .  .  .  .  .  .  .  .  .  . 
 72
    65
 73
     2
 40
0.5
 49
0.0
 74
     0
 49
-0.5
 74
     0
  0
LTYPE
  5
32
100
AcDbSymbolTableRecord
100
AcDbLinetypeTableRecord
  2
HIDDEN
 70
     0
  3
__ __ __ __ __ __ __ __ __ __ __ __ __ __ __ __
 72
    65
 73
     2
 40
0.375
 49
0.25
 74
     0
 49
-0.125
 74
     0
  0
LTYPE
  5
33
100
AcDbSymbolTableRecord
100
AcDbLinetypeTableRecord
  2
HIDDEN2
 70
     0
  3
_ _ _ _ _ _ _ _ _ _ _ _ _ _ _ _ _ _ _ _ _ _ _ _
 72
    65
 73
     2
 40
0.1875
 49
0.125
 74
     0
 49
-0.0625
 74
     0
  0
LTYPE
  5
34
100
AcDbSymbolTableRecord
100
AcDbLinetypeTableRecord
  2
HIDDENX2
 70
     0
  3
____ ____ ____ ____ ____ ____ ____ ____ ____ __
 72
    65
 73
     2
 40
0.75
 49
0.5
 74
     0
 49
-0.25
 74
     0
  0
LTYPE
  5
35
100
AcDbSymbolTableRecord
100
AcDbLinetypeTableRecord
  2
PHANTOM
 70
     0
  3
______  __  __  ______  __  __  ______  __  __ 
 72
    65
 73
     6
 40
2.5
 49
1.25
 74
     0
 49
-0.25
 74
     0
 49
0.25
 74
     0
 49
-0.25
 74
     0
 49
0.25
 74
     0
 49
-0.25
 74
     0
  0
LTYPE
  5
36
100
AcDbSymbolTableRecord
100
AcDbLinetypeTableRecord
  2
PHANTOM2
 70
     0
  3
___ _ _ ___ _ _ ___ _ _ ___ _ _ ___ _ _ ___ _ _
 72
    65
 73
     6
 40
1.25
 49
0.625
 74
     0
 49
-0.125
 74
     0
 49
0.125
 74
     0
 49
-0.125
 74
     0
 49
0.125
 74
     0
 49
-0.125
 74
     0
  0
LTYPE
  5
37
100
AcDbSymbolTableRecord
100
AcDbLinetypeTableRecord
  2
PHANTOMX2
 70
     0
  3
____________    ____    ____    ____________   
 72
    65
 73
     6
 40
5.0
 49
2.5
 74
     0
 49
-0.5
 74
     0
 49
0.5
 74
     0
 49
-0.5
 74
     0
 49
0.5
 74
     0
 49
-0.5
 74
     0
  0
ENDTAB
   0
TABLE
   2
LAYER
   5
2
 100
AcDbSymbolTable
  70
255
   0
LAYER
   5
E
 100
AcDbSymbolTableRecord
 100
AcDbLayerTableRecord
   2
0
  70
0
  62
7
   6
CONTINUOUS
   0
LAYER
   5
39
 100
AcDbSymbolTableRecord
 100
AcDbLayerTableRecord
   2
1
  70
0
  62
7
   6
CONTINUOUS
   0
LAYER
   5
3A
 100
AcDbSymbolTableRecord
 100
AcDbLayerTableRecord
   2
2
  70
0
  62
7
   6
CONTINUOUS
   0
LAYER
   5
3B
 100
AcDbSymbolTableRecord
 100
AcDbLayerTableRecord
   2
3
  70
0
  62
7
   6
CONTINUOUS
   0
LAYER
   5
3C
 100
AcDbSymbolTableRecord
 100
AcDbLayerTableRecord
   2
4
  70
0
  62
7
   6
CONTINUOUS
   0
LAYER
   5
3D
 100
AcDbSymbolTableRecord
 100
AcDbLayerTableRecord
   2
5
  70
0
  62
7
   6
CONTINUOUS
   0
LAYER
   5
3E
 100
AcDbSymbolTableRecord
 100
AcDbLayerTableRecord
   2
6
  70
0
  62
7
   6
CONTINUOUS
   0
LAYER
   5
3F
 100
AcDbSymbolTableRecord
 100
AcDbLayerTableRecord
   2
7
  70
0
  62
7
   6
CONTINUOUS
   0
LAYER
   5
40
 100
AcDbSymbolTableRecord
 100
AcDbLayerTableRecord
   2
8
  70
0
  62
7
   6
CONTINUOUS
   0
LAYER
   5
41
 100
AcDbSymbolTableRecord
 100
AcDbLayerTableRecord
   2
9
  70
0
  62
7
   6
CONTINUOUS
   0
LAYER
   5
42
 100
AcDbSymbolTableRecord
 100
AcDbLayerTableRecord
   2
10
  70
0
  62
7
   6
CONTINUOUS
   0
LAYER
   5
43
 100
AcDbSymbolTableRecord
 100
AcDbLayerTableRecord
   2
11
  70
0
  62
7
   6
CONTINUOUS
   0
LAYER
   5
44
 100
AcDbSymbolTableRecord
 100
AcDbLayerTableRecord
   2
12
  70
0
  62
7
   6
CONTINUOUS
   0
LAYER
   5
45
 100
AcDbSymbolTableRecord
 100
AcDbLayerTableRecord
   2
13
  70
0
  62
7
   6
CONTINUOUS
   0
LAYER
   5
46
 100
AcDbSymbolTableRecord
 100
AcDbLayerTableRecord
   2
14
  70
0
  62
7
   6
CONTINUOUS
   0
LAYER
   5
47
 100
AcDbSymbolTableRecord
 100
AcDbLayerTableRecord
   2
15
  70
0
  62
7
   6
CONTINUOUS
   0
LAYER
   5
48
 100
AcDbSymbolTableRecord
 100
AcDbLayerTableRecord
   2
16
  70
0
  62
7
   6
CONTINUOUS
   0
LAYER
   5
49
 100
AcDbSymbolTableRecord
 100
AcDbLayerTableRecord
   2
17
  70
0
  62
7
   6
CONTINUOUS
   0
LAYER
   5
4A
 100
AcDbSymbolTableRecord
 100
AcDbLayerTableRecord
   2
18
  70
0
  62
7
   6
CONTINUOUS
   0
LAYER
   5
4B
 100
AcDbSymbolTableRecord
 100
AcDbLayerTableRecord
   2
19
  70
0
  62
7
   6
CONTINUOUS
   0
LAYER
   5
4C
 100
AcDbSymbolTableRecord
 100
AcDbLayerTableRecord
   2
20
  70
0
  62
7
   6
CONTINUOUS
   0
LAYER
   5
4D
 100
AcDbSymbolTableRecord
 100
AcDbLayerTableRecord
   2
21
  70
0
  62
7
   6
CONTINUOUS
   0
LAYER
   5
4E
 100
AcDbSymbolTableRecord
 100
AcDbLayerTableRecord
   2
22
  70
0
  62
7
   6
CONTINUOUS
   0
LAYER
   5
4F
 100
AcDbSymbolTableRecord
 100
AcDbLayerTableRecord
   2
23
  70
0
  62
7
   6
CONTINUOUS
   0
LAYER
   5
50
 100
AcDbSymbolTableRecord
 100
AcDbLayerTableRecord
   2
24
  70
0
  62
7
   6
CONTINUOUS
   0
LAYER
   5
51
 100
AcDbSymbolTableRecord
 100
AcDbLayerTableRecord
   2
25
  70
0
  62
7
   6
CONTINUOUS
   0
LAYER
   5
52
 100
AcDbSymbolTableRecord
 100
AcDbLayerTableRecord
   2
26
  70
0
  62
7
   6
CONTINUOUS
   0
LAYER
   5
53
 100
AcDbSymbolTableRecord
 100
AcDbLayerTableRecord
   2
27
  70
0
  62
7
   6
CONTINUOUS
   0
LAYER
   5
54
 100
AcDbSymbolTableRecord
 100
AcDbLayerTableRecord
   2
28
  70
0
  62
7
   6
CONTINUOUS
   0
LAYER
   5
55
 100
AcDbSymbolTableRecord
 100
AcDbLayerTableRecord
   2
29
  70
0
  62
7
   6
CONTINUOUS
   0
LAYER
   5
56
 100
AcDbSymbolTableRecord
 100
AcDbLayerTableRecord
   2
30
  70
0
  62
7
   6
CONTINUOUS
   0
LAYER
   5
57
 100
AcDbSymbolTableRecord
 100
AcDbLayerTableRecord
   2
31
  70
0
  62
7
   6
CONTINUOUS
   0
LAYER
   5
58
 100
AcDbSymbolTableRecord
 100
AcDbLayerTableRecord
   2
32
  70
0
  62
7
   6
CONTINUOUS
   0
LAYER
   5
59
 100
AcDbSymbolTableRecord
 100
AcDbLayerTableRecord
   2
33
  70
0
  62
7
   6
CONTINUOUS
   0
LAYER
   5
5A
 100
AcDbSymbolTableRecord
 100
AcDbLayerTableRecord
   2
34
  70
0
  62
7
   6
CONTINUOUS
   0
LAYER
   5
5B
 100
AcDbSymbolTableRecord
 100
AcDbLayerTableRecord
   2
35
  70
0
  62
7
   6
CONTINUOUS
   0
LAYER
   5
5C
 100
AcDbSymbolTableRecord
 100
AcDbLayerTableRecord
   2
36
  70
0
  62
7
   6
CONTINUOUS
   0
LAYER
   5
5D
 100
AcDbSymbolTableRecord
 100
AcDbLayerTableRecord
   2
37
  70
0
  62
7
   6
CONTINUOUS
   0
LAYER
   5
5E
 100
AcDbSymbolTableRecord
 100
AcDbLayerTableRecord
   2
38
  70
0
  62
7
   6
CONTINUOUS
   0
LAYER
   5
5F
 100
AcDbSymbolTableRecord
 100
AcDbLayerTableRecord
   2
39
  70
0
  62
7
   6
CONTINUOUS
   0
LAYER
   5
60
 100
AcDbSymbolTableRecord
 100
AcDbLayerTableRecord
   2
40
  70
0
  62
7
   6
CONTINUOUS
   0
LAYER
   5
61
 100
AcDbSymbolTableRecord
 100
AcDbLayerTableRecord
   2
41
  70
0
  62
7
   6
CONTINUOUS
   0
LAYER
   5
62
 100
AcDbSymbolTableRecord
 100
AcDbLayerTableRecord
   2
42
  70
0
  62
7
   6
CONTINUOUS
   0
LAYER
   5
63
 100
AcDbSymbolTableRecord
 100
AcDbLayerTableRecord
   2
43
  70
0
  62
7
   6
CONTINUOUS
   0
LAYER
   5
64
 100
AcDbSymbolTableRecord
 100
AcDbLayerTableRecord
   2
44
  70
0
  62
7
   6
CONTINUOUS
   0
LAYER
   5
65
 100
AcDbSymbolTableRecord
 100
AcDbLayerTableRecord
   2
45
  70
0
  62
7
   6
CONTINUOUS
   0
LAYER
   5
66
 100
AcDbSymbolTableRecord
 100
AcDbLayerTableRecord
   2
46
  70
0
  62
7
   6
CONTINUOUS
   0
LAYER
   5
67
 100
AcDbSymbolTableRecord
 100
AcDbLayerTableRecord
   2
47
  70
0
  62
7
   6
CONTINUOUS
   0
LAYER
   5
68
 100
AcDbSymbolTableRecord
 100
AcDbLayerTableRecord
   2
48
  70
0
  62
7
   6
CONTINUOUS
   0
LAYER
   5
69
 100
AcDbSymbolTableRecord
 100
AcDbLayerTableRecord
   2
49
  70
0
  62
7
   6
CONTINUOUS
   0
LAYER
   5
6A
 100
AcDbSymbolTableRecord
 100
AcDbLayerTableRecord
   2
50
  70
0
  62
7
   6
CONTINUOUS
   0
LAYER
   5
6B
 100
AcDbSymbolTableRecord
 100
AcDbLayerTableRecord
   2
51
  70
0
  62
7
   6
CONTINUOUS
   0
LAYER
   5
6C
 100
AcDbSymbolTableRecord
 100
AcDbLayerTableRecord
   2
52
  70
0
  62
7
   6
CONTINUOUS
   0
LAYER
   5
6D
 100
AcDbSymbolTableRecord
 100
AcDbLayerTableRecord
   2
53
  70
0
  62
7
   6
CONTINUOUS
   0
LAYER
   5
6E
 100
AcDbSymbolTableRecord
 100
AcDbLayerTableRecord
   2
54
  70
0
  62
7
   6
CONTINUOUS
   0
LAYER
   5
6F
 100
AcDbSymbolTableRecord
 100
AcDbLayerTableRecord
   2
55
  70
0
  62
7
   6
CONTINUOUS
   0
LAYER
   5
70
 100
AcDbSymbolTableRecord
 100
AcDbLayerTableRecord
   2
56
  70
0
  62
7
   6
CONTINUOUS
   0
LAYER
   5
71
 100
AcDbSymbolTableRecord
 100
AcDbLayerTableRecord
   2
57
  70
0
  62
7
   6
CONTINUOUS
   0
LAYER
   5
72
 100
AcDbSymbolTableRecord
 100
AcDbLayerTableRecord
   2
58
  70
0
  62
7
   6
CONTINUOUS
   0
LAYER
   5
73
 100
AcDbSymbolTableRecord
 100
AcDbLayerTableRecord
   2
59
  70
0
  62
7
   6
CONTINUOUS
   0
LAYER
   5
74
 100
AcDbSymbolTableRecord
 100
AcDbLayerTableRecord
   2
60
  70
0
  62
7
   6
CONTINUOUS
   0
LAYER
   5
75
 100
AcDbSymbolTableRecord
 100
AcDbLayerTableRecord
   2
61
  70
0
  62
7
   6
CONTINUOUS
   0
LAYER
   5
76
 100
AcDbSymbolTableRecord
 100
AcDbLayerTableRecord
   2
62
  70
0
  62
7
   6
CONTINUOUS
   0
LAYER
   5
77
 100
AcDbSymbolTableRecord
 100
AcDbLayerTableRecord
   2
63
  70
0
  62
7
   6
CONTINUOUS
   0
LAYER
   5
78
 100
AcDbSymbolTableRecord
 100
AcDbLayerTableRecord
   2
64
  70
0
  62
7
   6
CONTINUOUS
   0
LAYER
   5
79
 100
AcDbSymbolTableRecord
 100
AcDbLayerTableRecord
   2
65
  70
0
  62
7
   6
CONTINUOUS
   0
LAYER
   5
7A
 100
AcDbSymbolTableRecord
 100
AcDbLayerTableRecord
   2
66
  70
0
  62
7
   6
CONTINUOUS
   0
LAYER
   5
7B
 100
AcDbSymbolTableRecord
 100
AcDbLayerTableRecord
   2
67
  70
0
  62
7
   6
CONTINUOUS
   0
LAYER
   5
7C
 100
AcDbSymbolTableRecord
 100
AcDbLayerTableRecord
   2
68
  70
0
  62
7
   6
CONTINUOUS
   0
LAYER
   5
7D
 100
AcDbSymbolTableRecord
 100
AcDbLayerTableRecord
   2
69
  70
0
  62
7
   6
CONTINUOUS
   0
LAYER
   5
7E
 100
AcDbSymbolTableRecord
 100
AcDbLayerTableRecord
   2
70
  70
0
  62
7
   6
CONTINUOUS
   0
LAYER
   5
7F
 100
AcDbSymbolTableRecord
 100
AcDbLayerTableRecord
   2
71
  70
0
  62
7
   6
CONTINUOUS
   0
LAYER
   5
80
 100
AcDbSymbolTableRecord
 100
AcDbLayerTableRecord
   2
72
  70
0
  62
7
   6
CONTINUOUS
   0
LAYER
   5
81
 100
AcDbSymbolTableRecord
 100
AcDbLayerTableRecord
   2
73
  70
0
  62
7
   6
CONTINUOUS
   0
LAYER
   5
82
 100
AcDbSymbolTableRecord
 100
AcDbLayerTableRecord
   2
74
  70
0
  62
7
   6
CONTINUOUS
   0
LAYER
   5
83
 100
AcDbSymbolTableRecord
 100
AcDbLayerTableRecord
   2
75
  70
0
  62
7
   6
CONTINUOUS
   0
LAYER
   5
84
 100
AcDbSymbolTableRecord
 100
AcDbLayerTableRecord
   2
76
  70
0
  62
7
   6
CONTINUOUS
   0
LAYER
   5
85
 100
AcDbSymbolTableRecord
 100
AcDbLayerTableRecord
   2
77
  70
0
  62
7
   6
CONTINUOUS
   0
LAYER
   5
86
 100
AcDbSymbolTableRecord
 100
AcDbLayerTableRecord
   2
78
  70
0
  62
7
   6
CONTINUOUS
   0
LAYER
   5
87
 100
AcDbSymbolTableRecord
 100
AcDbLayerTableRecord
   2
79
  70
0
  62
7
   6
CONTINUOUS
   0
LAYER
   5
88
 100
AcDbSymbolTableRecord
 100
AcDbLayerTableRecord
   2
80
  70
0
  62
7
   6
CONTINUOUS
   0
LAYER
   5
89
 100
AcDbSymbolTableRecord
 100
AcDbLayerTableRecord
   2
81
  70
0
  62
7
   6
CONTINUOUS
   0
LAYER
   5
8A
 100
AcDbSymbolTableRecord
 100
AcDbLayerTableRecord
   2
82
  70
0
  62
7
   6
CONTINUOUS
   0
LAYER
   5
8B
 100
AcDbSymbolTableRecord
 100
AcDbLayerTableRecord
   2
83
  70
0
  62
7
   6
CONTINUOUS
   0
LAYER
   5
8C
 100
AcDbSymbolTableRecord
 100
AcDbLayerTableRecord
   2
84
  70
0
  62
7
   6
CONTINUOUS
   0
LAYER
   5
8D
 100
AcDbSymbolTableRecord
 100
AcDbLayerTableRecord
   2
85
  70
0
  62
7
   6
CONTINUOUS
   0
LAYER
   5
8E
 100
AcDbSymbolTableRecord
 100
AcDbLayerTableRecord
   2
86
  70
0
  62
7
   6
CONTINUOUS
   0
LAYER
   5
8F
 100
AcDbSymbolTableRecord
 100
AcDbLayerTableRecord
   2
87
  70
0
  62
7
   6
CONTINUOUS
   0
LAYER
   5
90
 100
AcDbSymbolTableRecord
 100
AcDbLayerTableRecord
   2
88
  70
0
  62
7
   6
CONTINUOUS
   0
LAYER
   5
91
 100
AcDbSymbolTableRecord
 100
AcDbLayerTableRecord
   2
89
  70
0
  62
7
   6
CONTINUOUS
   0
LAYER
   5
92
 100
AcDbSymbolTableRecord
 100
AcDbLayerTableRecord
   2
90
  70
0
  62
7
   6
CONTINUOUS
   0
LAYER
   5
93
 100
AcDbSymbolTableRecord
 100
AcDbLayerTableRecord
   2
91
  70
0
  62
7
   6
CONTINUOUS
   0
LAYER
   5
94
 100
AcDbSymbolTableRecord
 100
AcDbLayerTableRecord
   2
92
  70
0
  62
7
   6
CONTINUOUS
   0
LAYER
   5
95
 100
AcDbSymbolTableRecord
 100
AcDbLayerTableRecord
   2
93
  70
0
  62
7
   6
CONTINUOUS
   0
LAYER
   5
96
 100
AcDbSymbolTableRecord
 100
AcDbLayerTableRecord
   2
94
  70
0
  62
7
   6
CONTINUOUS
   0
LAYER
   5
97
 100
AcDbSymbolTableRecord
 100
AcDbLayerTableRecord
   2
95
  70
0
  62
7
   6
CONTINUOUS
   0
LAYER
   5
98
 100
AcDbSymbolTableRecord
 100
AcDbLayerTableRecord
   2
96
  70
0
  62
7
   6
CONTINUOUS
   0
LAYER
   5
99
 100
AcDbSymbolTableRecord
 100
AcDbLayerTableRecord
   2
97
  70
0
  62
7
   6
CONTINUOUS
   0
LAYER
   5
9A
 100
AcDbSymbolTableRecord
 100
AcDbLayerTableRecord
   2
98
  70
0
  62
7
   6
CONTINUOUS
   0
LAYER
   5
9B
 100
AcDbSymbolTableRecord
 100
AcDbLayerTableRecord
   2
99
  70
0
  62
7
   6
CONTINUOUS
   0
LAYER
   5
9C
 100
AcDbSymbolTableRecord
 100
AcDbLayerTableRecord
   2
100
  70
0
  62
7
   6
CONTINUOUS
   0
LAYER
   5
9D
 100
AcDbSymbolTableRecord
 100
AcDbLayerTableRecord
   2
101
  70
0
  62
7
   6
CONTINUOUS
   0
LAYER
   5
9E
 100
AcDbSymbolTableRecord
 100
AcDbLayerTableRecord
   2
102
  70
0
  62
7
   6
CONTINUOUS
   0
LAYER
   5
9F
 100
AcDbSymbolTableRecord
 100
AcDbLayerTableRecord
   2
103
  70
0
  62
7
   6
CONTINUOUS
   0
LAYER
   5
A0
 100
AcDbSymbolTableRecord
 100
AcDbLayerTableRecord
   2
104
  70
0
  62
7
   6
CONTINUOUS
   0
LAYER
   5
A1
 100
AcDbSymbolTableRecord
 100
AcDbLayerTableRecord
   2
105
  70
0
  62
7
   6
CONTINUOUS
   0
LAYER
   5
A2
 100
AcDbSymbolTableRecord
 100
AcDbLayerTableRecord
   2
106
  70
0
  62
7
   6
CONTINUOUS
   0
LAYER
   5
A3
 100
AcDbSymbolTableRecord
 100
AcDbLayerTableRecord
   2
107
  70
0
  62
7
   6
CONTINUOUS
   0
LAYER
   5
A4
 100
AcDbSymbolTableRecord
 100
AcDbLayerTableRecord
   2
108
  70
0
  62
7
   6
CONTINUOUS
   0
LAYER
   5
A5
 100
AcDbSymbolTableRecord
 100
AcDbLayerTableRecord
   2
109
  70
0
  62
7
   6
CONTINUOUS
   0
LAYER
   5
A6
 100
AcDbSymbolTableRecord
 100
AcDbLayerTableRecord
   2
110
  70
0
  62
7
   6
CONTINUOUS
   0
LAYER
   5
A7
 100
AcDbSymbolTableRecord
 100
AcDbLayerTableRecord
   2
111
  70
0
  62
7
   6
CONTINUOUS
   0
LAYER
   5
A8
 100
AcDbSymbolTableRecord
 100
AcDbLayerTableRecord
   2
112
  70
0
  62
7
   6
CONTINUOUS
   0
LAYER
   5
A9
 100
AcDbSymbolTableRecord
 100
AcDbLayerTableRecord
   2
113
  70
0
  62
7
   6
CONTINUOUS
   0
LAYER
   5
AA
 100
AcDbSymbolTableRecord
 100
AcDbLayerTableRecord
   2
114
  70
0
  62
7
   6
CONTINUOUS
   0
LAYER
   5
AB
 100
AcDbSymbolTableRecord
 100
AcDbLayerTableRecord
   2
115
  70
0
  62
7
   6
CONTINUOUS
   0
LAYER
   5
AC
 100
AcDbSymbolTableRecord
 100
AcDbLayerTableRecord
   2
116
  70
0
  62
7
   6
CONTINUOUS
   0
LAYER
   5
AD
 100
AcDbSymbolTableRecord
 100
AcDbLayerTableRecord
   2
117
  70
0
  62
7
   6
CONTINUOUS
   0
LAYER
   5
AE
 100
AcDbSymbolTableRecord
 100
AcDbLayerTableRecord
   2
118
  70
0
  62
7
   6
CONTINUOUS
   0
LAYER
   5
AF
 100
AcDbSymbolTableRecord
 100
AcDbLayerTableRecord
   2
119
  70
0
  62
7
   6
CONTINUOUS
   0
LAYER
   5
B0
 100
AcDbSymbolTableRecord
 100
AcDbLayerTableRecord
   2
120
  70
0
  62
7
   6
CONTINUOUS
   0
LAYER
   5
B1
 100
AcDbSymbolTableRecord
 100
AcDbLayerTableRecord
   2
121
  70
0
  62
7
   6
CONTINUOUS
   0
LAYER
   5
B2
 100
AcDbSymbolTableRecord
 100
AcDbLayerTableRecord
   2
122
  70
0
  62
7
   6
CONTINUOUS
   0
LAYER
   5
B3
 100
AcDbSymbolTableRecord
 100
AcDbLayerTableRecord
   2
123
  70
0
  62
7
   6
CONTINUOUS
   0
LAYER
   5
B4
 100
AcDbSymbolTableRecord
 100
AcDbLayerTableRecord
   2
124
  70
0
  62
7
   6
CONTINUOUS
   0
LAYER
   5
B5
 100
AcDbSymbolTableRecord
 100
AcDbLayerTableRecord
   2
125
  70
0
  62
7
   6
CONTINUOUS
   0
LAYER
   5
B6
 100
AcDbSymbolTableRecord
 100
AcDbLayerTableRecord
   2
126
  70
0
  62
7
   6
CONTINUOUS
   0
LAYER
   5
B7
 100
AcDbSymbolTableRecord
 100
AcDbLayerTableRecord
   2
127
  70
0
  62
7
   6
CONTINUOUS
   0
LAYER
   5
B8
 100
AcDbSymbolTableRecord
 100
AcDbLayerTableRecord
   2
128
  70
0
  62
7
   6
CONTINUOUS
   0
LAYER
   5
B9
 100
AcDbSymbolTableRecord
 100
AcDbLayerTableRecord
   2
129
  70
0
  62
7
   6
CONTINUOUS
   0
LAYER
   5
BA
 100
AcDbSymbolTableRecord
 100
AcDbLayerTableRecord
   2
130
  70
0
  62
7
   6
CONTINUOUS
   0
LAYER
   5
BB
 100
AcDbSymbolTableRecord
 100
AcDbLayerTableRecord
   2
131
  70
0
  62
7
   6
CONTINUOUS
   0
LAYER
   5
BC
 100
AcDbSymbolTableRecord
 100
AcDbLayerTableRecord
   2
132
  70
0
  62
7
   6
CONTINUOUS
   0
LAYER
   5
BD
 100
AcDbSymbolTableRecord
 100
AcDbLayerTableRecord
   2
133
  70
0
  62
7
   6
CONTINUOUS
   0
LAYER
   5
BE
 100
AcDbSymbolTableRecord
 100
AcDbLayerTableRecord
   2
134
  70
0
  62
7
   6
CONTINUOUS
   0
LAYER
   5
BF
 100
AcDbSymbolTableRecord
 100
AcDbLayerTableRecord
   2
135
  70
0
  62
7
   6
CONTINUOUS
   0
LAYER
   5
C0
 100
AcDbSymbolTableRecord
 100
AcDbLayerTableRecord
   2
136
  70
0
  62
7
   6
CONTINUOUS
   0
LAYER
   5
C1
 100
AcDbSymbolTableRecord
 100
AcDbLayerTableRecord
   2
137
  70
0
  62
7
   6
CONTINUOUS
   0
LAYER
   5
C2
 100
AcDbSymbolTableRecord
 100
AcDbLayerTableRecord
   2
138
  70
0
  62
7
   6
CONTINUOUS
   0
LAYER
   5
C3
 100
AcDbSymbolTableRecord
 100
AcDbLayerTableRecord
   2
139
  70
0
  62
7
   6
CONTINUOUS
   0
LAYER
   5
C4
 100
AcDbSymbolTableRecord
 100
AcDbLayerTableRecord
   2
140
  70
0
  62
7
   6
CONTINUOUS
   0
LAYER
   5
C5
 100
AcDbSymbolTableRecord
 100
AcDbLayerTableRecord
   2
141
  70
0
  62
7
   6
CONTINUOUS
   0
LAYER
   5
C6
 100
AcDbSymbolTableRecord
 100
AcDbLayerTableRecord
   2
142
  70
0
  62
7
   6
CONTINUOUS
   0
LAYER
   5
C7
 100
AcDbSymbolTableRecord
 100
AcDbLayerTableRecord
   2
143
  70
0
  62
7
   6
CONTINUOUS
   0
LAYER
   5
C8
 100
AcDbSymbolTableRecord
 100
AcDbLayerTableRecord
   2
144
  70
0
  62
7
   6
CONTINUOUS
   0
LAYER
   5
C9
 100
AcDbSymbolTableRecord
 100
AcDbLayerTableRecord
   2
145
  70
0
  62
7
   6
CONTINUOUS
   0
LAYER
   5
CA
 100
AcDbSymbolTableRecord
 100
AcDbLayerTableRecord
   2
146
  70
0
  62
7
   6
CONTINUOUS
   0
LAYER
   5
CB
 100
AcDbSymbolTableRecord
 100
AcDbLayerTableRecord
   2
147
  70
0
  62
7
   6
CONTINUOUS
   0
LAYER
   5
CC
 100
AcDbSymbolTableRecord
 100
AcDbLayerTableRecord
   2
148
  70
0
  62
7
   6
CONTINUOUS
   0
LAYER
   5
CD
 100
AcDbSymbolTableRecord
 100
AcDbLayerTableRecord
   2
149
  70
0
  62
7
   6
CONTINUOUS
   0
LAYER
   5
CE
 100
AcDbSymbolTableRecord
 100
AcDbLayerTableRecord
   2
150
  70
0
  62
7
   6
CONTINUOUS
   0
LAYER
   5
CF
 100
AcDbSymbolTableRecord
 100
AcDbLayerTableRecord
   2
151
  70
0
  62
7
   6
CONTINUOUS
   0
LAYER
   5
D0
 100
AcDbSymbolTableRecord
 100
AcDbLayerTableRecord
   2
152
  70
0
  62
7
   6
CONTINUOUS
   0
LAYER
   5
D1
 100
AcDbSymbolTableRecord
 100
AcDbLayerTableRecord
   2
153
  70
0
  62
7
   6
CONTINUOUS
   0
LAYER
   5
D2
 100
AcDbSymbolTableRecord
 100
AcDbLayerTableRecord
   2
154
  70
0
  62
7
   6
CONTINUOUS
   0
LAYER
   5
D3
 100
AcDbSymbolTableRecord
 100
AcDbLayerTableRecord
   2
155
  70
0
  62
7
   6
CONTINUOUS
   0
LAYER
   5
D4
 100
AcDbSymbolTableRecord
 100
AcDbLayerTableRecord
   2
156
  70
0
  62
7
   6
CONTINUOUS
   0
LAYER
   5
D5
 100
AcDbSymbolTableRecord
 100
AcDbLayerTableRecord
   2
157
  70
0
  62
7
   6
CONTINUOUS
   0
LAYER
   5
D6
 100
AcDbSymbolTableRecord
 100
AcDbLayerTableRecord
   2
158
  70
0
  62
7
   6
CONTINUOUS
   0
LAYER
   5
D7
 100
AcDbSymbolTableRecord
 100
AcDbLayerTableRecord
   2
159
  70
0
  62
7
   6
CONTINUOUS
   0
LAYER
   5
D8
 100
AcDbSymbolTableRecord
 100
AcDbLayerTableRecord
   2
160
  70
0
  62
7
   6
CONTINUOUS
   0
LAYER
   5
D9
 100
AcDbSymbolTableRecord
 100
AcDbLayerTableRecord
   2
161
  70
0
  62
7
   6
CONTINUOUS
   0
LAYER
   5
DA
 100
AcDbSymbolTableRecord
 100
AcDbLayerTableRecord
   2
162
  70
0
  62
7
   6
CONTINUOUS
   0
LAYER
   5
DB
 100
AcDbSymbolTableRecord
 100
AcDbLayerTableRecord
   2
163
  70
0
  62
7
   6
CONTINUOUS
   0
LAYER
   5
DC
 100
AcDbSymbolTableRecord
 100
AcDbLayerTableRecord
   2
164
  70
0
  62
7
   6
CONTINUOUS
   0
LAYER
   5
DD
 100
AcDbSymbolTableRecord
 100
AcDbLayerTableRecord
   2
165
  70
0
  62
7
   6
CONTINUOUS
   0
LAYER
   5
DE
 100
AcDbSymbolTableRecord
 100
AcDbLayerTableRecord
   2
166
  70
0
  62
7
   6
CONTINUOUS
   0
LAYER
   5
DF
 100
AcDbSymbolTableRecord
 100
AcDbLayerTableRecord
   2
167
  70
0
  62
7
   6
CONTINUOUS
   0
LAYER
   5
E0
 100
AcDbSymbolTableRecord
 100
AcDbLayerTableRecord
   2
168
  70
0
  62
7
   6
CONTINUOUS
   0
LAYER
   5
E1
 100
AcDbSymbolTableRecord
 100
AcDbLayerTableRecord
   2
169
  70
0
  62
7
   6
CONTINUOUS
   0
LAYER
   5
E2
 100
AcDbSymbolTableRecord
 100
AcDbLayerTableRecord
   2
170
  70
0
  62
7
   6
CONTINUOUS
   0
LAYER
   5
E3
 100
AcDbSymbolTableRecord
 100
AcDbLayerTableRecord
   2
171
  70
0
  62
7
   6
CONTINUOUS
   0
LAYER
   5
E4
 100
AcDbSymbolTableRecord
 100
AcDbLayerTableRecord
   2
172
  70
0
  62
7
   6
CONTINUOUS
   0
LAYER
   5
E5
 100
AcDbSymbolTableRecord
 100
AcDbLayerTableRecord
   2
173
  70
0
  62
7
   6
CONTINUOUS
   0
LAYER
   5
E6
 100
AcDbSymbolTableRecord
 100
AcDbLayerTableRecord
   2
174
  70
0
  62
7
   6
CONTINUOUS
   0
LAYER
   5
E7
 100
AcDbSymbolTableRecord
 100
AcDbLayerTableRecord
   2
175
  70
0
  62
7
   6
CONTINUOUS
   0
LAYER
   5
E8
 100
AcDbSymbolTableRecord
 100
AcDbLayerTableRecord
   2
176
  70
0
  62
7
   6
CONTINUOUS
   0
LAYER
   5
E9
 100
AcDbSymbolTableRecord
 100
AcDbLayerTableRecord
   2
177
  70
0
  62
7
   6
CONTINUOUS
   0
LAYER
   5
EA
 100
AcDbSymbolTableRecord
 100
AcDbLayerTableRecord
   2
178
  70
0
  62
7
   6
CONTINUOUS
   0
LAYER
   5
EB
 100
AcDbSymbolTableRecord
 100
AcDbLayerTableRecord
   2
179
  70
0
  62
7
   6
CONTINUOUS
   0
LAYER
   5
EC
 100
AcDbSymbolTableRecord
 100
AcDbLayerTableRecord
   2
180
  70
0
  62
7
   6
CONTINUOUS
   0
LAYER
   5
ED
 100
AcDbSymbolTableRecord
 100
AcDbLayerTableRecord
   2
181
  70
0
  62
7
   6
CONTINUOUS
   0
LAYER
   5
EE
 100
AcDbSymbolTableRecord
 100
AcDbLayerTableRecord
   2
182
  70
0
  62
7
   6
CONTINUOUS
   0
LAYER
   5
EF
 100
AcDbSymbolTableRecord
 100
AcDbLayerTableRecord
   2
183
  70
0
  62
7
   6
CONTINUOUS
   0
LAYER
   5
F0
 100
AcDbSymbolTableRecord
 100
AcDbLayerTableRecord
   2
184
  70
0
  62
7
   6
CONTINUOUS
   0
LAYER
   5
F1
 100
AcDbSymbolTableRecord
 100
AcDbLayerTableRecord
   2
185
  70
0
  62
7
   6
CONTINUOUS
   0
LAYER
   5
F2
 100
AcDbSymbolTableRecord
 100
AcDbLayerTableRecord
   2
186
  70
0
  62
7
   6
CONTINUOUS
   0
LAYER
   5
F3
 100
AcDbSymbolTableRecord
 100
AcDbLayerTableRecord
   2
187
  70
0
  62
7
   6
CONTINUOUS
   0
LAYER
   5
F4
 100
AcDbSymbolTableRecord
 100
AcDbLayerTableRecord
   2
188
  70
0
  62
7
   6
CONTINUOUS
   0
LAYER
   5
F5
 100
AcDbSymbolTableRecord
 100
AcDbLayerTableRecord
   2
189
  70
0
  62
7
   6
CONTINUOUS
   0
LAYER
   5
F6
 100
AcDbSymbolTableRecord
 100
AcDbLayerTableRecord
   2
190
  70
0
  62
7
   6
CONTINUOUS
   0
LAYER
   5
F7
 100
AcDbSymbolTableRecord
 100
AcDbLayerTableRecord
   2
191
  70
0
  62
7
   6
CONTINUOUS
   0
LAYER
   5
F8
 100
AcDbSymbolTableRecord
 100
AcDbLayerTableRecord
   2
192
  70
0
  62
7
   6
CONTINUOUS
   0
LAYER
   5
F9
 100
AcDbSymbolTableRecord
 100
AcDbLayerTableRecord
   2
193
  70
0
  62
7
   6
CONTINUOUS
   0
LAYER
   5
FA
 100
AcDbSymbolTableRecord
 100
AcDbLayerTableRecord
   2
194
  70
0
  62
7
   6
CONTINUOUS
   0
LAYER
   5
FB
 100
AcDbSymbolTableRecord
 100
AcDbLayerTableRecord
   2
195
  70
0
  62
7
   6
CONTINUOUS
   0
LAYER
   5
FC
 100
AcDbSymbolTableRecord
 100
AcDbLayerTableRecord
   2
196
  70
0
  62
7
   6
CONTINUOUS
   0
LAYER
   5
FD
 100
AcDbSymbolTableRecord
 100
AcDbLayerTableRecord
   2
197
  70
0
  62
7
   6
CONTINUOUS
   0
LAYER
   5
FE
 100
AcDbSymbolTableRecord
 100
AcDbLayerTableRecord
   2
198
  70
0
  62
7
   6
CONTINUOUS
   0
LAYER
   5
FF
 100
AcDbSymbolTableRecord
 100
AcDbLayerTableRecord
   2
199
  70
0
  62
7
   6
CONTINUOUS
   0
LAYER
   5
100
 100
AcDbSymbolTableRecord
 100
AcDbLayerTableRecord
   2
200
  70
0
  62
7
   6
CONTINUOUS
   0
LAYER
   5
101
 100
AcDbSymbolTableRecord
 100
AcDbLayerTableRecord
   2
201
  70
0
  62
7
   6
CONTINUOUS
   0
LAYER
   5
102
 100
AcDbSymbolTableRecord
 100
AcDbLayerTableRecord
   2
202
  70
0
  62
7
   6
CONTINUOUS
   0
LAYER
   5
103
 100
AcDbSymbolTableRecord
 100
AcDbLayerTableRecord
   2
203
  70
0
  62
7
   6
CONTINUOUS
   0
LAYER
   5
104
 100
AcDbSymbolTableRecord
 100
AcDbLayerTableRecord
   2
204
  70
0
  62
7
   6
CONTINUOUS
   0
LAYER
   5
105
 100
AcDbSymbolTableRecord
 100
AcDbLayerTableRecord
   2
205
  70
0
  62
7
   6
CONTINUOUS
   0
LAYER
   5
106
 100
AcDbSymbolTableRecord
 100
AcDbLayerTableRecord
   2
206
  70
0
  62
7
   6
CONTINUOUS
   0
LAYER
   5
107
 100
AcDbSymbolTableRecord
 100
AcDbLayerTableRecord
   2
207
  70
0
  62
7
   6
CONTINUOUS
   0
LAYER
   5
108
 100
AcDbSymbolTableRecord
 100
AcDbLayerTableRecord
   2
208
  70
0
  62
7
   6
CONTINUOUS
   0
LAYER
   5
109
 100
AcDbSymbolTableRecord
 100
AcDbLayerTableRecord
   2
209
  70
0
  62
7
   6
CONTINUOUS
   0
LAYER
   5
10A
 100
AcDbSymbolTableRecord
 100
AcDbLayerTableRecord
   2
210
  70
0
  62
7
   6
CONTINUOUS
   0
LAYER
   5
10B
 100
AcDbSymbolTableRecord
 100
AcDbLayerTableRecord
   2
211
  70
0
  62
7
   6
CONTINUOUS
   0
LAYER
   5
10C
 100
AcDbSymbolTableRecord
 100
AcDbLayerTableRecord
   2
212
  70
0
  62
7
   6
CONTINUOUS
   0
LAYER
   5
10D
 100
AcDbSymbolTableRecord
 100
AcDbLayerTableRecord
   2
213
  70
0
  62
7
   6
CONTINUOUS
   0
LAYER
   5
10E
 100
AcDbSymbolTableRecord
 100
AcDbLayerTableRecord
   2
214
  70
0
  62
7
   6
CONTINUOUS
   0
LAYER
   5
10F
 100
AcDbSymbolTableRecord
 100
AcDbLayerTableRecord
   2
215
  70
0
  62
7
   6
CONTINUOUS
   0
LAYER
   5
110
 100
AcDbSymbolTableRecord
 100
AcDbLayerTableRecord
   2
216
  70
0
  62
7
   6
CONTINUOUS
   0
LAYER
   5
111
 100
AcDbSymbolTableRecord
 100
AcDbLayerTableRecord
   2
217
  70
0
  62
7
   6
CONTINUOUS
   0
LAYER
   5
112
 100
AcDbSymbolTableRecord
 100
AcDbLayerTableRecord
   2
218
  70
0
  62
7
   6
CONTINUOUS
   0
LAYER
   5
113
 100
AcDbSymbolTableRecord
 100
AcDbLayerTableRecord
   2
219
  70
0
  62
7
   6
CONTINUOUS
   0
LAYER
   5
114
 100
AcDbSymbolTableRecord
 100
AcDbLayerTableRecord
   2
220
  70
0
  62
7
   6
CONTINUOUS
   0
LAYER
   5
115
 100
AcDbSymbolTableRecord
 100
AcDbLayerTableRecord
   2
221
  70
0
  62
7
   6
CONTINUOUS
   0
LAYER
   5
116
 100
AcDbSymbolTableRecord
 100
AcDbLayerTableRecord
   2
222
  70
0
  62
7
   6
CONTINUOUS
   0
LAYER
   5
117
 100
AcDbSymbolTableRecord
 100
AcDbLayerTableRecord
   2
223
  70
0
  62
7
   6
CONTINUOUS
   0
LAYER
   5
118
 100
AcDbSymbolTableRecord
 100
AcDbLayerTableRecord
   2
224
  70
0
  62
7
   6
CONTINUOUS
   0
LAYER
   5
119
 100
AcDbSymbolTableRecord
 100
AcDbLayerTableRecord
   2
225
  70
0
  62
7
   6
CONTINUOUS
   0
LAYER
   5
11A
 100
AcDbSymbolTableRecord
 100
AcDbLayerTableRecord
   2
226
  70
0
  62
7
   6
CONTINUOUS
   0
LAYER
   5
11B
 100
AcDbSymbolTableRecord
 100
AcDbLayerTableRecord
   2
227
  70
0
  62
7
   6
CONTINUOUS
   0
LAYER
   5
11C
 100
AcDbSymbolTableRecord
 100
AcDbLayerTableRecord
   2
228
  70
0
  62
7
   6
CONTINUOUS
   0
LAYER
   5
11D
 100
AcDbSymbolTableRecord
 100
AcDbLayerTableRecord
   2
229
  70
0
  62
7
   6
CONTINUOUS
   0
LAYER
   5
11E
 100
AcDbSymbolTableRecord
 100
AcDbLayerTableRecord
   2
230
  70
0
  62
7
   6
CONTINUOUS
   0
LAYER
   5
11F
 100
AcDbSymbolTableRecord
 100
AcDbLayerTableRecord
   2
231
  70
0
  62
7
   6
CONTINUOUS
   0
LAYER
   5
120
 100
AcDbSymbolTableRecord
 100
AcDbLayerTableRecord
   2
232
  70
0
  62
7
   6
CONTINUOUS
   0
LAYER
   5
121
 100
AcDbSymbolTableRecord
 100
AcDbLayerTableRecord
   2
233
  70
0
  62
7
   6
CONTINUOUS
   0
LAYER
   5
122
 100
AcDbSymbolTableRecord
 100
AcDbLayerTableRecord
   2
234
  70
0
  62
7
   6
CONTINUOUS
   0
LAYER
   5
123
 100
AcDbSymbolTableRecord
 100
AcDbLayerTableRecord
   2
235
  70
0
  62
7
   6
CONTINUOUS
   0
LAYER
   5
124
 100
AcDbSymbolTableRecord
 100
AcDbLayerTableRecord
   2
236
  70
0
  62
7
   6
CONTINUOUS
   0
LAYER
   5
125
 100
AcDbSymbolTableRecord
 100
AcDbLayerTableRecord
   2
237
  70
0
  62
7
   6
CONTINUOUS
   0
LAYER
   5
126
 100
AcDbSymbolTableRecord
 100
AcDbLayerTableRecord
   2
238
  70
0
  62
7
   6
CONTINUOUS
   0
LAYER
   5
127
 100
AcDbSymbolTableRecord
 100
AcDbLayerTableRecord
   2
239
  70
0
  62
7
   6
CONTINUOUS
   0
LAYER
   5
128
 100
AcDbSymbolTableRecord
 100
AcDbLayerTableRecord
   2
240
  70
0
  62
7
   6
CONTINUOUS
   0
LAYER
   5
129
 100
AcDbSymbolTableRecord
 100
AcDbLayerTableRecord
   2
241
  70
0
  62
7
   6
CONTINUOUS
   0
LAYER
   5
12A
 100
AcDbSymbolTableRecord
 100
AcDbLayerTableRecord
   2
242
  70
0
  62
7
   6
CONTINUOUS
   0
LAYER
   5
12B
 100
AcDbSymbolTableRecord
 100
AcDbLayerTableRecord
   2
243
  70
0
  62
7
   6
CONTINUOUS
   0
LAYER
   5
12C
 100
AcDbSymbolTableRecord
 100
AcDbLayerTableRecord
   2
244
  70
0
  62
7
   6
CONTINUOUS
   0
LAYER
   5
12D
 100
AcDbSymbolTableRecord
 100
AcDbLayerTableRecord
   2
245
  70
0
  62
7
   6
CONTINUOUS
   0
LAYER
   5
12E
 100
AcDbSymbolTableRecord
 100
AcDbLayerTableRecord
   2
246
  70
0
  62
7
   6
CONTINUOUS
   0
LAYER
   5
12F
 100
AcDbSymbolTableRecord
 100
AcDbLayerTableRecord
   2
247
  70
0
  62
7
   6
CONTINUOUS
   0
LAYER
   5
130
 100
AcDbSymbolTableRecord
 100
AcDbLayerTableRecord
   2
248
  70
0
  62
7
   6
CONTINUOUS
   0
LAYER
   5
131
 100
AcDbSymbolTableRecord
 100
AcDbLayerTableRecord
   2
249
  70
0
  62
7
   6
CONTINUOUS
   0
LAYER
   5
132
 100
AcDbSymbolTableRecord
 100
AcDbLayerTableRecord
   2
Ａ３図面枠
  70
0
  62
7
   6
CONTINUOUS
   0
LAYER
   5
133
 100
AcDbSymbolTableRecord
 100
AcDbLayerTableRecord
   2
251
  70
0
  62
7
   6
CONTINUOUS
   0
LAYER
   5
134
 100
AcDbSymbolTableRecord
 100
AcDbLayerTableRecord
   2
252
  70
0
  62
7
   6
CONTINUOUS
   0
LAYER
   5
135
 100
AcDbSymbolTableRecord
 100
AcDbLayerTableRecord
   2
253
  70
0
  62
7
   6
CONTINUOUS
   0
LAYER
   5
136
 100
AcDbSymbolTableRecord
 100
AcDbLayerTableRecord
   2
254
  70
0
  62
7
   6
CONTINUOUS
   0
ENDTAB
  0
TABLE
  2
STYLE
  5
3
100
AcDbSymbolTable
  70
3
  0
STYLE
  5
F
100
AcDbSymbolTableRecord
100
AcDbTextStyleTableRecord
  2
STANDARD
 70
     0
 40
0.0
 41
1.0
 50
0.0
 71
     0
 42
0.2
  3
TXT
  4
BIGFONT
  0
STYLE
  5
38
100
AcDbSymbolTableRecord
100
AcDbTextStyleTableRecord
  2
STANDARD1
 70
     4
 40
0.0
 41
1.0
 50
0.0
 71
     0
 42
0.2
  3
TXT
  4
BIGFONT
   0
STYLE
   5
137
 100
AcDbSymbolTableRecord
 100
AcDbTextStyleTableRecord
   2
GMM001
  70
0
  40
0.0
  41
 1.0000000000000
  50
0.0
  71
     0
  42
1.0
   3
txt.shx
   4
bigfont.shx
   0
ENDTAB
  0
TABLE
  2
VIEW
  5
6
100
AcDbSymbolTable
 70
     0
  0
ENDTAB
  0
TABLE
  2
UCS
  5
7
100
AcDbSymbolTable
 70
     0
  0
ENDTAB
  0
TABLE
  2
APPID
  5
9
100
AcDbSymbolTable
 70
     1
  0
APPID
  5
10
100
AcDbSymbolTableRecord
100
AcDbRegAppTableRecord
  2
ACAD
 70
     0
  0
ENDTAB
   0
TABLE
   2
DIMSTYLE
   5
A
 100
AcDbSymbolTable
  70
6
  0
DIMSTYLE
105
1D
100
AcDbSymbolTableRecord
100
AcDbDimStyleTableRecord
  2
STANDARD
 70
     0
  3

  4

  5

  6

  7

 40
1.0
 41
0.18
 42
0.0625
 43
0.38
 44
0.18
 45
0.0
 46
0.0
 47
0.0
 48
0.0
140
0.18
141
0.09
142
0.0
143
25.4
144
1.0
145
0.0
146
1.0
147
0.09
 71
     0
 72
     0
 73
     1
 74
     1
 75
     0
 76
     0
 77
     0
 78
     0
170
     0
171
     2
172
     0
173
     0
174
     0
175
     0
176
     0
177
     0
178
     0
270
     2
271
     4
272
     4
273
     2
274
     2
340
F
275
     0
280
     0
281
     0
282
     0
283
     1
284
     0
285
     0
286
     0
287
     3
288
     0
   0
DIMSTYLE
 105
138
 100
AcDbSymbolTableRecord
 100
AcDbDimStyleTableRecord
   2
GMM001
  70
0
   3

   4

   5

   6
_OPEN30
   7
_OPEN30
  40
 1.0000000000000
  41
 3.0000000000000
  42
0.0
  43
 8.0000000000000
  44
 2.0000000000000
  45
0.0
  46
0.0
  47
0.0
  48
0.0
 140
 4.0000000000000
 141
 1.0000000000000
 142
0.0
 143
 0.39400000000000E-1
 144
 1.0000000000000
 145
0.0
 146
 0.62500000000000
 147
 1.7142857142857
  71
0
  72
0
  73
0
  74
0
  75
0
  76
0
  77
3
  78
8
 170
0
 171
2
 172
1
 173
1
 174
0
 175
0
 176
10
 177
10
 178
10
 270
2
 271
6
 272
0
 273
2
 274
2
 340
137
 275
1
 280
0
 281
0
 282
0
 283
1
 284
0
 285
0
 286
0
 287
3
 288
0
   0
DIMSTYLE
 105
139
 100
AcDbSymbolTableRecord
 100
AcDbDimStyleTableRecord
   2
GMM002
  70
0
   3

   4

   5

   6
_OPEN30
   7
_OPEN30
  40
 1.0000000000000
  41
 3.0000000000000
  42
0.0
  43
 8.0000000000000
  44
 2.0000000000000
  45
0.0
  46
0.0
  47
0.0
  48
0.0
 140
 4.0000000000000
 141
 1.0000000000000
 142
0.0
 143
 0.39400000000000E-1
 144
 1.0000000000000
 145
0.0
 146
 0.62500000000000
 147
 2.3125181950670
  71
0
  72
0
  73
0
  74
0
  75
1
  76
0
  77
3
  78
8
 170
0
 171
2
 172
1
 173
1
 174
0
 175
0
 176
10
 177
10
 178
10
 270
2
 271
6
 272
0
 273
2
 274
2
 340
137
 275
1
 280
0
 281
1
 282
0
 283
1
 284
0
 285
0
 286
0
 287
3
 288
1
   0
DIMSTYLE
 105
13A
 100
AcDbSymbolTableRecord
 100
AcDbDimStyleTableRecord
   2
GMM003
  70
0
   3

   4

   5

   6
_OPEN30
   7
_OPEN30
  40
 1.0000000000000
  41
 3.0000000000000
  42
0.0
  43
 8.0000000000000
  44
 2.0000000000000
  45
0.0
  46
0.0
  47
0.0
  48
0.0
 140
 4.0000000000000
 141
 1.0000000000000
 142
0.0
 143
 0.39400000000000E-1
 144
 1.0000000000000
 145
0.0
 146
 0.62500000000000
 147
 2.2335620251438
  71
0
  72
0
  73
0
  74
0
  75
1
  76
0
  77
3
  78
8
 170
0
 171
2
 172
1
 173
1
 174
0
 175
0
 176
10
 177
10
 178
10
 270
2
 271
6
 272
0
 273
2
 274
2
 340
137
 275
1
 280
0
 281
1
 282
0
 283
1
 284
0
 285
0
 286
0
 287
3
 288
1
   0
DIMSTYLE
 105
13B
 100
AcDbSymbolTableRecord
 100
AcDbDimStyleTableRecord
   2
GMM004
  70
0
   3

   4

   5

   6
_OPEN30
   7
_OPEN30
  40
 1.0000000000000
  41
 3.0000000000000
  42
0.0
  43
 8.0000000000000
  44
 2.0000000000000
  45
0.0
  46
0.0
  47
0.0
  48
0.0
 140
 4.0000000000000
 141
 1.0000000000000
 142
0.0
 143
 0.39400000000000E-1
 144
 1.0000000000000
 145
0.0
 146
 0.62500000000000
 147
 1.7142857142857
  71
0
  72
0
  73
0
  74
0
  75
0
  76
0
  77
3
  78
8
 170
0
 171
2
 172
1
 173
1
 174
0
 175
0
 176
10
 177
10
 178
10
 270
2
 271
6
 272
0
 273
2
 274
2
 340
137
 275
1
 280
0
 281
0
 282
0
 283
1
 284
0
 285
0
 286
0
 287
3
 288
0
   0
ENDTAB
  0
TABLE
  2
BLOCK_RECORD
  5
1
100
AcDbSymbolTable
 70
     0
  0
BLOCK_RECORD
  5
18
100
AcDbSymbolTableRecord
100
AcDbBlockTableRecord
  2
*MODEL_SPACE
  0
BLOCK_RECORD
  5
15
100
AcDbSymbolTableRecord
100
AcDbBlockTableRecord
  2
*PAPER_SPACE
   0
BLOCK_RECORD
   5
13C
 100
AcDbSymbolTableRecord
 100
AcDbBlockTableRecord
   2
*D1
   0
BLOCK_RECORD
   5
13D
 100
AcDbSymbolTableRecord
 100
AcDbBlockTableRecord
   2
*D2
   0
BLOCK_RECORD
   5
13E
 100
AcDbSymbolTableRecord
 100
AcDbBlockTableRecord
   2
*D3
   0
BLOCK_RECORD
   5
13F
 100
AcDbSymbolTableRecord
 100
AcDbBlockTableRecord
   2
*D4
   0
BLOCK_RECORD
   5
140
 100
AcDbSymbolTableRecord
 100
AcDbBlockTableRecord
   2
*D5
   0
BLOCK_RECORD
   5
141
 100
AcDbSymbolTableRecord
 100
AcDbBlockTableRecord
   2
*D6
   0
BLOCK_RECORD
   5
142
 100
AcDbSymbolTableRecord
 100
AcDbBlockTableRecord
   2
*D7
   0
BLOCK_RECORD
   5
143
 100
AcDbSymbolTableRecord
 100
AcDbBlockTableRecord
   2
*D8
   0
BLOCK_RECORD
   5
144
 100
AcDbSymbolTableRecord
 100
AcDbBlockTableRecord
   2
*D9
   0
BLOCK_RECORD
   5
145
 100
AcDbSymbolTableRecord
 100
AcDbBlockTableRecord
   2
*D10
   0
BLOCK_RECORD
   5
146
 100
AcDbSymbolTableRecord
 100
AcDbBlockTableRecord
   2
*D11
   0
BLOCK_RECORD
   5
147
 100
AcDbSymbolTableRecord
 100
AcDbBlockTableRecord
   2
*D12
   0
BLOCK_RECORD
   5
148
 100
AcDbSymbolTableRecord
 100
AcDbBlockTableRecord
   2
_ARCHTICK
   0
BLOCK_RECORD
   5
149
 100
AcDbSymbolTableRecord
 100
AcDbBlockTableRecord
   2
_BOXBLANK
   0
BLOCK_RECORD
   5
14A
 100
AcDbSymbolTableRecord
 100
AcDbBlockTableRecord
   2
_BOXFILLED
   0
BLOCK_RECORD
   5
14B
 100
AcDbSymbolTableRecord
 100
AcDbBlockTableRecord
   2
_CLOSED
   0
BLOCK_RECORD
   5
14C
 100
AcDbSymbolTableRecord
 100
AcDbBlockTableRecord
   2
_CLOSEDBLANK
   0
BLOCK_RECORD
   5
14D
 100
AcDbSymbolTableRecord
 100
AcDbBlockTableRecord
   2
_DATUMBLANK
   0
BLOCK_RECORD
   5
14E
 100
AcDbSymbolTableRecord
 100
AcDbBlockTableRecord
   2
_DATUMFILLED
   0
BLOCK_RECORD
   5
14F
 100
AcDbSymbolTableRecord
 100
AcDbBlockTableRecord
   2
_DOT
   0
BLOCK_RECORD
   5
150
 100
AcDbSymbolTableRecord
 100
AcDbBlockTableRecord
   2
_DOTBLANK
   0
BLOCK_RECORD
   5
151
 100
AcDbSymbolTableRecord
 100
AcDbBlockTableRecord
   2
_DOTSMALL
   0
BLOCK_RECORD
   5
152
 100
AcDbSymbolTableRecord
 100
AcDbBlockTableRecord
   2
_INTEGRAL
   0
BLOCK_RECORD
   5
153
 100
AcDbSymbolTableRecord
 100
AcDbBlockTableRecord
   2
_NONE
   0
BLOCK_RECORD
   5
154
 100
AcDbSymbolTableRecord
 100
AcDbBlockTableRecord
   2
_OBLIQUE
   0
BLOCK_RECORD
   5
155
 100
AcDbSymbolTableRecord
 100
AcDbBlockTableRecord
   2
_OPEN
   0
BLOCK_RECORD
   5
156
 100
AcDbSymbolTableRecord
 100
AcDbBlockTableRecord
   2
_OPEN30
   0
BLOCK_RECORD
   5
157
 100
AcDbSymbolTableRecord
 100
AcDbBlockTableRecord
   2
_OPEN90
   0
BLOCK_RECORD
   5
158
 100
AcDbSymbolTableRecord
 100
AcDbBlockTableRecord
   2
_ORIGIN
   0
ENDTAB
   0
ENDSEC
  0
SECTION
  2
BLOCKS
  0
BLOCK
  5
19
100
AcDbEntity
  8
0
100
AcDbBlockBegin
  2
*MODEL_SPACE
 70
     0
 10
0.0
 20
0.0
 30
0.0
  3
*MODEL_SPACE
  1

  0
ENDBLK
  5
1A
100
AcDbEntity
  8
0
100
AcDbBlockEnd
  0
BLOCK
  5
16
100
AcDbEntity
 67
     1
  8
0
100
AcDbBlockBegin
  2
*PAPER_SPACE
 70
     0
 10
0.0
 20
0.0
 30
0.0
  3
*PAPER_SPACE
  1

  0
ENDBLK
  5
17
100
AcDbEntity
 67
     1
  8
0
100
AcDbBlockEnd
   0
BLOCK
   5
159
 100
AcDbEntity
   8
0
 100
AcDbBlockBegin
   2
_ARCHTICK
  70
0
  10
0.0
  20
0.0
  30
0.0
   3
_ARCHTICK
   0
POLYLINE
   5
15A
 100
AcDbEntity
   8
0
   6
BYBLOCK
  62
0
 100
AcDb2dPolyline
  66
1
  10
0.0
  20
0.0
  30
0.0
  70
1
  40
 0.15000000000000
  41
 0.15000000000000
   0
VERTEX
   5
15B
 100
AcDbEntity
   8
0
   6
BYBLOCK
  62
0
 100
AcDbVertex
 100
AcDb2dVertex
  10
-0.50000000000000
  20
-0.50000000000000
  30
0.0
  40
 0.15000000000000
  41
 0.15000000000000
   0
VERTEX
   5
15C
 100
AcDbEntity
   8
0
   6
BYBLOCK
  62
0
 100
AcDbVertex
 100
AcDb2dVertex
  10
 0.50000000000000
  20
 0.50000000000000
  30
0.0
  40
 0.15000000000000
  41
 0.15000000000000
   0
SEQEND
   5
15D
 100
AcDbEntity
   8
0
   6
BYBLOCK
  62
0
   0
ENDBLK
   5
15E
 100
AcDbEntity
   8
0
 100
AcDbBlockEnd
   0
BLOCK
   5
15F
 100
AcDbEntity
   8
0
 100
AcDbBlockBegin
   2
_OBLIQUE
  70
0
  10
0.0
  20
0.0
  30
0.0
   3
_OBLIQUE
   0
LINE
   5
160
 100
AcDbEntity
   8
0
 100
AcDbLine
   6
BYBLOCK
  62
0
  10
-0.50000000000000
  20
-0.50000000000000
  30
0.0
  11
 0.50000000000000
  21
 0.50000000000000
  31
0.0
   0
ENDBLK
   5
161
 100
AcDbEntity
   8
0
 100
AcDbBlockEnd
   0
BLOCK
   5
162
 100
AcDbEntity
   8
0
 100
AcDbBlockBegin
   2
_BOXBLANK
  70
0
  10
0.0
  20
0.0
  30
0.0
   3
_BOXBLANK
   0
LINE
   5
163
 100
AcDbEntity
   8
0
 100
AcDbLine
   6
BYBLOCK
  62
0
  10
-0.50000000000000
  20
-0.50000000000000
  30
0.0
  11
 0.50000000000000
  21
-0.50000000000000
  31
0.0
   0
LINE
   5
164
 100
AcDbEntity
   8
0
 100
AcDbLine
   6
BYBLOCK
  62
0
  10
 0.50000000000000
  20
-0.50000000000000
  30
0.0
  11
 0.50000000000000
  21
 0.50000000000000
  31
0.0
   0
LINE
   5
165
 100
AcDbEntity
   8
0
 100
AcDbLine
   6
BYBLOCK
  62
0
  10
 0.50000000000000
  20
 0.50000000000000
  30
0.0
  11
-0.50000000000000
  21
 0.50000000000000
  31
0.0
   0
LINE
   5
166
 100
AcDbEntity
   8
0
 100
AcDbLine
   6
BYBLOCK
  62
0
  10
-0.50000000000000
  20
 0.50000000000000
  30
0.0
  11
-0.50000000000000
  21
-0.50000000000000
  31
0.0
   0
LINE
   5
167
 100
AcDbEntity
   8
0
 100
AcDbLine
   6
BYBLOCK
  62
0
  10
-0.50000000000000
  20
0.0
  30
0.0
  11
-1.0000000000000
  21
0.0
  31
0.0
   0
ENDBLK
   5
168
 100
AcDbEntity
   8
0
 100
AcDbBlockEnd
   0
BLOCK
   5
169
 100
AcDbEntity
   8
0
 100
AcDbBlockBegin
   2
_BOXFILLED
  70
0
  10
0.0
  20
0.0
  30
0.0
   3
_BOXFILLED
   0
SOLID
   5
16A
 100
AcDbEntity
   8
0
 100
AcDbTrace
   6
BYBLOCK
  62
0
  10
-0.50000000000000
  20
 0.50000000000000
  30
0.0
  11
 0.50000000000000
  21
 0.50000000000000
  31
0.0
  12
-0.50000000000000
  22
-0.50000000000000
  32
0.0
  13
 0.50000000000000
  23
-0.50000000000000
  33
0.0
   0
LINE
   5
16B
 100
AcDbEntity
   8
0
 100
AcDbLine
   6
BYBLOCK
  62
0
  10
-0.50000000000000
  20
0.0
  30
0.0
  11
-1.0000000000000
  21
0.0
  31
0.0
   0
ENDBLK
   5
16C
 100
AcDbEntity
   8
0
 100
AcDbBlockEnd
   0
BLOCK
   5
16D
 100
AcDbEntity
   8
0
 100
AcDbBlockBegin
   2
_CLOSED
  70
0
  10
0.0
  20
0.0
  30
0.0
   3
_CLOSED
   0
LINE
   5
16E
 100
AcDbEntity
   8
0
 100
AcDbLine
   6
BYBLOCK
  62
0
  10
-1.0000000000000
  20
 0.16666666666667
  30
0.0
  11
0.0
  21
0.0
  31
0.0
   0
LINE
   5
16F
 100
AcDbEntity
   8
0
 100
AcDbLine
   6
BYBLOCK
  62
0
  10
0.0
  20
0.0
  30
0.0
  11
-1.0000000000000
  21
-0.16666666666667
  31
0.0
   0
LINE
   5
170
 100
AcDbEntity
   8
0
 100
AcDbLine
   6
BYBLOCK
  62
0
  10
-1.0000000000000
  20
 0.16666666666667
  30
0.0
  11
-1.0000000000000
  21
-0.16666666666667
  31
0.0
   0
LINE
   5
171
 100
AcDbEntity
   8
0
 100
AcDbLine
   6
BYBLOCK
  62
0
  10
0.0
  20
0.0
  30
0.0
  11
-1.0000000000000
  21
0.0
  31
0.0
   0
ENDBLK
   5
172
 100
AcDbEntity
   8
0
 100
AcDbBlockEnd
   0
BLOCK
   5
173
 100
AcDbEntity
   8
0
 100
AcDbBlockBegin
   2
_OPEN
  70
0
  10
0.0
  20
0.0
  30
0.0
   3
_OPEN
   0
LINE
   5
174
 100
AcDbEntity
   8
0
 100
AcDbLine
   6
BYBLOCK
  62
0
  10
-1.0000000000000
  20
 0.16666666666667
  30
0.0
  11
0.0
  21
0.0
  31
0.0
   0
LINE
   5
175
 100
AcDbEntity
   8
0
 100
AcDbLine
   6
BYBLOCK
  62
0
  10
0.0
  20
0.0
  30
0.0
  11
-1.0000000000000
  21
-0.16666666666667
  31
0.0
   0
LINE
   5
176
 100
AcDbEntity
   8
0
 100
AcDbLine
   6
BYBLOCK
  62
0
  10
0.0
  20
0.0
  30
0.0
  11
-1.0000000000000
  21
0.0
  31
0.0
   0
ENDBLK
   5
177
 100
AcDbEntity
   8
0
 100
AcDbBlockEnd
   0
BLOCK
   5
178
 100
AcDbEntity
   8
0
 100
AcDbBlockBegin
   2
_OPEN30
  70
0
  10
0.0
  20
0.0
  30
0.0
   3
_OPEN30
   0
LINE
   5
179
 100
AcDbEntity
   8
0
 100
AcDbLine
   6
BYBLOCK
  62
0
  10
-1.0000000000000
  20
 0.26794919243110
  30
0.0
  11
0.0
  21
0.0
  31
0.0
   0
LINE
   5
17A
 100
AcDbEntity
   8
0
 100
AcDbLine
   6
BYBLOCK
  62
0
  10
0.0
  20
0.0
  30
0.0
  11
-1.0000000000000
  21
-0.26794919243110
  31
0.0
   0
LINE
   5
17B
 100
AcDbEntity
   8
0
 100
AcDbLine
   6
BYBLOCK
  62
0
  10
0.0
  20
0.0
  30
0.0
  11
-1.0000000000000
  21
0.0
  31
0.0
   0
ENDBLK
   5
17C
 100
AcDbEntity
   8
0
 100
AcDbBlockEnd
   0
BLOCK
   5
17D
 100
AcDbEntity
   8
0
 100
AcDbBlockBegin
   2
_OPEN90
  70
0
  10
0.0
  20
0.0
  30
0.0
   3
_OPEN90
   0
LINE
   5
17E
 100
AcDbEntity
   8
0
 100
AcDbLine
   6
BYBLOCK
  62
0
  10
-0.50000000000000
  20
 0.50000000000000
  30
0.0
  11
0.0
  21
0.0
  31
0.0
   0
LINE
   5
17F
 100
AcDbEntity
   8
0
 100
AcDbLine
   6
BYBLOCK
  62
0
  10
0.0
  20
0.0
  30
0.0
  11
-0.50000000000000
  21
-0.50000000000000
  31
0.0
   0
LINE
   5
180
 100
AcDbEntity
   8
0
 100
AcDbLine
   6
BYBLOCK
  62
0
  10
0.0
  20
0.0
  30
0.0
  11
-1.0000000000000
  21
0.0
  31
0.0
   0
ENDBLK
   5
181
 100
AcDbEntity
   8
0
 100
AcDbBlockEnd
   0
BLOCK
   5
182
 100
AcDbEntity
   8
0
 100
AcDbBlockBegin
   2
_CLOSEDBLANK
  70
0
  10
0.0
  20
0.0
  30
0.0
   3
_CLOSEDBLANK
   0
LINE
   5
183
 100
AcDbEntity
   8
0
 100
AcDbLine
   6
BYBLOCK
  62
0
  10
-1.0000000000000
  20
 0.16666666666667
  30
0.0
  11
0.0
  21
0.0
  31
0.0
   0
LINE
   5
184
 100
AcDbEntity
   8
0
 100
AcDbLine
   6
BYBLOCK
  62
0
  10
0.0
  20
0.0
  30
0.0
  11
-1.0000000000000
  21
-0.16666666666667
  31
0.0
   0
LINE
   5
185
 100
AcDbEntity
   8
0
 100
AcDbLine
   6
BYBLOCK
  62
0
  10
-1.0000000000000
  20
 0.16666666666667
  30
0.0
  11
-1.0000000000000
  21
-0.16666666666667
  31
0.0
   0
ENDBLK
   5
186
 100
AcDbEntity
   8
0
 100
AcDbBlockEnd
   0
BLOCK
   5
187
 100
AcDbEntity
   8
0
 100
AcDbBlockBegin
   2
_DOT
  70
0
  10
0.0
  20
0.0
  30
0.0
   3
_DOT
   0
POLYLINE
   5
188
 100
AcDbEntity
   8
0
   6
BYBLOCK
  62
0
 100
AcDb2dPolyline
  66
1
  10
0.0
  20
0.0
  30
0.0
  70
1
  40
 0.50000000000000
  41
 0.50000000000000
   0
VERTEX
   5
189
 100
AcDbEntity
   8
0
   6
BYBLOCK
  62
0
 100
AcDbVertex
 100
AcDb2dVertex
  10
-0.25000000000000
  20
0.0
  30
0.0
  42
 1.0000000000000
  40
 0.50000000000000
  41
 0.50000000000000
   0
VERTEX
   5
18A
 100
AcDbEntity
   8
0
   6
BYBLOCK
  62
0
 100
AcDbVertex
 100
AcDb2dVertex
  10
 0.25000000000000
  20
0.0
  30
0.0
  42
 1.0000000000000
  40
 0.50000000000000
  41
 0.50000000000000
   0
SEQEND
   5
18B
 100
AcDbEntity
   8
0
   6
BYBLOCK
  62
0
   0
LINE
   5
18C
 100
AcDbEntity
   8
0
 100
AcDbLine
   6
BYBLOCK
  62
0
  10
-0.50000000000000
  20
0.0
  30
0.0
  11
-1.0000000000000
  21
0.0
  31
0.0
   0
ENDBLK
   5
18D
 100
AcDbEntity
   8
0
 100
AcDbBlockEnd
   0
BLOCK
   5
18E
 100
AcDbEntity
   8
0
 100
AcDbBlockBegin
   2
_DOTSMALL
  70
0
  10
0.0
  20
0.0
  30
0.0
   3
_DOTSMALL
   0
POLYLINE
   5
18F
 100
AcDbEntity
   8
0
   6
BYBLOCK
  62
0
 100
AcDb2dPolyline
  66
1
  10
0.0
  20
0.0
  30
0.0
  70
1
  40
 0.50000000000000
  41
 0.50000000000000
   0
VERTEX
   5
190
 100
AcDbEntity
   8
0
   6
BYBLOCK
  62
0
 100
AcDbVertex
 100
AcDb2dVertex
  10
-0.62500000000000E-1
  20
0.0
  30
0.0
  42
 1.0000000000000
  40
 0.50000000000000
  41
 0.50000000000000
   0
VERTEX
   5
191
 100
AcDbEntity
   8
0
   6
BYBLOCK
  62
0
 100
AcDbVertex
 100
AcDb2dVertex
  10
 0.62500000000000E-1
  20
0.0
  30
0.0
  42
 1.0000000000000
  40
 0.50000000000000
  41
 0.50000000000000
   0
SEQEND
   5
192
 100
AcDbEntity
   8
0
   6
BYBLOCK
  62
0
   0
ENDBLK
   5
193
 100
AcDbEntity
   8
0
 100
AcDbBlockEnd
   0
BLOCK
   5
194
 100
AcDbEntity
   8
0
 100
AcDbBlockBegin
   2
_DATUMBLANK
  70
0
  10
0.0
  20
0.0
  30
0.0
   3
_DATUMBLANK
   0
LINE
   5
195
 100
AcDbEntity
   8
0
 100
AcDbLine
   6
BYBLOCK
  62
0
  10
0.0
  20
 0.57735027000000
  30
0.0
  11
-1.0000000000000
  21
0.0
  31
0.0
   0
LINE
   5
196
 100
AcDbEntity
   8
0
 100
AcDbLine
   6
BYBLOCK
  62
0
  10
-1.0000000000000
  20
0.0
  30
0.0
  11
0.0
  21
-0.57735027000000
  31
0.0
   0
LINE
   5
197
 100
AcDbEntity
   8
0
 100
AcDbLine
   6
BYBLOCK
  62
0
  10
0.0
  20
-0.57735027000000
  30
0.0
  11
0.0
  21
 0.57735027000000
  31
0.0
   0
ENDBLK
   5
198
 100
AcDbEntity
   8
0
 100
AcDbBlockEnd
   0
BLOCK
   5
199
 100
AcDbEntity
   8
0
 100
AcDbBlockBegin
   2
_DATUMFILLED
  70
0
  10
0.0
  20
0.0
  30
0.0
   3
_DATUMFILLED
   0
SOLID
   5
19A
 100
AcDbEntity
   8
0
 100
AcDbTrace
   6
BYBLOCK
  62
0
  10
0.0
  20
 0.57735027000000
  30
0.0
  11
-1.0000000000000
  21
0.0
  31
0.0
  12
0.0
  22
-0.57735027000000
  32
0.0
  13
0.0
  23
-0.57735027000000
  33
0.0
   0
ENDBLK
   5
19B
 100
AcDbEntity
   8
0
 100
AcDbBlockEnd
   0
BLOCK
   5
19C
 100
AcDbEntity
   8
0
 100
AcDbBlockBegin
   2
_ORIGIN
  70
0
  10
0.0
  20
0.0
  30
0.0
   3
_ORIGIN
   0
CIRCLE
   5
19D
 100
AcDbEntity
   8
0
 100
AcDbCircle
   6
BYBLOCK
  62
0
  10
0.0
  20
0.0
  30
0.0
  40
 0.50000000000000
   0
LINE
   5
19E
 100
AcDbEntity
   8
0
 100
AcDbLine
   6
BYBLOCK
  62
0
  10
0.0
  20
0.0
  30
0.0
  11
-1.0000000000000
  21
0.0
  31
0.0
   0
ENDBLK
   5
19F
 100
AcDbEntity
   8
0
 100
AcDbBlockEnd
   0
BLOCK
   5
1A0
 100
AcDbEntity
   8
0
 100
AcDbBlockBegin
   2
_NONE
  70
0
  10
0.0
  20
0.0
  30
0.0
   3
_NONE
   0
CIRCLE
   5
1A1
 100
AcDbEntity
   8
0
 100
AcDbCircle
   6
BYBLOCK
  62
0
  10
0.0
  20
0.0
  30
0.0
  40
 0.25000000000000
   0
ENDBLK
   5
1A2
 100
AcDbEntity
   8
0
 100
AcDbBlockEnd
   0
BLOCK
   5
1A3
 100
AcDbEntity
   8
0
 100
AcDbBlockBegin
   2
_DOTBLANK
  70
0
  10
0.0
  20
0.0
  30
0.0
   3
_DOTBLANK
   0
CIRCLE
   5
1A4
 100
AcDbEntity
   8
0
 100
AcDbCircle
   6
BYBLOCK
  62
0
  10
0.0
  20
0.0
  30
0.0
  40
 0.50000000000000
   0
LINE
   5
1A5
 100
AcDbEntity
   8
0
 100
AcDbLine
   6
BYBLOCK
  62
0
  10
-0.50000000000000
  20
0.0
  30
0.0
  11
-1.0000000000000
  21
0.0
  31
0.0
   0
ENDBLK
   5
1A6
 100
AcDbEntity
   8
0
 100
AcDbBlockEnd
   0
BLOCK
   5
1A7
 100
AcDbEntity
   8
0
 100
AcDbBlockBegin
   2
_INTEGRAL
  70
0
  10
0.0
  20
0.0
  30
0.0
   3
_INTEGRAL
   0
ARC
   5
1A8
 100
AcDbEntity
   8
0
   6
BYBLOCK
  62
0
 100
AcDbCircle
  10
 0.44488800000000
  20
-0.91335000000000E-1
  30
0.0
  40
 0.45416700000000
 100
AcDbArc
  50
 102.00000000000
  51
 168.00000000000
   0
ARC
   5
1A9
 100
AcDbEntity
   8
0
   6
BYBLOCK
  62
0
 100
AcDbCircle
  10
-0.44488800000000
  20
 0.91335000000000E-1
  30
0.0
  40
 0.45416700000000
 100
AcDbArc
  50
 282.00000000000
  51
 348.00000000000
   0
ENDBLK
   5
1AA
 100
AcDbEntity
   8
0
 100
AcDbBlockEnd
   0
BLOCK
   5
1AB
 100
AcDbEntity
   8
0
 100
AcDbBlockBegin
   2
*D1
  70
65
  10
0.0
  20
0.0
  30
0.0
   3
*D1
   0
LINE
   5
1AC
 100
AcDbEntity
   8
0
 100
AcDbLine
   6
CONTINUOUS
  62
10
  10
 1384.1245427376
  20
 148.67575358954
  30
0.0
  11
 1384.1245427376
  21
 195.03649861859
  31
0.0
   0
LINE
   5
1AD
 100
AcDbEntity
   8
0
 100
AcDbLine
   6
CONTINUOUS
  62
10
  10
 1404.1245427376
  20
 186.27575358664
  30
0.0
  11
 1404.1245427376
  21
 195.03649861859
  31
0.0
   0
LINE
   5
1AE
 100
AcDbEntity
   8
0
 100
AcDbLine
   6
CONTINUOUS
  62
10
  10
 1384.1245427376
  20
 193.03649861859
  30
0.0
  11
 1394.1245427376
  21
 193.03649861859
  31
0.0
   0
LINE
   5
1AF
 100
AcDbEntity
   8
0
 100
AcDbLine
   6
CONTINUOUS
  62
10
  10
 1404.1245427376
  20
 193.03649861859
  30
0.0
  11
 1394.1245427376
  21
 193.03649861859
  31
0.0
   0
INSERT
   5
1B0
 100
AcDbEntity
   8
0
   6
CONTINUOUS
  62
10
 100
AcDbBlockReference
   2
_OPEN30
  10
 1384.1245427376
  20
 193.03649861859
  30
0.0
  41
 3.0000000000000
  42
 3.0000000000000
  43
 3.0000000000000
  50
 180.00000000000
   0
INSERT
   5
1B1
 100
AcDbEntity
   8
0
   6
CONTINUOUS
  62
10
 100
AcDbBlockReference
   2
_OPEN30
  10
 1404.1245427376
  20
 193.03649861859
  30
0.0
  41
 3.0000000000000
  42
 3.0000000000000
  43
 3.0000000000000
  50
0.0
   0
MTEXT
   5
1B2
 100
AcDbEntity
   8
0
  62
10
 100
AcDbMText
  10
 1394.1245427376
  20
 194.75078433287
  30
0.0
  40
 4.0000000000000
  41
0.0
  71
8
  72
1
   1
\A1;20
   7
GMM001
   0
ENDBLK
   5
1B3
 100
AcDbEntity
   8
0
 100
AcDbBlockEnd
   0
BLOCK
   5
1B4
 100
AcDbEntity
   8
0
 100
AcDbBlockBegin
   2
*D2
  70
65
  10
0.0
  20
0.0
  30
0.0
   3
*D2
   0
LINE
   5
1B5
 100
AcDbEntity
   8
0
 100
AcDbLine
   6
CONTINUOUS
  62
10
  10
 1323.5879534039
  20
 185.87575358664
  30
0.0
  11
 1323.5879534039
  21
 201.99303165469
  31
0.0
   0
LINE
   5
1B6
 100
AcDbEntity
   8
0
 100
AcDbLine
   6
CONTINUOUS
  62
10
  10
 1312.5879534039
  20
 199.99303165469
  30
0.0
  11
 1318.0879534039
  21
 199.99303165469
  31
0.0
   0
LINE
   5
1B7
 100
AcDbEntity
   8
0
 100
AcDbLine
   6
CONTINUOUS
  62
10
  10
 1323.5879534039
  20
 199.99303165469
  30
0.0
  11
 1318.0879534039
  21
 199.99303165469
  31
0.0
   0
INSERT
   5
1B8
 100
AcDbEntity
   8
0
   6
CONTINUOUS
  62
10
 100
AcDbBlockReference
   2
_OPEN30
  10
 1312.5879534039
  20
 199.99303165469
  30
0.0
  41
 3.0000000000000
  42
 3.0000000000000
  43
 3.0000000000000
  50
 180.00000000000
   0
INSERT
   5
1B9
 100
AcDbEntity
   8
0
   6
CONTINUOUS
  62
10
 100
AcDbBlockReference
   2
_OPEN30
  10
 1323.5879534039
  20
 199.99303165469
  30
0.0
  41
 3.0000000000000
  42
 3.0000000000000
  43
 3.0000000000000
  50
0.0
   0
MTEXT
   5
1BA
 100
AcDbEntity
   8
0
  62
10
 100
AcDbMText
  10
 1318.0879534039
  20
 201.70731736898
  30
0.0
  40
 4.0000000000000
  41
0.0
  71
8
  72
1
   1
\A1;11
   7
GMM001
   0
ENDBLK
   5
1BB
 100
AcDbEntity
   8
0
 100
AcDbBlockEnd
   0
BLOCK
   5
1BC
 100
AcDbEntity
   8
0
 100
AcDbBlockBegin
   2
*D3
  70
65
  10
0.0
  20
0.0
  30
0.0
   3
*D3
   0
LINE
   5
1BD
 100
AcDbEntity
   8
0
 100
AcDbLine
   6
CONTINUOUS
  62
10
  10
 1312.5879534039
  20
 187.87575358664
  30
0.0
  11
 1312.5879534039
  21
 195.08124726797
  31
0.0
   0
LINE
   5
1BE
 100
AcDbEntity
   8
0
 100
AcDbLine
   6
CONTINUOUS
  62
10
  10
 1318.5879534039
  20
 186.71754861144
  30
0.0
  11
 1318.5879534039
  21
 195.08124726797
  31
0.0
   0
LINE
   5
1BF
 100
AcDbEntity
   8
0
 100
AcDbLine
   6
CONTINUOUS
  62
10
  10
 1312.5879534039
  20
 193.08124726797
  30
0.0
  11
 1315.5879534039
  21
 193.08124726797
  31
0.0
   0
LINE
   5
1C0
 100
AcDbEntity
   8
0
 100
AcDbLine
   6
CONTINUOUS
  62
10
  10
 1318.5879534039
  20
 193.08124726797
  30
0.0
  11
 1315.5879534039
  21
 193.08124726797
  31
0.0
   0
INSERT
   5
1C1
 100
AcDbEntity
   8
0
   6
CONTINUOUS
  62
10
 100
AcDbBlockReference
   2
_OPEN30
  10
 1312.5879534039
  20
 193.08124726797
  30
0.0
  41
 3.0000000000000
  42
 3.0000000000000
  43
 3.0000000000000
  50
 180.00000000000
   0
INSERT
   5
1C2
 100
AcDbEntity
   8
0
   6
CONTINUOUS
  62
10
 100
AcDbBlockReference
   2
_OPEN30
  10
 1318.5879534039
  20
 193.08124726797
  30
0.0
  41
 3.0000000000000
  42
 3.0000000000000
  43
 3.0000000000000
  50
0.0
   0
MTEXT
   5
1C3
 100
AcDbEntity
   8
0
  62
10
 100
AcDbMText
  10
 1315.5879534039
  20
 194.79553298226
  30
0.0
  40
 4.0000000000000
  41
0.0
  71
8
  72
1
   1
\A1;6
   7
GMM001
   0
ENDBLK
   5
1C4
 100
AcDbEntity
   8
0
 100
AcDbBlockEnd
   0
BLOCK
   5
1C5
 100
AcDbEntity
   8
0
 100
AcDbBlockBegin
   2
*D4
  70
65
  10
0.0
  20
0.0
  30
0.0
   3
*D4
   0
LINE
   5
1C6
 100
AcDbEntity
   8
0
 100
AcDbLine
   6
CONTINUOUS
  62
10
  10
 1403.1245427376
  20
 187.87575358664
  30
0.0
  11
 1372.1466897223
  21
 187.87575358664
  31
0.0
   0
LINE
   5
1C7
 100
AcDbEntity
   8
0
 100
AcDbLine
   6
CONTINUOUS
  62
10
  10
 1374.1466897223
  20
 149.97575358954
  30
0.0
  11
 1374.1466897223
  21
 168.92575358809
  31
0.0
   0
LINE
   5
1C8
 100
AcDbEntity
   8
0
 100
AcDbLine
   6
CONTINUOUS
  62
10
  10
 1374.1466897223
  20
 187.87575358664
  30
0.0
  11
 1374.1466897223
  21
 168.92575358809
  31
0.0
   0
INSERT
   5
1C9
 100
AcDbEntity
   8
0
   6
CONTINUOUS
  62
10
 100
AcDbBlockReference
   2
_OPEN30
  10
 1374.1466897223
  20
 149.97575358954
  30
0.0
  41
 3.0000000000000
  42
 3.0000000000000
  43
 3.0000000000000
  50
 270.00000000000
   0
INSERT
   5
1CA
 100
AcDbEntity
   8
0
   6
CONTINUOUS
  62
10
 100
AcDbBlockReference
   2
_OPEN30
  10
 1374.1466897223
  20
 187.87575358664
  30
0.0
  41
 3.0000000000000
  42
 3.0000000000000
  43
 3.0000000000000
  50
 90.000000000000
   0
MTEXT
   5
1CB
 100
AcDbEntity
   8
0
  62
10
 100
AcDbMText
  10
 1372.4324040081
  20
 168.92575358809
  30
0.0
  40
 4.0000000000000
  41
0.0
  71
8
  72
1
   1
\A1;37.9
   7
GMM001
  11
0.0
  21
 1.0000000000000
  31
0.0
   0
ENDBLK
   5
1CC
 100
AcDbEntity
   8
0
 100
AcDbBlockEnd
   0
BLOCK
   5
1CD
 100
AcDbEntity
   8
0
 100
AcDbBlockBegin
   2
*D5
  70
65
  10
0.0
  20
0.0
  30
0.0
   3
*D5
   0
POLYLINE
   5
1CE
 100
AcDbEntity
   8
0
   6
CONTINUOUS
  62
10
 100
AcDb2dPolyline
  66
1
  10
0.0
  20
0.0
  30
0.0
  70
0
   0
VERTEX
   5
1CF
 100
AcDbEntity
   8
0
   6
CONTINUOUS
  62
10
 100
AcDbVertex
 100
AcDb2dVertex
  10
 1318.7384000559
  20
 182.76971248887
  30
0.0
   0
VERTEX
   5
1D0
 100
AcDbEntity
   8
0
   6
CONTINUOUS
  62
10
 100
AcDbVertex
 100
AcDb2dVertex
  10
 1307.0180989816
  20
 191.16202683840
  30
0.0
   0
VERTEX
   5
1D1
 100
AcDbEntity
   8
0
   6
CONTINUOUS
  62
10
 100
AcDbVertex
 100
AcDb2dVertex
  10
 1303.0180989816
  20
 191.16202683840
  30
0.0
   0
SEQEND
   5
1D2
 100
AcDbEntity
   8
0
   6
CONTINUOUS
  62
10
   0
INSERT
   5
1D3
 100
AcDbEntity
   8
0
   6
CONTINUOUS
  62
10
 100
AcDbBlockReference
   2
_OPEN30
  10
 1318.7384000559
  20
 182.76971248887
  30
0.0
  41
 3.0000000000000
  42
 3.0000000000000
  43
 3.0000000000000
  50
 324.39546601957
   0
MTEXT
   5
1D4
 100
AcDbEntity
   8
0
  62
10
 100
AcDbMText
  10
 1303.0180989816
  20
 192.87631255268
  30
0.0
  40
 4.0000000000000
  41
0.0
  71
7
  72
1
   1
\A1;穴
   7
GMM001
   0
ENDBLK
   5
1D5
 100
AcDbEntity
   8
0
 100
AcDbBlockEnd
   0
BLOCK
   5
1D6
 100
AcDbEntity
   8
0
 100
AcDbBlockBegin
   2
*D6
  70
65
  10
0.0
  20
0.0
  30
0.0
   3
*D6
   0
LINE
   5
1D7
 100
AcDbEntity
   8
0
 100
AcDbLine
   6
CONTINUOUS
  62
10
  10
 1339.1814237012
  20
 155.46922389425
  30
0.0
  11
 1347.6879533965
  21
 163.97575358954
  31
0.0
   0
INSERT
   5
1D8
 100
AcDbEntity
   8
0
   6
CONTINUOUS
  62
10
 100
AcDbBlockReference
   2
_OPEN30
  10
 1347.6879533965
  20
 163.97575358954
  30
0.0
  41
 3.0000000000000
  42
 3.0000000000000
  43
 3.0000000000000
  50
 225.00000000000
   0
MTEXT
   5
1D9
 100
AcDbEntity
   8
0
  62
10
 100
AcDbMText
  10
 1343.6260948972
  20
 162.33826119720
  30
0.0
  40
 4.0000000000000
  41
0.0
  71
9
  72
1
   1
\A1;C2
   7
GMM001
  11
 0.70710678118654
  21
 0.70710678118655
  31
0.0
   0
ENDBLK
   5
1DA
 100
AcDbEntity
   8
0
 100
AcDbBlockEnd
   0
BLOCK
   5
1DB
 100
AcDbEntity
   8
0
 100
AcDbBlockBegin
   2
*D7
  70
65
  10
0.0
  20
0.0
  30
0.0
   3
*D7
   0
LINE
   5
1DC
 100
AcDbEntity
   8
0
 100
AcDbLine
   6
CONTINUOUS
  62
10
  10
 1322.9087470121
  20
 182.02575358664
  30
0.0
  11
 1364.6505739791
  21
 182.02575358664
  31
0.0
   0
LINE
   5
1DD
 100
AcDbEntity
   8
0
 100
AcDbLine
   6
CONTINUOUS
  62
10
  10
 1348.6879533965
  20
 149.97575358954
  30
0.0
  11
 1364.6505739791
  21
 149.97575358954
  31
0.0
   0
LINE
   5
1DE
 100
AcDbEntity
   8
0
 100
AcDbLine
   6
CONTINUOUS
  62
10
  10
 1362.6505739791
  20
 182.02575358664
  30
0.0
  11
 1362.6505739791
  21
 166.00075358809
  31
0.0
   0
LINE
   5
1DF
 100
AcDbEntity
   8
0
 100
AcDbLine
   6
CONTINUOUS
  62
10
  10
 1362.6505739791
  20
 149.97575358954
  30
0.0
  11
 1362.6505739791
  21
 166.00075358809
  31
0.0
   0
INSERT
   5
1E0
 100
AcDbEntity
   8
0
   6
CONTINUOUS
  62
10
 100
AcDbBlockReference
   2
_OPEN30
  10
 1362.6505739791
  20
 182.02575358664
  30
0.0
  41
 3.0000000000000
  42
 3.0000000000000
  43
 3.0000000000000
  50
 90.000000000000
   0
INSERT
   5
1E1
 100
AcDbEntity
   8
0
   6
CONTINUOUS
  62
10
 100
AcDbBlockReference
   2
_OPEN30
  10
 1362.6505739791
  20
 149.97575358954
  30
0.0
  41
 3.0000000000000
  42
 3.0000000000000
  43
 3.0000000000000
  50
 270.00000000000
   0
MTEXT
   5
1E2
 100
AcDbEntity
   8
0
  62
10
 100
AcDbMText
  10
 1360.9362882649
  20
 166.00075358809
  30
0.0
  40
 4.0000000000000
  41
0.0
  71
8
  72
1
   1
\A1;32
   7
GMM001
  11
0.0
  21
 1.0000000000000
  31
0.0
   0
ENDBLK
   5
1E3
 100
AcDbEntity
   8
0
 100
AcDbBlockEnd
   0
BLOCK
   5
1E4
 100
AcDbEntity
   8
0
 100
AcDbBlockBegin
   2
*D8
  70
65
  10
0.0
  20
0.0
  30
0.0
   3
*D8
   0
LINE
   5
1E5
 100
AcDbEntity
   8
0
 100
AcDbLine
   6
CONTINUOUS
  62
10
  10
 1348.6879533965
  20
 149.97575358954
  30
0.0
  11
 1356.8189957776
  21
 149.97575358954
  31
0.0
   0
LINE
   5
1E6
 100
AcDbEntity
   8
0
 100
AcDbLine
   6
CONTINUOUS
  62
10
  10
 1346.6879533965
  20
 164.97575358954
  30
0.0
  11
 1356.8189957776
  21
 164.97575358954
  31
0.0
   0
LINE
   5
1E7
 100
AcDbEntity
   8
0
 100
AcDbLine
   6
CONTINUOUS
  62
10
  10
 1354.8189957776
  20
 149.97575358954
  30
0.0
  11
 1354.8189957776
  21
 157.47575358954
  31
0.0
   0
LINE
   5
1E8
 100
AcDbEntity
   8
0
 100
AcDbLine
   6
CONTINUOUS
  62
10
  10
 1354.8189957776
  20
 164.97575358954
  30
0.0
  11
 1354.8189957776
  21
 157.47575358954
  31
0.0
   0
INSERT
   5
1E9
 100
AcDbEntity
   8
0
   6
CONTINUOUS
  62
10
 100
AcDbBlockReference
   2
_OPEN30
  10
 1354.8189957776
  20
 149.97575358954
  30
0.0
  41
 3.0000000000000
  42
 3.0000000000000
  43
 3.0000000000000
  50
 270.00000000000
   0
INSERT
   5
1EA
 100
AcDbEntity
   8
0
   6
CONTINUOUS
  62
10
 100
AcDbBlockReference
   2
_OPEN30
  10
 1354.8189957776
  20
 164.97575358954
  30
0.0
  41
 3.0000000000000
  42
 3.0000000000000
  43
 3.0000000000000
  50
 90.000000000000
   0
MTEXT
   5
1EB
 100
AcDbEntity
   8
0
  62
10
 100
AcDbMText
  10
 1353.1047100633
  20
 157.47575358954
  30
0.0
  40
 4.0000000000000
  41
0.0
  71
8
  72
1
   1
\A1;15
   7
GMM001
  11
0.0
  21
 1.0000000000000
  31
0.0
   0
ENDBLK
   5
1EC
 100
AcDbEntity
   8
0
 100
AcDbBlockEnd
   0
BLOCK
   5
1ED
 100
AcDbEntity
   8
0
 100
AcDbBlockBegin
   2
*D9
  70
65
  10
0.0
  20
0.0
  30
0.0
   3
*D9
   0
LINE
   5
1EE
 100
AcDbEntity
   8
0
 100
AcDbLine
   6
CONTINUOUS
  62
10
  10
 1312.5879534039
  20
 185.87575358664
  30
0.0
  11
 1312.5879534039
  21
 201.99303165469
  31
0.0
   0
LINE
   5
1EF
 100
AcDbEntity
   8
0
 100
AcDbLine
   6
CONTINUOUS
  62
10
  10
 1312.5879534039
  20
 199.99303165469
  30
0.0
  11
 1033.2879534002
  21
 199.99303165469
  31
0.0
   0
INSERT
   5
1F0
 100
AcDbEntity
   8
0
   6
CONTINUOUS
  62
10
 100
AcDbBlockReference
   2
_OPEN30
  10
 1312.5879534039
  20
 199.99303165469
  30
0.0
  41
 3.0000000000000
  42
 3.0000000000000
  43
 3.0000000000000
  50
0.0
   0
MTEXT
   5
1F1
 100
AcDbEntity
   8
0
  62
10
 100
AcDbMText
  10
 1062.2601900604
  20
 202.30554984976
  30
0.0
  40
 4.0000000000000
  41
0.0
  71
8
  72
1
   1
\A1;521.2%%p1
   7
GMM001
   0
ENDBLK
   5
1F2
 100
AcDbEntity
   8
0
 100
AcDbBlockEnd
   0
BLOCK
   5
1F3
 100
AcDbEntity
   8
0
 100
AcDbBlockBegin
   2
*D10
  70
65
  10
0.0
  20
0.0
  30
0.0
   3
*D10
   0
LINE
   5
1F4
 100
AcDbEntity
   8
0
 100
AcDbLine
   6
CONTINUOUS
  62
10
  10
 1384.1245427376
  20
 131.27575358954
  30
0.0
  11
 1384.1245427376
  21
 118.73136641433
  31
0.0
   0
LINE
   5
1F5
 100
AcDbEntity
   8
0
 100
AcDbLine
   6
CONTINUOUS
  62
10
  10
 1402.6245427376
  20
 129.97575358954
  30
0.0
  11
 1402.6245427376
  21
 118.73136641433
  31
0.0
   0
LINE
   5
1F6
 100
AcDbEntity
   8
0
 100
AcDbLine
   6
CONTINUOUS
  62
10
  10
 1384.1245427376
  20
 120.73136641433
  30
0.0
  11
 1393.3745427376
  21
 120.73136641433
  31
0.0
   0
LINE
   5
1F7
 100
AcDbEntity
   8
0
 100
AcDbLine
   6
CONTINUOUS
  62
10
  10
 1402.6245427376
  20
 120.73136641433
  30
0.0
  11
 1393.3745427376
  21
 120.73136641433
  31
0.0
   0
INSERT
   5
1F8
 100
AcDbEntity
   8
0
   6
CONTINUOUS
  62
10
 100
AcDbBlockReference
   2
_OPEN30
  10
 1384.1245427376
  20
 120.73136641433
  30
0.0
  41
 3.0000000000000
  42
 3.0000000000000
  43
 3.0000000000000
  50
 180.00000000000
   0
INSERT
   5
1F9
 100
AcDbEntity
   8
0
   6
CONTINUOUS
  62
10
 100
AcDbBlockReference
   2
_OPEN30
  10
 1402.6245427376
  20
 120.73136641433
  30
0.0
  41
 3.0000000000000
  42
 3.0000000000000
  43
 3.0000000000000
  50
0.0
   0
MTEXT
   5
1FA
 100
AcDbEntity
   8
0
  62
10
 100
AcDbMText
  10
 1393.3745427376
  20
 122.44565212861
  30
0.0
  40
 4.0000000000000
  41
0.0
  71
8
  72
1
   1
\A1;18.5
   7
GMM001
   0
ENDBLK
   5
1FB
 100
AcDbEntity
   8
0
 100
AcDbBlockEnd
   0
BLOCK
   5
1FC
 100
AcDbEntity
   8
0
 100
AcDbBlockBegin
   2
*D11
  70
65
  10
0.0
  20
0.0
  30
0.0
   3
*D11
   0
LINE
   5
1FD
 100
AcDbEntity
   8
0
 100
AcDbLine
   6
CONTINUOUS
  62
10
  10
 1349.9879533965
  20
 131.27575358954
  30
0.0
  11
 1349.9879533965
  21
 110.29537769551
  31
0.0
   0
LINE
   5
1FE
 100
AcDbEntity
   8
0
 100
AcDbLine
   6
CONTINUOUS
  62
10
  10
 1349.9879533965
  20
 112.29537769551
  30
0.0
  11
 1051.9879533965
  21
 112.29537769551
  31
0.0
   0
INSERT
   5
1FF
 100
AcDbEntity
   8
0
   6
CONTINUOUS
  62
10
 100
AcDbBlockReference
   2
_OPEN30
  10
 1349.9879533965
  20
 112.29537769551
  30
0.0
  41
 3.0000000000000
  42
 3.0000000000000
  43
 3.0000000000000
  50
0.0
   0
MTEXT
   5
200
 100
AcDbEntity
   8
0
  62
10
 100
AcDbMText
  10
 1058.4064233442
  20
 114.52893972066
  30
0.0
  40
 4.0000000000000
  41
0.0
  71
8
  72
1
   1
\A1;596%%p1
   7
GMM001
   0
ENDBLK
   5
201
 100
AcDbEntity
   8
0
 100
AcDbBlockEnd
   0
BLOCK
   5
202
 100
AcDbEntity
   8
0
 100
AcDbBlockBegin
   2
*D12
  70
65
  10
0.0
  20
0.0
  30
0.0
   3
*D12
   0
LINE
   5
203
 100
AcDbEntity
   8
0
 100
AcDbLine
   6
CONTINUOUS
  62
10
  10
 1385.4245427376
  20
 129.97575358954
  30
0.0
  11
 1372.1466897223
  21
 129.97575358954
  31
0.0
   0
LINE
   5
204
 100
AcDbEntity
   8
0
 100
AcDbLine
   6
CONTINUOUS
  62
10
  10
 1385.4245427376
  20
 149.97575358954
  30
0.0
  11
 1372.1466897223
  21
 149.97575358954
  31
0.0
   0
LINE
   5
205
 100
AcDbEntity
   8
0
 100
AcDbLine
   6
CONTINUOUS
  62
10
  10
 1374.1466897223
  20
 129.97575358954
  30
0.0
  11
 1374.1466897223
  21
 139.97575358954
  31
0.0
   0
LINE
   5
206
 100
AcDbEntity
   8
0
 100
AcDbLine
   6
CONTINUOUS
  62
10
  10
 1374.1466897223
  20
 149.97575358954
  30
0.0
  11
 1374.1466897223
  21
 139.97575358954
  31
0.0
   0
INSERT
   5
207
 100
AcDbEntity
   8
0
   6
CONTINUOUS
  62
10
 100
AcDbBlockReference
   2
_OPEN30
  10
 1374.1466897223
  20
 129.97575358954
  30
0.0
  41
 3.0000000000000
  42
 3.0000000000000
  43
 3.0000000000000
  50
 270.00000000000
   0
INSERT
   5
208
 100
AcDbEntity
   8
0
   6
CONTINUOUS
  62
10
 100
AcDbBlockReference
   2
_OPEN30
  10
 1374.1466897223
  20
 149.97575358954
  30
0.0
  41
 3.0000000000000
  42
 3.0000000000000
  43
 3.0000000000000
  50
 90.000000000000
   0
MTEXT
   5
209
 100
AcDbEntity
   8
0
  62
10
 100
AcDbMText
  10
 1372.4324040081
  20
 139.97575358954
  30
0.0
  40
 4.0000000000000
  41
0.0
  71
8
  72
1
   1
\A1;20%%p1
   7
GMM001
  11
0.0
  21
 1.0000000000000
  31
0.0
   0
ENDBLK
   5
20A
 100
AcDbEntity
   8
0
 100
AcDbBlockEnd
   0
ENDSEC
   0
SECTION
   2
ENTITIES
   0
LINE
   5
20B
 100
AcDbEntity
   8
0
 100
AcDbLine
   6
CONTINUOUS
  62
10
  10
 1409.1630615731
  20
 266.65964124033
  30
0.0
  11
 1409.1630615731
  21
-10.229579951073
  31
0.0
   0
LINE
   5
20C
 100
AcDbEntity
   8
0
 100
AcDbLine
   6
DASHDOT
  62
10
  10
 1051.9879533965
  20
 68.668014505167
  30
0.0
  11
 1051.9879533965
  21
 37.479260232163
  31
0.0
   0
LINE
   5
20D
 100
AcDbEntity
   8
0
 100
AcDbLine
   6
CONTINUOUS
  62
10
  10
 1312.5879534039
  20
 43.524775027151
  30
0.0
  11
 1312.5879534039
  21
 42.524775027151
  31
0.0
   0
LINE
   5
20E
 100
AcDbEntity
   8
0
 100
AcDbLine
   6
CONTINUOUS
  62
10
  10
 1312.5879534039
  20
 42.524775027151
  30
0.0
  11
 1323.5879534039
  21
 42.524775027151
  31
0.0
   0
LINE
   5
20F
 100
AcDbEntity
   8
0
 100
AcDbLine
   6
CONTINUOUS
  62
10
  10
 1323.5879534039
  20
 43.524775027151
  30
0.0
  11
 1323.5879534039
  21
 42.524775027151
  31
0.0
   0
LINE
   5
210
 100
AcDbEntity
   8
0
 100
AcDbLine
   6
HIDDEN
  62
10
  10
 1312.5879534039
  20
 43.324775027151
  30
0.0
  11
 1323.5879534039
  21
 43.324775027151
  31
0.0
   0
LINE
   5
211
 100
AcDbEntity
   8
0
 100
AcDbLine
   6
DASHDOT
  62
10
  10
 1318.5879534039
  20
 47.393511351337
  30
0.0
  11
 1318.5879534039
  21
 39.365202594672
  31
0.0
   0
LINE
   5
212
 100
AcDbEntity
   8
89
 100
AcDbLine
   6
CONTINUOUS
  62
10
  10
 1348.6879533965
  20
 148.67575358954
  30
0.0
  11
 1349.9879533965
  21
 148.67575358954
  31
0.0
   0
LINE
   5
213
 100
AcDbEntity
   8
89
 100
AcDbLine
   6
CONTINUOUS
  62
10
  10
 1348.6879533965
  20
 149.97575358954
  30
0.0
  11
 1051.9879533965
  21
 149.97575358954
  31
0.0
   0
LINE
   5
214
 100
AcDbEntity
   8
89
 100
AcDbLine
   6
HIDDEN
  62
10
  10
 1348.6879533965
  20
 149.17575358954
  30
0.0
  11
 1051.9879533965
  21
 149.17575358954
  31
0.0
   0
ARC
   5
215
 100
AcDbEntity
   8
89
   6
CONTINUOUS
  62
10
 100
AcDbCircle
  10
 1385.4245427377
  20
 148.67575358954
  30
0.0
  40
 0.50000000000000
 100
AcDbArc
  50
 90.000000006462
  51
 180.00000000000
   0
POINT
   5
216
 100
AcDbEntity
   8
89
 100
AcDbPoint
  62
10
  10
 1384.9245427376
  20
 149.17575358954
  30
0.0
   0
ARC
   5
217
 100
AcDbEntity
   8
89
   6
CONTINUOUS
  62
10
 100
AcDbCircle
  10
 1385.4245427375
  20
 148.67575358954
  30
0.0
  40
 1.3000000000000
 100
AcDbArc
  50
 89.999999997264
  51
 180.00000000001
   0
POINT
   5
218
 100
AcDbEntity
   8
89
 100
AcDbPoint
  62
10
  10
 1384.1245427376
  20
 149.97575358954
  30
0.0
   0
POINT
   5
219
 100
AcDbEntity
   8
89
 100
AcDbPoint
  62
10
  10
 1403.1245427376
  20
 149.97575358954
  30
0.0
   0
POINT
   5
21A
 100
AcDbEntity
   8
89
 100
AcDbPoint
  62
10
  10
 1404.1245427376
  20
 149.17575358954
  30
0.0
   0
LINE
   5
21B
 100
AcDbEntity
   8
89
 100
AcDbLine
   6
CONTINUOUS
  62
10
  10
 1348.6879533965
  20
 62.524775027151
  30
0.0
  11
 1348.6879533965
  21
 43.524775027151
  31
0.0
   0
LINE
   5
21C
 100
AcDbEntity
   8
89
 100
AcDbLine
   6
HIDDEN
  62
10
  10
 1348.6879533965
  20
 61.724775027150
  30
0.0
  11
 1051.9879533965
  21
 61.724775027150
  31
0.0
   0
LINE
   5
21D
 100
AcDbEntity
   8
0
 100
AcDbLine
   6
CONTINUOUS
  62
10
  10
 1349.9879533965
  20
 61.224775027151
  30
0.0
  11
 1349.9879533965
  21
 43.524775027151
  31
0.0
   0
ARC
   5
21E
 100
AcDbEntity
   8
0
   6
CONTINUOUS
  62
10
 100
AcDbCircle
  10
 1348.6879533965
  20
 61.224775027151
  30
0.0
  40
 1.3000000000000
 100
AcDbArc
  50
0.0
  51
 89.999999998306
   0
POINT
   5
21F
 100
AcDbEntity
   8
0
 100
AcDbPoint
  62
10
  10
 1349.9879533965
  20
 62.524775027151
  30
0.0
   0
LINE
   5
220
 100
AcDbEntity
   8
0
 100
AcDbLine
   6
CONTINUOUS
  62
10
  10
 1051.9879533965
  20
 62.524775027151
  30
0.0
  11
 1348.6879533965
  21
 62.524775027151
  31
0.0
   0
LINE
   5
221
 100
AcDbEntity
   8
89
 100
AcDbLine
   6
CONTINUOUS
  62
10
  10
 1349.1879533965
  20
 61.224775027150
  30
0.0
  11
 1349.1879533965
  21
 43.524775027151
  31
0.0
   0
ARC
   5
222
 100
AcDbEntity
   8
89
   6
CONTINUOUS
  62
10
 100
AcDbCircle
  10
 1348.6879533967
  20
 61.224775027150
  30
0.0
  40
 0.50000000000000
 100
AcDbArc
  50
0.0
  51
 90.000000021417
   0
POINT
   5
223
 100
AcDbEntity
   8
89
 100
AcDbPoint
  62
10
  10
 1349.1879533965
  20
 61.724775027150
  30
0.0
   0
LINE
   5
224
 100
AcDbEntity
   8
0
 100
AcDbLine
   6
CONTINUOUS
  62
10
  10
 1349.9879533965
  20
 43.524775027151
  30
0.0
  11
 1349.1879533965
  21
 43.524775027151
  31
0.0
   0
LINE
   5
225
 100
AcDbEntity
   8
0
 100
AcDbLine
   6
CONTINUOUS
  62
10
  10
 1348.6879533965
  20
 43.524775027151
  30
0.0
  11
 1051.9879533965
  21
 43.524775027151
  31
0.0
   0
ARC
   5
226
 100
AcDbEntity
   8
89
   6
CONTINUOUS
  62
10
 100
AcDbCircle
  10
 1402.6245427376
  20
 150.47575358954
  30
0.0
  40
 0.50000000000000
 100
AcDbArc
  50
 269.99999999901
  51
0.0
   0
POINT
   5
227
 100
AcDbEntity
   8
89
 100
AcDbPoint
  62
10
  10
 1403.1245427376
  20
 149.97575358954
  30
0.0
   0
LINE
   5
228
 100
AcDbEntity
   8
89
 100
AcDbLine
   6
CONTINUOUS
  62
10
  10
 1385.4245427376
  20
 149.97575358954
  30
0.0
  11
 1402.6245427376
  21
 149.97575358954
  31
0.0
   0
ARC
   5
229
 100
AcDbEntity
   8
89
   6
CONTINUOUS
  62
10
 100
AcDbCircle
  10
 1402.6245427375
  20
 150.67575358954
  30
0.0
  40
 1.5000000000000
 100
AcDbArc
  50
 270.00000000255
  51
0.0
   0
POINT
   5
22A
 100
AcDbEntity
   8
89
 100
AcDbPoint
  62
10
  10
 1404.1245427376
  20
 149.17575358954
  30
0.0
   0
LINE
   5
22B
 100
AcDbEntity
   8
89
 100
AcDbLine
   6
CONTINUOUS
  62
10
  10
 1402.6245427376
  20
 149.17575358954
  30
0.0
  11
 1385.4245427376
  21
 149.17575358954
  31
0.0
   0
LINE
   5
22C
 100
AcDbEntity
   8
0
 100
AcDbLine
   6
CONTINUOUS
  62
10
  10
 1402.6245427376
  20
 149.17575358954
  30
0.0
  11
 1402.6245427376
  21
 149.97575358954
  31
0.0
   0
LINE
   5
22D
 100
AcDbEntity
   8
89
 100
AcDbLine
   6
CONTINUOUS
  62
10
  10
 1402.6245427376
  20
 148.67575358954
  30
0.0
  11
 1384.1245427376
  21
 148.67575358954
  31
0.0
   0
POINT
   5
22E
 100
AcDbEntity
   8
89
 100
AcDbPoint
  62
10
  10
 1323.5879534039
  20
 187.87575358664
  30
0.0
   0
POINT
   5
22F
 100
AcDbEntity
   8
89
 100
AcDbPoint
  62
10
  10
 1312.5879534039
  20
 187.87575358664
  30
0.0
   0
LINE
   5
230
 100
AcDbEntity
   8
0
 100
AcDbLine
   6
DASHDOT
  62
10
  10
 1318.5879534039
  20
 186.71754861144
  30
0.0
  11
 1318.5879534039
  21
 175.73107405531
  31
0.0
   0
LINE
   5
231
 100
AcDbEntity
   8
0
 100
AcDbLine
   6
CONTINUOUS
  62
10
  10
 1316.4879534039
  20
 181.27575358664
  30
0.0
  11
 1316.4879534039
  21
 182.77575358664
  31
0.0
   0
LINE
   5
232
 100
AcDbEntity
   8
0
 100
AcDbLine
   6
CONTINUOUS
  62
10
  10
 1320.6879534039
  20
 181.27575358664
  30
0.0
  11
 1320.6879534039
  21
 182.77575358664
  31
0.0
   0
ARC
   5
233
 100
AcDbEntity
   8
89
   6
CONTINUOUS
  62
10
 100
AcDbCircle
  10
 1318.5879534039
  20
 182.77575358664
  30
0.0
  40
 2.1000000000000
 100
AcDbArc
  50
0.0
  51
 180.00000000000
   0
ARC
   5
234
 100
AcDbEntity
   8
89
   6
CONTINUOUS
  62
10
 100
AcDbCircle
  10
 1318.5879534039
  20
 181.27575358664
  30
0.0
  40
 2.1000000000000
 100
AcDbArc
  50
 180.00000000000
  51
0.0
   0
LINE
   5
235
 100
AcDbEntity
   8
0
 100
AcDbLine
   6
DASHDOT
  62
10
  10
 1314.2067028924
  20
 182.02575358664
  30
0.0
  11
 1322.9087470121
  21
 182.02575358664
  31
0.0
   0
LINE
   5
236
 100
AcDbEntity
   8
89
 100
AcDbLine
   6
CONTINUOUS
  62
10
  10
 1403.1245427376
  20
 187.87575358664
  30
0.0
  11
 1403.1245427376
  21
 150.47575358954
  31
0.0
   0
LINE
   5
237
 100
AcDbEntity
   8
89
 100
AcDbLine
   6
CONTINUOUS
  62
10
  10
 1404.1245427376
  20
 150.67575358954
  30
0.0
  11
 1404.1245427376
  21
 187.87575358664
  31
0.0
   0
LINE
   5
238
 100
AcDbEntity
   8
89
 100
AcDbLine
   6
CONTINUOUS
  62
10
  10
 1404.1245427376
  20
 187.87575358664
  30
0.0
  11
 1403.1245427376
  21
 187.87575358664
  31
0.0
   0
LINE
   5
239
 100
AcDbEntity
   8
89
 100
AcDbLine
   6
DASHDOT
  62
10
  10
 1401.0959241854
  20
 182.02575358664
  30
0.0
  11
 1406.1261850800
  21
 182.02575358664
  31
0.0
   0
LINE
   5
23A
 100
AcDbEntity
   8
89
 100
AcDbLine
   6
CONTINUOUS
  62
10
  10
 1312.5879534039
  20
 149.97575358954
  30
0.0
  11
 1312.5879534039
  21
 185.87575358664
  31
0.0
   0
LINE
   5
23B
 100
AcDbEntity
   8
89
 100
AcDbLine
   6
CONTINUOUS
  62
10
  10
 1312.5879534039
  20
 185.87575358664
  30
0.0
  11
 1314.5879534039
  21
 187.87575358664
  31
0.0
   0
POINT
   5
23C
 100
AcDbEntity
   8
89
 100
AcDbPoint
  62
10
  10
 1312.5879534039
  20
 187.87575358664
  30
0.0
   0
LINE
   5
23D
 100
AcDbEntity
   8
89
 100
AcDbLine
   6
CONTINUOUS
  62
10
  10
 1314.5879534039
  20
 187.87575358664
  30
0.0
  11
 1321.5879534039
  21
 187.87575358664
  31
0.0
   0
LINE
   5
23E
 100
AcDbEntity
   8
89
 100
AcDbLine
   6
CONTINUOUS
  62
10
  10
 1321.5879534039
  20
 187.87575358664
  30
0.0
  11
 1323.5879534039
  21
 185.87575358664
  31
0.0
   0
POINT
   5
23F
 100
AcDbEntity
   8
89
 100
AcDbPoint
  62
10
  10
 1323.5879534039
  20
 187.87575358664
  30
0.0
   0
LINE
   5
240
 100
AcDbEntity
   8
89
 100
AcDbLine
   6
CONTINUOUS
  62
10
  10
 1323.5879534039
  20
 185.87575358664
  30
0.0
  11
 1323.5879534039
  21
 164.97575358954
  31
0.0
   0
LINE
   5
241
 100
AcDbEntity
   8
89
 100
AcDbLine
   6
CONTINUOUS
  62
10
  10
 1348.6879533965
  20
 162.97575358954
  30
0.0
  11
 1348.6879533965
  21
 148.67575358954
  31
0.0
   0
LINE
   5
242
 100
AcDbEntity
   8
89
 100
AcDbLine
   6
CONTINUOUS
  62
10
  10
 1348.6879533965
  20
 162.97575358954
  30
0.0
  11
 1346.6879533965
  21
 164.97575358954
  31
0.0
   0
POINT
   5
243
 100
AcDbEntity
   8
89
 100
AcDbPoint
  62
10
  10
 1348.6879533965
  20
 164.97575358954
  30
0.0
   0
LINE
   5
244
 100
AcDbEntity
   8
0
 100
AcDbLine
   6
CONTINUOUS
  62
10
  10
 1323.5879534039
  20
 164.97575358954
  30
0.0
  11
 1346.6879533965
  21
 164.97575358954
  31
0.0
   0
LINE
   5
245
 100
AcDbEntity
   8
0
 100
AcDbLine
   6
CONTINUOUS
  62
10
  10
 1403.1245427376
  20
 164.97575358954
  30
0.0
  11
 1404.1245427376
  21
 164.97575358954
  31
0.0
   0
LINE
   5
246
 100
AcDbEntity
   8
0
 100
AcDbLine
   6
CONTINUOUS
  62
10
  10
 1403.1245427376
  20
 185.87575358664
  30
0.0
  11
 1404.1245427376
  21
 185.87575358664
  31
0.0
   0
LINE
   5
247
 100
AcDbEntity
   8
0
 100
AcDbLine
   6
CONTINUOUS
  62
10
  10
 1403.1245427376
  20
 162.97575358954
  30
0.0
  11
 1404.1245427376
  21
 162.97575358954
  31
0.0
   0
LINE
   5
248
 100
AcDbEntity
   8
0
 100
AcDbLine
   6
CONTINUOUS
  62
10
  10
 1024.1630615731
  20
-10.229579951073
  30
0.0
  11
 1024.1630615731
  21
 266.65964124033
  31
0.0
   0
LINE
   5
249
 100
AcDbEntity
   8
0
 100
AcDbLine
   6
CONTINUOUS
  62
10
  10
 1024.1630615731
  20
 266.65964124033
  30
0.0
  11
 1409.1630615731
  21
 266.65964124033
  31
0.0
   0
LINE
   5
24A
 100
AcDbEntity
   8
1
 100
AcDbLine
   6
CONTINUOUS
  62
10
  10
 1404.1630615731
  20
 249.65964124033
  30
0.0
  11
 1284.1630615731
  21
 249.65964124033
  31
0.0
   0
LINE
   5
24B
 100
AcDbEntity
   8
1
 100
AcDbLine
   6
CONTINUOUS
  62
10
  10
 1404.1630615731
  20
 239.65964124033
  30
0.0
  11
 1284.1630615731
  21
 239.65964124033
  31
0.0
   0
TEXT
   5
24C
 100
AcDbEntity
   8
1
  62
10
 100
AcDbText
  10
 1287.3630615509
  20
 241.65964116233
  30
0.0
  40
 6.0000000000000
   1
１
  41
 0.60000000000000
   7
STANDARD
  72
1
  11
 1289.1630615509
  21
 241.65964116233
  31
0.0
 100
AcDbText
   0
LINE
   5
24D
 100
AcDbEntity
   8
1
 100
AcDbLine
   6
CONTINUOUS
  62
10
  10
 1334.1630615731
  20
 249.65964124033
  30
0.0
  11
 1334.1630615731
  21
 239.65964124033
  31
0.0
   0
LINE
   5
24E
 100
AcDbEntity
   8
1
 100
AcDbLine
   6
CONTINUOUS
  62
10
  10
 1294.1630615731
  20
 249.65964124033
  30
0.0
  11
 1294.1630615731
  21
 239.65964124033
  31
0.0
   0
LINE
   5
24F
 100
AcDbEntity
   8
1
 100
AcDbLine
   6
CONTINUOUS
  62
10
  10
 1284.1630615731
  20
 249.65964124033
  30
0.0
  11
 1284.1630615731
  21
 239.65964124033
  31
0.0
   0
TEXT
   5
250
 100
AcDbEntity
   8
1
  62
10
 100
AcDbText
  10
 1286.4468695509
  20
 253.65964116233
  30
0.0
  40
 6.0000000000000
   1
構成部品
  41
 0.64301600000000
   7
STANDARD
  72
1
  11
 1294.1630615509
  21
 253.65964116233
  31
0.0
 100
AcDbText
   0
LINE
   5
251
 100
AcDbEntity
   8
1
 100
AcDbLine
   6
CONTINUOUS
  62
10
  10
 1284.1630615731
  20
 261.65964124033
  30
0.0
  11
 1284.1630615731
  21
 251.65964124033
  31
0.0
   0
LINE
   5
252
 100
AcDbEntity
   8
1
 100
AcDbLine
   6
CONTINUOUS
  62
10
  10
 1304.1630615731
  20
 261.65964124033
  30
0.0
  11
 1304.1630615731
  21
 251.65964124033
  31
0.0
   0
LINE
   5
253
 100
AcDbEntity
   8
1
 100
AcDbLine
   6
CONTINUOUS
  62
10
  10
 1304.1630615731
  20
 261.65964124033
  30
0.0
  11
 1284.1630615731
  21
 261.65964124033
  31
0.0
   0
LINE
   5
254
 100
AcDbEntity
   8
1
 100
AcDbLine
   6
CONTINUOUS
  62
10
  10
 1304.1630615731
  20
 251.65964124033
  30
0.0
  11
 1284.1630615731
  21
 251.65964124033
  31
0.0
   0
LINE
   5
255
 100
AcDbEntity
   8
0
 100
AcDbLine
   6
CONTINUOUS
  62
10
  10
 1409.1630615731
  20
-10.229579951073
  30
0.0
  11
 1024.1630615731
  21
-10.229579951073
  31
0.0
   0
TEXT
   5
256
 100
AcDbEntity
   8
1
  62
10
 100
AcDbText
  10
 1131.9742525106
  20
 7.9080674283601
  30
0.0
  40
 5.0000000000000
   1
注記
  41
 0.77844300000000
   7
STANDARD
  72
1
  11
 1135.8664675106
  21
 7.9080674283601
  31
0.0
 100
AcDbText
   0
TEXT
   5
257
 100
AcDbEntity
   8
1
  62
10
 100
AcDbText
  10
 1136.2425975106
  20
 1.9080674283601
  30
0.0
  40
 5.0000000000000
   1
１．本仕様は予告無く変更することがあります。
  41
 0.77043400000000
   7
STANDARD
  72
1
  11
 1178.6164675106
  21
 1.9080674283601
  31
0.0
 100
AcDbText
   0
LINE
   5
258
 100
AcDbEntity
   8
1
 100
AcDbLine
   6
CONTINUOUS
  62
10
  10
 1404.1630615731
  20
 229.65964124033
  30
0.0
  11
 1284.1630615731
  21
 229.65964124033
  31
0.0
   0
LINE
   5
259
 100
AcDbEntity
   8
1
 100
AcDbLine
   6
CONTINUOUS
  62
10
  10
 1334.1630615731
  20
 239.65964124033
  30
0.0
  11
 1334.1630615731
  21
 229.65964124033
  31
0.0
   0
LINE
   5
25A
 100
AcDbEntity
   8
1
 100
AcDbLine
   6
CONTINUOUS
  62
10
  10
 1294.1630615731
  20
 239.65964124033
  30
0.0
  11
 1294.1630615731
  21
 229.65964124033
  31
0.0
   0
LINE
   5
25B
 100
AcDbEntity
   8
1
 100
AcDbLine
   6
CONTINUOUS
  62
10
  10
 1284.1630615731
  20
 239.65964124033
  30
0.0
  11
 1284.1630615731
  21
 229.65964124033
  31
0.0
   0
LINE
   5
25C
 100
AcDbEntity
   8
1
 100
AcDbLine
   6
CONTINUOUS
  62
10
  10
 1404.1630615731
  20
 249.65964124033
  30
0.0
  11
 1404.1630615731
  21
 229.65964124033
  31
0.0
   0
TEXT
   5
25D
 100
AcDbEntity
   8
1
  62
10
 100
AcDbText
  10
 1287.3630615509
  20
 231.65964116233
  30
0.0
  40
 6.0000000000000
   1
２
  41
 0.60000000000000
   7
STANDARD
  72
1
  11
 1289.1630615509
  21
 231.65964116233
  31
0.0
 100
AcDbText
   0
TEXT
   5
25E
 100
AcDbEntity
   8
1
  62
10
 100
AcDbText
  10
 1338.4827345509
  20
 241.65964116233
  30
0.0
  40
 6.0000000000000
   1
鉄板（ブラック色塗装）
  41
 0.65091900000000
   7
STANDARD
  72
1
  11
 1359.9630615509
  21
 241.65964116233
  31
0.0
 100
AcDbText
   0
TEXT
   5
25F
 100
AcDbEntity
   8
1
  62
10
 100
AcDbText
  10
 1338.4827345509
  20
 231.65964116233
  30
0.0
  40
 6.0000000000000
   1
鉄板（シルバー色塗装）
  41
 0.65091900000000
   7
STANDARD
  72
1
  11
 1359.9630615509
  21
 231.65964116233
  31
0.0
 100
AcDbText
   0
LINE
   5
260
 100
AcDbEntity
   8
1
 100
AcDbLine
   6
CONTINUOUS
  62
10
  10
 1255.6630615731
  20
-10.229579951073
  30
0.0
  11
 1255.6630615731
  21
 19.770420048927
  31
0.0
   0
LINE
   5
261
 100
AcDbEntity
   8
1
 100
AcDbLine
   6
CONTINUOUS
  62
10
  10
 1383.1630615731
  20
 19.770420048927
  30
0.0
  11
 1383.1630615731
  21
 4.7704200489275
  31
0.0
   0
LINE
   5
262
 100
AcDbEntity
   8
1
 100
AcDbLine
   6
CONTINUOUS
  62
10
  10
 1284.1630615731
  20
 4.7704200489275
  30
0.0
  11
 1284.1630615731
  21
 9.7704200489275
  31
0.0
   0
TEXT
   5
263
 100
AcDbEntity
   8
1
  62
10
 100
AcDbText
  10
 1333.5510800631
  20
 16.170420012427
  30
0.0
  40
 2.2000000000000
   1
品名
  41
 1.0054460000000
   7
STANDARD
  72
1
  11
 1335.7630612631
  21
 16.170420012427
  31
0.0
 100
AcDbText
   0
LINE
   5
264
 100
AcDbEntity
   8
1
 100
AcDbLine
   6
CONTINUOUS
  62
10
  10
 1361.1630615731
  20
-10.229579951073
  30
0.0
  11
 1361.1630615731
  21
 4.7704200489275
  31
0.0
   0
LINE
   5
265
 100
AcDbEntity
   8
1
 100
AcDbLine
   6
CONTINUOUS
  62
10
  10
 1331.1630615731
  20
 19.770420048927
  30
0.0
  11
 1331.1630615731
  21
 4.7704200489275
  31
0.0
   0
TEXT
   5
266
 100
AcDbEntity
   8
1
  62
10
 100
AcDbText
  10
 1384.6630612631
  20
 13.270420012428
  30
0.0
  40
 4.0000000000000
   1
尺
   7
STANDARD
  72
1
  11
 1386.6630612631
  21
 13.270420012428
  31
0.0
 100
AcDbText
   0
TEXT
   5
267
 100
AcDbEntity
   8
1
  62
10
 100
AcDbText
  10
 1384.6630612631
  20
 7.2704200124275
  30
0.0
  40
 4.0000000000000
   1
度
   7
STANDARD
  72
1
  11
 1386.6630612631
  21
 7.2704200124275
  31
0.0
 100
AcDbText
   0
LINE
   5
268
 100
AcDbEntity
   8
1
 100
AcDbLine
   6
CONTINUOUS
  62
10
  10
 1390.6630615731
  20
 19.770420048927
  30
0.0
  11
 1390.6630615731
  21
 4.7704200489275
  31
0.0
   0
TEXT
   5
269
 100
AcDbEntity
   8
1
  62
10
 100
AcDbText
  10
 1394.2088112631
  20
 9.3653650124274
  30
0.0
  40
 6.0000000000000
   1
ＮＴＳ
  41
 0.61876200000000
   7
STANDARD
  72
1
  11
 1399.7776692631
  21
 9.3653650124274
  31
0.0
 100
AcDbText
   0
LINE
   5
26A
 100
AcDbEntity
   8
1
 100
AcDbLine
   6
CONTINUOUS
  62
10
  10
 1409.1630615731
  20
-10.229579951073
  30
0.0
  11
 1409.1630615731
  21
 19.770420048927
  31
0.0
   0
LINE
   5
26B
 100
AcDbEntity
   8
1
 100
AcDbLine
   6
CONTINUOUS
  62
10
  10
 1284.1630615731
  20
 4.7704200489275
  30
0.0
  11
 1284.1630615731
  21
 19.770420048927
  31
0.0
   0
LINE
   5
26C
 100
AcDbEntity
   8
1
 100
AcDbLine
   6
CONTINUOUS
  62
10
  10
 1255.6630615731
  20
-10.229579951073
  30
0.0
  11
 1409.1630615731
  21
-10.229579951073
  31
0.0
   0
LINE
   5
26D
 100
AcDbEntity
   8
1
 100
AcDbLine
   6
CONTINUOUS
  62
10
  10
 1409.1630615731
  20
 19.770420048927
  30
0.0
  11
 1255.6630615731
  21
 19.770420048927
  31
0.0
   0
LINE
   5
26E
 100
AcDbEntity
   8
1
 100
AcDbLine
   6
CONTINUOUS
  62
10
  10
 1255.6630615731
  20
 4.7704200489275
  30
0.0
  11
 1409.1630615731
  21
 4.7704200489275
  31
0.0
   0
TEXT
   5
26F
 100
AcDbEntity
   8
1
  62
10
 100
AcDbText
  10
 1260.9310252631
  20
 10.446688997487
  30
0.0
  40
 4.0000000000000
   1
三角法
  41
 1.4970060000000
   7
STANDARD
  72
1
  11
 1269.9130612631
  21
 10.446688997487
  31
0.0
 100
AcDbText
   0
TEXT
   5
270
 100
AcDbEntity
   8
1
  62
10
 100
AcDbText
  10
 1332.2229112631
  20
 7.2704200124275
  30
0.0
  40
 5.0000000000000
   1
ｸｯｷﾝｸﾞﾋｰﾀｰ用 下ルーバー 寸法図
  41
 0.59840400000000
   7
STANDARD
  72
1
  11
 1354.6630612631
  21
 7.2704200124275
  31
0.0
 100
AcDbText
   0
TEXT
   5
271
 100
AcDbEntity
   8
1
  62
10
 100
AcDbText
  10
 1293.0275856526
  20
 241.65964116233
  30
0.0
  40
 6.0000000000000
   1
下ルーバー（HT-D4G20）
  41
 0.64554000000000
   7
STANDARD
  72
1
  11
 1314.3304056526
  21
 241.65964116233
  31
0.0
 100
AcDbText
   0
TEXT
   5
272
 100
AcDbEntity
   8
1
  62
10
 100
AcDbText
  10
 1292.0592756526
  20
 231.65964116233
  30
0.0
  40
 6.0000000000000
   1
下ルーバー（HT-D4GS20）
  41
 0.64554000000000
   7
STANDARD
  72
1
  11
 1314.3304056526
  21
 231.65964116233
  31
0.0
 100
AcDbText
   0
TEXT
   5
273
 100
AcDbEntity
   8
1
  62
10
 100
AcDbText
  10
 1290.5168560644
  20
 12.722070643053
  30
0.0
  40
 5.0000000000000
   1
ＨＴ－Ｄ４Ｇ２０
  41
 0.77306700000000
   7
STANDARD
 100
AcDbText
   0
TEXT
   5
274
 100
AcDbEntity
   8
1
  62
10
 100
AcDbText
  10
 1290.5168560644
  20
 6.0554039763865
  30
0.0
  40
 5.0000000000000
   1
ＨＴ－Ｄ４ＧＳ２０
  41
 0.77306700000000
   7
STANDARD
 100
AcDbText
   0
LINE
   5
275
 100
AcDbEntity
   8
89
 100
AcDbLine
   6
CONTINUOUS
  62
10
  10
 1349.9879533965
  20
 131.27575358954
  30
0.0
  11
 1348.6879533965
  21
 131.27575358954
  31
0.0
   0
LINE
   5
276
 100
AcDbEntity
   8
89
 100
AcDbLine
   6
CONTINUOUS
  62
10
  10
 1348.6879533965
  20
 131.27575358954
  30
0.0
  11
 1348.6879533965
  21
 129.97575358954
  31
0.0
   0
LINE
   5
277
 100
AcDbEntity
   8
89
 100
AcDbLine
   6
CONTINUOUS
  62
10
  10
 1051.9879533965
  20
 129.97575358954
  30
0.0
  11
 1348.6879533965
  21
 129.97575358954
  31
0.0
   0
LINE
   5
278
 100
AcDbEntity
   8
89
 100
AcDbLine
   6
CONTINUOUS
  62
10
  10
 1349.9879533965
  20
 131.27575358954
  30
0.0
  11
 1349.9879533965
  21
 148.67575358954
  31
0.0
   0
LINE
   5
279
 100
AcDbEntity
   8
0
 100
AcDbLine
   6
DASHDOT
  62
10
  10
 1051.9879533965
  20
 156.08219283766
  30
0.0
  11
 1051.9879533965
  21
 123.13542066638
  31
0.0
   0
LINE
   5
27A
 100
AcDbEntity
   8
89
 100
AcDbLine
   6
HIDDEN
  62
10
  10
 1348.6879533965
  20
 130.77575358954
  30
0.0
  11
 1051.9879533965
  21
 130.77575358954
  31
0.0
   0
LINE
   5
27B
 100
AcDbEntity
   8
89
 100
AcDbLine
   6
HIDDEN
  62
10
  10
 1349.1879533965
  20
 148.67575358954
  30
0.0
  11
 1349.1879533965
  21
 131.27575358954
  31
0.0
   0
ARC
   5
27C
 100
AcDbEntity
   8
89
   6
CONTINUOUS
  62
10
 100
AcDbCircle
  10
 1385.4245427377
  20
 131.27575358954
  30
0.0
  40
 0.50000000000000
 100
AcDbArc
  50
 180.00000000000
  51
 269.99999999317
   0
POINT
   5
27D
 100
AcDbEntity
   8
89
 100
AcDbPoint
  62
10
  10
 1384.9245427376
  20
 130.77575358954
  30
0.0
   0
ARC
   5
27E
 100
AcDbEntity
   8
89
   6
CONTINUOUS
  62
10
 100
AcDbCircle
  10
 1385.4245427375
  20
 131.27575358954
  30
0.0
  40
 1.3000000000000
 100
AcDbArc
  50
 179.99999999999
  51
 270.00000000274
   0
POINT
   5
27F
 100
AcDbEntity
   8
89
 100
AcDbPoint
  62
10
  10
 1384.1245427376
  20
 129.97575358954
  30
0.0
   0
LINE
   5
280
 100
AcDbEntity
   8
89
 100
AcDbLine
   6
CONTINUOUS
  62
10
  10
 1384.1245427376
  20
 131.27575358954
  30
0.0
  11
 1384.1245427376
  21
 148.67575358954
  31
0.0
   0
LINE
   5
281
 100
AcDbEntity
   8
89
 100
AcDbLine
   6
HIDDEN
  62
10
  10
 1384.9245427376
  20
 148.67575358954
  30
0.0
  11
 1384.9245427376
  21
 131.27575358954
  31
0.0
   0
LINE
   5
282
 100
AcDbEntity
   8
89
 100
AcDbLine
   6
CONTINUOUS
  62
10
  10
 1402.6245427376
  20
 131.27575358954
  30
0.0
  11
 1402.6245427376
  21
 148.67575358954
  31
0.0
   0
LINE
   5
283
 100
AcDbEntity
   8
89
 100
AcDbLine
   6
CONTINUOUS
  62
10
  10
 1384.1245427376
  20
 131.27575358954
  30
0.0
  11
 1402.6245427376
  21
 131.27575358954
  31
0.0
   0
LINE
   5
284
 100
AcDbEntity
   8
89
 100
AcDbLine
   6
CONTINUOUS
  62
10
  10
 1402.6245427376
  20
 129.97575358954
  30
0.0
  11
 1402.6245427376
  21
 130.77575358954
  31
0.0
   0
LINE
   5
285
 100
AcDbEntity
   8
89
 100
AcDbLine
   6
CONTINUOUS
  62
10
  10
 1402.6245427376
  20
 129.97575358954
  30
0.0
  11
 1385.4245427376
  21
 129.97575358954
  31
0.0
   0
LINE
   5
286
 100
AcDbEntity
   8
89
 100
AcDbLine
   6
CONTINUOUS
  62
10
  10
 1402.6245427376
  20
 130.77575358954
  30
0.0
  11
 1385.4245427376
  21
 130.77575358954
  31
0.0
   0
TEXT
   5
287
 100
AcDbEntity
   8
1
  62
10
 100
AcDbText
  10
 1282.9028558171
  20
-5.7295799875725
  30
0.0
  40
 6.0000000000000
   1
日立アプライアンス株式会社
  41
 0.77100100000000
   7
STANDARD
  72
1
  11
 1312.9718948171
  21
-5.7295799875725
  31
0.0
 100
AcDbText
   0
DIMENSION
   5
288
 100
AcDbEntity
   8
0
   6
CONTINUOUS
  62
10
 100
AcDbDimension
   2
*D1
  10
 1404.1245427376
  20
 193.03649861859
  30
0.0
  11
 1394.1245427376
  21
 193.03649861859
  31
0.0
  70
0
   3
GMM001
 100
AcDbAlignedDimension
  13
 1384.1245427376
  23
 148.67575358954
  33
0.0
  14
 1404.1245427376
  24
 186.27575358664
  34
0.0
 100
AcDbRotatedDimension
   0
DIMENSION
   5
289
 100
AcDbEntity
   8
0
   6
CONTINUOUS
  62
10
 100
AcDbDimension
   2
*D2
  10
 1323.5879534039
  20
 199.99303165469
  30
0.0
  11
 1318.0879534039
  21
 199.99303165469
  31
0.0
  70
0
   3
GMM001
 100
AcDbAlignedDimension
  13
 1312.5879534039
  23
 199.99303165469
  33
0.0
  14
 1323.5879534039
  24
 185.87575358664
  34
0.0
 100
AcDbRotatedDimension
   0
DIMENSION
   5
28A
 100
AcDbEntity
   8
0
   6
CONTINUOUS
  62
10
 100
AcDbDimension
   2
*D3
  10
 1318.5879534039
  20
 193.08124726797
  30
0.0
  11
 1315.5879534039
  21
 193.08124726797
  31
0.0
  70
0
   3
GMM001
 100
AcDbAlignedDimension
  13
 1312.5879534039
  23
 187.87575358664
  33
0.0
  14
 1318.5879534039
  24
 186.71754861144
  34
0.0
 100
AcDbRotatedDimension
   0
DIMENSION
   5
28B
 100
AcDbEntity
   8
0
   6
CONTINUOUS
  62
10
 100
AcDbDimension
   2
*D4
  10
 1374.1466897223
  20
 187.87575358664
  30
0.0
  11
 1374.1466897223
  21
 168.92575358809
  31
0.0
  70
0
   3
GMM001
 100
AcDbAlignedDimension
  13
 1374.1466897223
  23
 149.97575358954
  33
0.0
  14
 1403.1245427376
  24
 187.87575358664
  34
0.0
  50
 90.000000000000
 100
AcDbRotatedDimension
   0
INSERT
   5
28C
 100
AcDbEntity
   8
0
 100
AcDbBlockReference
   2
*D5
  10
0.0
  20
0.0
  30
0.0
   0
INSERT
   5
28D
 100
AcDbEntity
   8
0
 100
AcDbBlockReference
   2
*D6
  10
0.0
  20
0.0
  30
0.0
   0
DIMENSION
   5
28E
 100
AcDbEntity
   8
0
   6
CONTINUOUS
  62
10
 100
AcDbDimension
   2
*D7
  10
 1362.6505739791
  20
 149.97575358954
  30
0.0
  11
 1362.6505739791
  21
 166.00075358809
  31
0.0
  70
0
   1
\A1;32
   3
GMM001
 100
AcDbAlignedDimension
  13
 1322.9087470121
  23
 182.02575358664
  33
0.0
  14
 1348.6879533965
  24
 149.97575358954
  34
0.0
  50
 270.00000000000
 100
AcDbRotatedDimension
   0
DIMENSION
   5
28F
 100
AcDbEntity
   8
0
   6
CONTINUOUS
  62
10
 100
AcDbDimension
   2
*D8
  10
 1354.8189957776
  20
 164.97575358954
  30
0.0
  11
 1354.8189957776
  21
 157.47575358954
  31
0.0
  70
0
   3
GMM001
 100
AcDbAlignedDimension
  13
 1348.6879533965
  23
 149.97575358954
  33
0.0
  14
 1346.6879533965
  24
 164.97575358954
  34
0.0
  50
 90.000000000000
 100
AcDbRotatedDimension
   0
DIMENSION
   5
290
 100
AcDbEntity
   8
0
   6
CONTINUOUS
  62
10
 100
AcDbDimension
   2
*D9
  10
 1312.5879534039
  20
 199.99303165469
  30
0.0
  11
 1062.2601900604
  21
 199.99303165469
  31
0.0
  70
128
   1
\A1;521.2%%p1
   3
GMM002
 100
AcDbAlignedDimension
  13
 753.98795339651
  23
 159.48362443213
  33
0.0
  14
 1312.5879534039
  24
 185.87575358664
  34
0.0
 100
AcDbRotatedDimension
   0
DIMENSION
   5
291
 100
AcDbEntity
   8
0
   6
CONTINUOUS
  62
10
 100
AcDbDimension
   2
*D10
  10
 1402.6245427376
  20
 120.73136641433
  30
0.0
  11
 1393.3745427376
  21
 120.73136641433
  31
0.0
  70
0
   3
GMM001
 100
AcDbAlignedDimension
  13
 1384.1245427376
  23
 131.27575358954
  33
0.0
  14
 1402.6245427376
  24
 129.97575358954
  34
0.0
 100
AcDbRotatedDimension
   0
DIMENSION
   5
292
 100
AcDbEntity
   8
0
   6
CONTINUOUS
  62
10
 100
AcDbDimension
   2
*D11
  10
 1349.9879533965
  20
 112.29537769551
  30
0.0
  11
 1058.4064233442
  21
 112.29537769551
  31
0.0
  70
128
   1
\A1;596%%p1
   3
GMM003
 100
AcDbAlignedDimension
  13
 753.98795339651
  23
 67.065200150057
  33
0.0
  14
 1349.9879533965
  24
 131.27575358954
  34
0.0
 100
AcDbRotatedDimension
   0
DIMENSION
   5
293
 100
AcDbEntity
   8
0
   6
CONTINUOUS
  62
10
 100
AcDbDimension
   2
*D12
  10
 1374.1466897223
  20
 149.97575358954
  30
0.0
  11
 1374.1466897223
  21
 139.97575358954
  31
0.0
  70
0
   1
\A1;20%%p1
   3
GMM004
 100
AcDbAlignedDimension
  13
 1385.4245427376
  23
 129.97575358954
  33
0.0
  14
 1385.4245427376
  24
 149.97575358954
  34
0.0
  50
 90.000000000000
 100
AcDbRotatedDimension
   0
ENDSEC
  0
SECTION
  2
OBJECTS
  0
DICTIONARY
  5
C
100
AcDbDictionary
  3
ACAD_GROUP
350
D
  3
ACAD_MLINESTYLE
350
1B
  0
DICTIONARY
  5
D
102
{ACAD_REACTORS
330
C
102
}
100
AcDbDictionary
  0
DICTIONARY
  5
1B
102
{ACAD_REACTORS
330
C
102
}
100
AcDbDictionary
  3
STANDARD
350
1C
  0
MLINESTYLE
  5
1C
102
{ACAD_REACTORS
330
1B
102
}
100
AcDbMlineStyle
  2
STANDARD
 70
     0
  3

 62
   256
 51
90.0
 52
90.0
 71
     2
 49
0.5
 62
   256
  6
BYLAYER
 49
-0.5
 62
   256
  6
BYLAYER
  0
ENDSEC
   0
EOF
