   0
SECTION
   2
HEADER
   9
$ACADVER
   1
AC1014
   9
$LIMMIN
  10
 998.00000000000
  20
-20.000000000000
   9
$LIMMAX
  10
 1418.0000000000
  20
 277.00000000000
   9
$EXTMIN
  10
 998.00000000000
  20
-20.000000000000
  30
0.0
   9
$EXTMAX
  10
 1418.0000000000
  20
 277.00000000000
  30
0.0
   9
$LTSCALE
  40
 8.4000000000000
   9
$HANDSEED
   5
23C
   0
ENDSEC
   0
SECTION
   2
TABLES
  0
TABLE
  2
VPORT
  5
8
100
AcDbSymbolTable
 70
     1
  0
VPORT
  5
23B
100
AcDbSymbolTableRecord
100
AcDbViewportTableRecord
  2
*ACTIVE
 70
     0
 10
0.0
 20
0.0
 11
1.0
 21
1.0
  12
 1208.0000000000
  22
 128.50000000000
 13
0.0
 23
0.0
 14
1.0
 24
1.0
 15
0.0
 25
0.0
 16
0.0
 26
0.0
 36
1.0
 17
0.0
 27
0.0
 37
0.0
  40
 420.00000000000
  41
 1.4787878787879
 42
50.0
 43
0.0
 44
0.0
 50
0.0
 51
0.0
 71
     0
 72
   100
 73
     1
 74
     1
 75
     0
 76
     0
 77
     0
 78
     0
  0
ENDTAB
  0
TABLE
  2
LTYPE
  5
5
100
AcDbSymbolTable
 70
    25
  0
LTYPE
  5
12
100
AcDbSymbolTableRecord
100
AcDbLinetypeTableRecord
  2
BYBLOCK
 70
     0
  3

 72
    65
 73
     0
 40
0.0
  0
LTYPE
  5
13
100
AcDbSymbolTableRecord
100
AcDbLinetypeTableRecord
  2
BYLAYER
 70
     0
  3

 72
    65
 73
     0
 40
0.0
  0
LTYPE
  5
14
100
AcDbSymbolTableRecord
100
AcDbLinetypeTableRecord
  2
CONTINUOUS
 70
     0
  3
Solid line
 72
    65
 73
     0
 40
0.0
  0
LTYPE
  5
20
100
AcDbSymbolTableRecord
100
AcDbLinetypeTableRecord
  2
BORDER
 70
     0
  3
__ __ . __ __ . __ __ . __ __ . __ __ . __ __ .
 72
    65
 73
     6
 40
1.75
 49
0.5
 74
     0
 49
-0.25
 74
     0
 49
0.5
 74
     0
 49
-0.25
 74
     0
 49
0.0
 74
     0
 49
-0.25
 74
     0
  0
LTYPE
  5
21
100
AcDbSymbolTableRecord
100
AcDbLinetypeTableRecord
  2
BORDER2
 70
     0
  3
__.__.__.__.__.__.__.__.__.__.__.__.__.__.__.__
 72
    65
 73
     6
 40
0.875
 49
0.25
 74
     0
 49
-0.125
 74
     0
 49
0.25
 74
     0
 49
-0.125
 74
     0
 49
0.0
 74
     0
 49
-0.125
 74
     0
  0
LTYPE
  5
22
100
AcDbSymbolTableRecord
100
AcDbLinetypeTableRecord
  2
BORDERX2
 70
     0
  3
____  ____  .  ____  ____  .  ____  ____  .  __
 72
    65
 73
     6
 40
3.5
 49
1.0
 74
     0
 49
-0.5
 74
     0
 49
1.0
 74
     0
 49
-0.5
 74
     0
 49
0.0
 74
     0
 49
-0.5
 74
     0
  0
LTYPE
  5
23
100
AcDbSymbolTableRecord
100
AcDbLinetypeTableRecord
  2
CENTER
 70
     0
  3
____ _ ____ _ ____ _ ____ _ ____ _ ____ _ ____ 
 72
    65
 73
     4
 40
2.0
 49
1.25
 74
     0
 49
-0.25
 74
     0
 49
0.25
 74
     0
 49
-0.25
 74
     0
  0
LTYPE
  5
24
100
AcDbSymbolTableRecord
100
AcDbLinetypeTableRecord
  2
CENTER2
 70
     0
  3
___ _ ___ _ ___ _ ___ _ ___ _ ___ _ ___ _ ___ _
 72
    65
 73
     4
 40
1.125
 49
0.75
 74
     0
 49
-0.125
 74
     0
 49
0.125
 74
     0
 49
-0.125
 74
     0
  0
LTYPE
  5
25
100
AcDbSymbolTableRecord
100
AcDbLinetypeTableRecord
  2
CENTERX2
 70
     0
  3
________  __  ________  __  ________  __  _____
 72
    65
 73
     4
 40
4.0
 49
2.5
 74
     0
 49
-0.5
 74
     0
 49
0.5
 74
     0
 49
-0.5
 74
     0
  0
LTYPE
  5
26
100
AcDbSymbolTableRecord
100
AcDbLinetypeTableRecord
  2
DASHDOT
 70
     0
  3
__ . __ . __ . __ . __ . __ . __ . __ . __ . __
 72
    65
 73
     4
 40
1.0
 49
0.5
 74
     0
 49
-0.25
 74
     0
 49
0.0
 74
     0
 49
-0.25
 74
     0
  0
LTYPE
  5
27
100
AcDbSymbolTableRecord
100
AcDbLinetypeTableRecord
  2
DASHDOT2
 70
     0
  3
_._._._._._._._._._._._._._._._._._._._._._._._
 72
    65
 73
     4
 40
0.5
 49
0.25
 74
     0
 49
-0.125
 74
     0
 49
0.0
 74
     0
 49
-0.125
 74
     0
  0
LTYPE
  5
28
100
AcDbSymbolTableRecord
100
AcDbLinetypeTableRecord
  2
DASHDOTX2
 70
     0
  3
____  .  ____  .  ____  .  ____  .  ____  .  __
 72
    65
 73
     4
 40
2.0
 49
1.0
 74
     0
 49
-0.5
 74
     0
 49
0.0
 74
     0
 49
-0.5
 74
     0
  0
LTYPE
  5
29
100
AcDbSymbolTableRecord
100
AcDbLinetypeTableRecord
  2
DASHED
 70
     0
  3
__ __ __ __ __ __ __ __ __ __ __ __ __ __ __ __
 72
    65
 73
     2
 40
0.75
 49
0.5
 74
     0
 49
-0.25
 74
     0
  0
LTYPE
  5
2A
100
AcDbSymbolTableRecord
100
AcDbLinetypeTableRecord
  2
DASHED2
 70
     0
  3
_ _ _ _ _ _ _ _ _ _ _ _ _ _ _ _ _ _ _ _ _ _ _ _
 72
    65
 73
     2
 40
0.375
 49
0.25
 74
     0
 49
-0.125
 74
     0
  0
LTYPE
  5
2B
100
AcDbSymbolTableRecord
100
AcDbLinetypeTableRecord
  2
DASHEDX2
 70
     0
  3
____  ____  ____  ____  ____  ____  ____  ____ 
 72
    65
 73
     2
 40
1.5
 49
1.0
 74
     0
 49
-0.5
 74
     0
  0
LTYPE
  5
2C
100
AcDbSymbolTableRecord
100
AcDbLinetypeTableRecord
  2
DIVIDE
 70
     0
  3
____ . . ____ . . ____ . . ____ . . ____ . . __
 72
    65
 73
     6
 40
1.25
 49
0.5
 74
     0
 49
-0.25
 74
     0
 49
0.0
 74
     0
 49
-0.25
 74
     0
 49
0.0
 74
     0
 49
-0.25
 74
     0
  0
LTYPE
  5
2D
100
AcDbSymbolTableRecord
100
AcDbLinetypeTableRecord
  2
DIVIDE2
 70
     0
  3
__..__..__..__..__..__..__..__..__..__..__..__.
 72
    65
 73
     6
 40
0.625
 49
0.25
 74
     0
 49
-0.125
 74
     0
 49
0.0
 74
     0
 49
-0.125
 74
     0
 49
0.0
 74
     0
 49
-0.125
 74
     0
  0
LTYPE
  5
2E
100
AcDbSymbolTableRecord
100
AcDbLinetypeTableRecord
  2
DIVIDEX2
 70
     0
  3
________  .  .  ________  .  .  ________  .  . 
 72
    65
 73
     6
 40
2.5
 49
1.0
 74
     0
 49
-0.5
 74
     0
 49
0.0
 74
     0
 49
-0.5
 74
     0
 49
0.0
 74
     0
 49
-0.5
 74
     0
  0
LTYPE
  5
2F
100
AcDbSymbolTableRecord
100
AcDbLinetypeTableRecord
  2
DOT
 70
     0
  3
. . . . . . . . . . . . . . . . . . . . . . . .
 72
    65
 73
     2
 40
0.25
 49
0.0
 74
     0
 49
-0.25
 74
     0
  0
LTYPE
  5
30
100
AcDbSymbolTableRecord
100
AcDbLinetypeTableRecord
  2
DOT2
 70
     0
  3
...............................................
 72
    65
 73
     2
 40
0.125
 49
0.0
 74
     0
 49
-0.125
 74
     0
  0
LTYPE
  5
31
100
AcDbSymbolTableRecord
100
AcDbLinetypeTableRecord
  2
DOTX2
 70
     0
  3
.  .  .  .  .  .  .  .  .  .  .  .  .  .  .  . 
 72
    65
 73
     2
 40
0.5
 49
0.0
 74
     0
 49
-0.5
 74
     0
  0
LTYPE
  5
32
100
AcDbSymbolTableRecord
100
AcDbLinetypeTableRecord
  2
HIDDEN
 70
     0
  3
__ __ __ __ __ __ __ __ __ __ __ __ __ __ __ __
 72
    65
 73
     2
 40
0.375
 49
0.25
 74
     0
 49
-0.125
 74
     0
  0
LTYPE
  5
33
100
AcDbSymbolTableRecord
100
AcDbLinetypeTableRecord
  2
HIDDEN2
 70
     0
  3
_ _ _ _ _ _ _ _ _ _ _ _ _ _ _ _ _ _ _ _ _ _ _ _
 72
    65
 73
     2
 40
0.1875
 49
0.125
 74
     0
 49
-0.0625
 74
     0
  0
LTYPE
  5
34
100
AcDbSymbolTableRecord
100
AcDbLinetypeTableRecord
  2
HIDDENX2
 70
     0
  3
____ ____ ____ ____ ____ ____ ____ ____ ____ __
 72
    65
 73
     2
 40
0.75
 49
0.5
 74
     0
 49
-0.25
 74
     0
  0
LTYPE
  5
35
100
AcDbSymbolTableRecord
100
AcDbLinetypeTableRecord
  2
PHANTOM
 70
     0
  3
______  __  __  ______  __  __  ______  __  __ 
 72
    65
 73
     6
 40
2.5
 49
1.25
 74
     0
 49
-0.25
 74
     0
 49
0.25
 74
     0
 49
-0.25
 74
     0
 49
0.25
 74
     0
 49
-0.25
 74
     0
  0
LTYPE
  5
36
100
AcDbSymbolTableRecord
100
AcDbLinetypeTableRecord
  2
PHANTOM2
 70
     0
  3
___ _ _ ___ _ _ ___ _ _ ___ _ _ ___ _ _ ___ _ _
 72
    65
 73
     6
 40
1.25
 49
0.625
 74
     0
 49
-0.125
 74
     0
 49
0.125
 74
     0
 49
-0.125
 74
     0
 49
0.125
 74
     0
 49
-0.125
 74
     0
  0
LTYPE
  5
37
100
AcDbSymbolTableRecord
100
AcDbLinetypeTableRecord
  2
PHANTOMX2
 70
     0
  3
____________    ____    ____    ____________   
 72
    65
 73
     6
 40
5.0
 49
2.5
 74
     0
 49
-0.5
 74
     0
 49
0.5
 74
     0
 49
-0.5
 74
     0
 49
0.5
 74
     0
 49
-0.5
 74
     0
  0
ENDTAB
   0
TABLE
   2
LAYER
   5
2
 100
AcDbSymbolTable
  70
255
   0
LAYER
   5
E
 100
AcDbSymbolTableRecord
 100
AcDbLayerTableRecord
   2
0
  70
0
  62
7
   6
CONTINUOUS
   0
LAYER
   5
39
 100
AcDbSymbolTableRecord
 100
AcDbLayerTableRecord
   2
1
  70
0
  62
7
   6
CONTINUOUS
   0
LAYER
   5
3A
 100
AcDbSymbolTableRecord
 100
AcDbLayerTableRecord
   2
2
  70
0
  62
7
   6
CONTINUOUS
   0
LAYER
   5
3B
 100
AcDbSymbolTableRecord
 100
AcDbLayerTableRecord
   2
3
  70
0
  62
7
   6
CONTINUOUS
   0
LAYER
   5
3C
 100
AcDbSymbolTableRecord
 100
AcDbLayerTableRecord
   2
4
  70
0
  62
7
   6
CONTINUOUS
   0
LAYER
   5
3D
 100
AcDbSymbolTableRecord
 100
AcDbLayerTableRecord
   2
5
  70
0
  62
7
   6
CONTINUOUS
   0
LAYER
   5
3E
 100
AcDbSymbolTableRecord
 100
AcDbLayerTableRecord
   2
6
  70
0
  62
7
   6
CONTINUOUS
   0
LAYER
   5
3F
 100
AcDbSymbolTableRecord
 100
AcDbLayerTableRecord
   2
7
  70
0
  62
7
   6
CONTINUOUS
   0
LAYER
   5
40
 100
AcDbSymbolTableRecord
 100
AcDbLayerTableRecord
   2
8
  70
0
  62
7
   6
CONTINUOUS
   0
LAYER
   5
41
 100
AcDbSymbolTableRecord
 100
AcDbLayerTableRecord
   2
9
  70
0
  62
7
   6
CONTINUOUS
   0
LAYER
   5
42
 100
AcDbSymbolTableRecord
 100
AcDbLayerTableRecord
   2
10
  70
0
  62
7
   6
CONTINUOUS
   0
LAYER
   5
43
 100
AcDbSymbolTableRecord
 100
AcDbLayerTableRecord
   2
11
  70
0
  62
7
   6
CONTINUOUS
   0
LAYER
   5
44
 100
AcDbSymbolTableRecord
 100
AcDbLayerTableRecord
   2
12
  70
0
  62
7
   6
CONTINUOUS
   0
LAYER
   5
45
 100
AcDbSymbolTableRecord
 100
AcDbLayerTableRecord
   2
13
  70
0
  62
7
   6
CONTINUOUS
   0
LAYER
   5
46
 100
AcDbSymbolTableRecord
 100
AcDbLayerTableRecord
   2
14
  70
0
  62
7
   6
CONTINUOUS
   0
LAYER
   5
47
 100
AcDbSymbolTableRecord
 100
AcDbLayerTableRecord
   2
15
  70
0
  62
7
   6
CONTINUOUS
   0
LAYER
   5
48
 100
AcDbSymbolTableRecord
 100
AcDbLayerTableRecord
   2
16
  70
0
  62
7
   6
CONTINUOUS
   0
LAYER
   5
49
 100
AcDbSymbolTableRecord
 100
AcDbLayerTableRecord
   2
17
  70
0
  62
7
   6
CONTINUOUS
   0
LAYER
   5
4A
 100
AcDbSymbolTableRecord
 100
AcDbLayerTableRecord
   2
18
  70
0
  62
7
   6
CONTINUOUS
   0
LAYER
   5
4B
 100
AcDbSymbolTableRecord
 100
AcDbLayerTableRecord
   2
19
  70
0
  62
7
   6
CONTINUOUS
   0
LAYER
   5
4C
 100
AcDbSymbolTableRecord
 100
AcDbLayerTableRecord
   2
20
  70
0
  62
7
   6
CONTINUOUS
   0
LAYER
   5
4D
 100
AcDbSymbolTableRecord
 100
AcDbLayerTableRecord
   2
21
  70
0
  62
7
   6
CONTINUOUS
   0
LAYER
   5
4E
 100
AcDbSymbolTableRecord
 100
AcDbLayerTableRecord
   2
22
  70
0
  62
7
   6
CONTINUOUS
   0
LAYER
   5
4F
 100
AcDbSymbolTableRecord
 100
AcDbLayerTableRecord
   2
23
  70
0
  62
7
   6
CONTINUOUS
   0
LAYER
   5
50
 100
AcDbSymbolTableRecord
 100
AcDbLayerTableRecord
   2
24
  70
0
  62
7
   6
CONTINUOUS
   0
LAYER
   5
51
 100
AcDbSymbolTableRecord
 100
AcDbLayerTableRecord
   2
25
  70
0
  62
7
   6
CONTINUOUS
   0
LAYER
   5
52
 100
AcDbSymbolTableRecord
 100
AcDbLayerTableRecord
   2
26
  70
0
  62
7
   6
CONTINUOUS
   0
LAYER
   5
53
 100
AcDbSymbolTableRecord
 100
AcDbLayerTableRecord
   2
27
  70
0
  62
7
   6
CONTINUOUS
   0
LAYER
   5
54
 100
AcDbSymbolTableRecord
 100
AcDbLayerTableRecord
   2
28
  70
0
  62
7
   6
CONTINUOUS
   0
LAYER
   5
55
 100
AcDbSymbolTableRecord
 100
AcDbLayerTableRecord
   2
29
  70
0
  62
7
   6
CONTINUOUS
   0
LAYER
   5
56
 100
AcDbSymbolTableRecord
 100
AcDbLayerTableRecord
   2
30
  70
0
  62
7
   6
CONTINUOUS
   0
LAYER
   5
57
 100
AcDbSymbolTableRecord
 100
AcDbLayerTableRecord
   2
31
  70
0
  62
7
   6
CONTINUOUS
   0
LAYER
   5
58
 100
AcDbSymbolTableRecord
 100
AcDbLayerTableRecord
   2
32
  70
0
  62
7
   6
CONTINUOUS
   0
LAYER
   5
59
 100
AcDbSymbolTableRecord
 100
AcDbLayerTableRecord
   2
33
  70
0
  62
7
   6
CONTINUOUS
   0
LAYER
   5
5A
 100
AcDbSymbolTableRecord
 100
AcDbLayerTableRecord
   2
34
  70
0
  62
7
   6
CONTINUOUS
   0
LAYER
   5
5B
 100
AcDbSymbolTableRecord
 100
AcDbLayerTableRecord
   2
35
  70
0
  62
7
   6
CONTINUOUS
   0
LAYER
   5
5C
 100
AcDbSymbolTableRecord
 100
AcDbLayerTableRecord
   2
36
  70
0
  62
7
   6
CONTINUOUS
   0
LAYER
   5
5D
 100
AcDbSymbolTableRecord
 100
AcDbLayerTableRecord
   2
37
  70
0
  62
7
   6
CONTINUOUS
   0
LAYER
   5
5E
 100
AcDbSymbolTableRecord
 100
AcDbLayerTableRecord
   2
38
  70
0
  62
7
   6
CONTINUOUS
   0
LAYER
   5
5F
 100
AcDbSymbolTableRecord
 100
AcDbLayerTableRecord
   2
39
  70
0
  62
7
   6
CONTINUOUS
   0
LAYER
   5
60
 100
AcDbSymbolTableRecord
 100
AcDbLayerTableRecord
   2
40
  70
0
  62
7
   6
CONTINUOUS
   0
LAYER
   5
61
 100
AcDbSymbolTableRecord
 100
AcDbLayerTableRecord
   2
41
  70
0
  62
7
   6
CONTINUOUS
   0
LAYER
   5
62
 100
AcDbSymbolTableRecord
 100
AcDbLayerTableRecord
   2
42
  70
0
  62
7
   6
CONTINUOUS
   0
LAYER
   5
63
 100
AcDbSymbolTableRecord
 100
AcDbLayerTableRecord
   2
43
  70
0
  62
7
   6
CONTINUOUS
   0
LAYER
   5
64
 100
AcDbSymbolTableRecord
 100
AcDbLayerTableRecord
   2
44
  70
0
  62
7
   6
CONTINUOUS
   0
LAYER
   5
65
 100
AcDbSymbolTableRecord
 100
AcDbLayerTableRecord
   2
45
  70
0
  62
7
   6
CONTINUOUS
   0
LAYER
   5
66
 100
AcDbSymbolTableRecord
 100
AcDbLayerTableRecord
   2
46
  70
0
  62
7
   6
CONTINUOUS
   0
LAYER
   5
67
 100
AcDbSymbolTableRecord
 100
AcDbLayerTableRecord
   2
47
  70
0
  62
7
   6
CONTINUOUS
   0
LAYER
   5
68
 100
AcDbSymbolTableRecord
 100
AcDbLayerTableRecord
   2
48
  70
0
  62
7
   6
CONTINUOUS
   0
LAYER
   5
69
 100
AcDbSymbolTableRecord
 100
AcDbLayerTableRecord
   2
49
  70
0
  62
7
   6
CONTINUOUS
   0
LAYER
   5
6A
 100
AcDbSymbolTableRecord
 100
AcDbLayerTableRecord
   2
50
  70
0
  62
7
   6
CONTINUOUS
   0
LAYER
   5
6B
 100
AcDbSymbolTableRecord
 100
AcDbLayerTableRecord
   2
51
  70
0
  62
7
   6
CONTINUOUS
   0
LAYER
   5
6C
 100
AcDbSymbolTableRecord
 100
AcDbLayerTableRecord
   2
52
  70
0
  62
7
   6
CONTINUOUS
   0
LAYER
   5
6D
 100
AcDbSymbolTableRecord
 100
AcDbLayerTableRecord
   2
53
  70
0
  62
7
   6
CONTINUOUS
   0
LAYER
   5
6E
 100
AcDbSymbolTableRecord
 100
AcDbLayerTableRecord
   2
54
  70
0
  62
7
   6
CONTINUOUS
   0
LAYER
   5
6F
 100
AcDbSymbolTableRecord
 100
AcDbLayerTableRecord
   2
55
  70
0
  62
7
   6
CONTINUOUS
   0
LAYER
   5
70
 100
AcDbSymbolTableRecord
 100
AcDbLayerTableRecord
   2
56
  70
0
  62
7
   6
CONTINUOUS
   0
LAYER
   5
71
 100
AcDbSymbolTableRecord
 100
AcDbLayerTableRecord
   2
57
  70
0
  62
7
   6
CONTINUOUS
   0
LAYER
   5
72
 100
AcDbSymbolTableRecord
 100
AcDbLayerTableRecord
   2
58
  70
0
  62
7
   6
CONTINUOUS
   0
LAYER
   5
73
 100
AcDbSymbolTableRecord
 100
AcDbLayerTableRecord
   2
59
  70
0
  62
7
   6
CONTINUOUS
   0
LAYER
   5
74
 100
AcDbSymbolTableRecord
 100
AcDbLayerTableRecord
   2
60
  70
0
  62
7
   6
CONTINUOUS
   0
LAYER
   5
75
 100
AcDbSymbolTableRecord
 100
AcDbLayerTableRecord
   2
61
  70
0
  62
7
   6
CONTINUOUS
   0
LAYER
   5
76
 100
AcDbSymbolTableRecord
 100
AcDbLayerTableRecord
   2
62
  70
0
  62
7
   6
CONTINUOUS
   0
LAYER
   5
77
 100
AcDbSymbolTableRecord
 100
AcDbLayerTableRecord
   2
63
  70
0
  62
7
   6
CONTINUOUS
   0
LAYER
   5
78
 100
AcDbSymbolTableRecord
 100
AcDbLayerTableRecord
   2
64
  70
0
  62
7
   6
CONTINUOUS
   0
LAYER
   5
79
 100
AcDbSymbolTableRecord
 100
AcDbLayerTableRecord
   2
65
  70
0
  62
7
   6
CONTINUOUS
   0
LAYER
   5
7A
 100
AcDbSymbolTableRecord
 100
AcDbLayerTableRecord
   2
66
  70
0
  62
7
   6
CONTINUOUS
   0
LAYER
   5
7B
 100
AcDbSymbolTableRecord
 100
AcDbLayerTableRecord
   2
67
  70
0
  62
7
   6
CONTINUOUS
   0
LAYER
   5
7C
 100
AcDbSymbolTableRecord
 100
AcDbLayerTableRecord
   2
68
  70
0
  62
7
   6
CONTINUOUS
   0
LAYER
   5
7D
 100
AcDbSymbolTableRecord
 100
AcDbLayerTableRecord
   2
69
  70
0
  62
7
   6
CONTINUOUS
   0
LAYER
   5
7E
 100
AcDbSymbolTableRecord
 100
AcDbLayerTableRecord
   2
70
  70
0
  62
7
   6
CONTINUOUS
   0
LAYER
   5
7F
 100
AcDbSymbolTableRecord
 100
AcDbLayerTableRecord
   2
71
  70
0
  62
7
   6
CONTINUOUS
   0
LAYER
   5
80
 100
AcDbSymbolTableRecord
 100
AcDbLayerTableRecord
   2
72
  70
0
  62
7
   6
CONTINUOUS
   0
LAYER
   5
81
 100
AcDbSymbolTableRecord
 100
AcDbLayerTableRecord
   2
73
  70
0
  62
7
   6
CONTINUOUS
   0
LAYER
   5
82
 100
AcDbSymbolTableRecord
 100
AcDbLayerTableRecord
   2
74
  70
0
  62
7
   6
CONTINUOUS
   0
LAYER
   5
83
 100
AcDbSymbolTableRecord
 100
AcDbLayerTableRecord
   2
75
  70
0
  62
7
   6
CONTINUOUS
   0
LAYER
   5
84
 100
AcDbSymbolTableRecord
 100
AcDbLayerTableRecord
   2
76
  70
0
  62
7
   6
CONTINUOUS
   0
LAYER
   5
85
 100
AcDbSymbolTableRecord
 100
AcDbLayerTableRecord
   2
77
  70
0
  62
7
   6
CONTINUOUS
   0
LAYER
   5
86
 100
AcDbSymbolTableRecord
 100
AcDbLayerTableRecord
   2
78
  70
0
  62
7
   6
CONTINUOUS
   0
LAYER
   5
87
 100
AcDbSymbolTableRecord
 100
AcDbLayerTableRecord
   2
79
  70
0
  62
7
   6
CONTINUOUS
   0
LAYER
   5
88
 100
AcDbSymbolTableRecord
 100
AcDbLayerTableRecord
   2
80
  70
0
  62
7
   6
CONTINUOUS
   0
LAYER
   5
89
 100
AcDbSymbolTableRecord
 100
AcDbLayerTableRecord
   2
81
  70
0
  62
7
   6
CONTINUOUS
   0
LAYER
   5
8A
 100
AcDbSymbolTableRecord
 100
AcDbLayerTableRecord
   2
82
  70
0
  62
7
   6
CONTINUOUS
   0
LAYER
   5
8B
 100
AcDbSymbolTableRecord
 100
AcDbLayerTableRecord
   2
83
  70
0
  62
7
   6
CONTINUOUS
   0
LAYER
   5
8C
 100
AcDbSymbolTableRecord
 100
AcDbLayerTableRecord
   2
84
  70
0
  62
7
   6
CONTINUOUS
   0
LAYER
   5
8D
 100
AcDbSymbolTableRecord
 100
AcDbLayerTableRecord
   2
85
  70
0
  62
7
   6
CONTINUOUS
   0
LAYER
   5
8E
 100
AcDbSymbolTableRecord
 100
AcDbLayerTableRecord
   2
86
  70
0
  62
7
   6
CONTINUOUS
   0
LAYER
   5
8F
 100
AcDbSymbolTableRecord
 100
AcDbLayerTableRecord
   2
87
  70
0
  62
7
   6
CONTINUOUS
   0
LAYER
   5
90
 100
AcDbSymbolTableRecord
 100
AcDbLayerTableRecord
   2
88
  70
0
  62
7
   6
CONTINUOUS
   0
LAYER
   5
91
 100
AcDbSymbolTableRecord
 100
AcDbLayerTableRecord
   2
89
  70
0
  62
7
   6
CONTINUOUS
   0
LAYER
   5
92
 100
AcDbSymbolTableRecord
 100
AcDbLayerTableRecord
   2
90
  70
0
  62
7
   6
CONTINUOUS
   0
LAYER
   5
93
 100
AcDbSymbolTableRecord
 100
AcDbLayerTableRecord
   2
91
  70
0
  62
7
   6
CONTINUOUS
   0
LAYER
   5
94
 100
AcDbSymbolTableRecord
 100
AcDbLayerTableRecord
   2
92
  70
0
  62
7
   6
CONTINUOUS
   0
LAYER
   5
95
 100
AcDbSymbolTableRecord
 100
AcDbLayerTableRecord
   2
93
  70
0
  62
7
   6
CONTINUOUS
   0
LAYER
   5
96
 100
AcDbSymbolTableRecord
 100
AcDbLayerTableRecord
   2
94
  70
0
  62
7
   6
CONTINUOUS
   0
LAYER
   5
97
 100
AcDbSymbolTableRecord
 100
AcDbLayerTableRecord
   2
95
  70
0
  62
7
   6
CONTINUOUS
   0
LAYER
   5
98
 100
AcDbSymbolTableRecord
 100
AcDbLayerTableRecord
   2
96
  70
0
  62
7
   6
CONTINUOUS
   0
LAYER
   5
99
 100
AcDbSymbolTableRecord
 100
AcDbLayerTableRecord
   2
97
  70
0
  62
7
   6
CONTINUOUS
   0
LAYER
   5
9A
 100
AcDbSymbolTableRecord
 100
AcDbLayerTableRecord
   2
98
  70
0
  62
7
   6
CONTINUOUS
   0
LAYER
   5
9B
 100
AcDbSymbolTableRecord
 100
AcDbLayerTableRecord
   2
99
  70
0
  62
7
   6
CONTINUOUS
   0
LAYER
   5
9C
 100
AcDbSymbolTableRecord
 100
AcDbLayerTableRecord
   2
100
  70
0
  62
7
   6
CONTINUOUS
   0
LAYER
   5
9D
 100
AcDbSymbolTableRecord
 100
AcDbLayerTableRecord
   2
101
  70
0
  62
7
   6
CONTINUOUS
   0
LAYER
   5
9E
 100
AcDbSymbolTableRecord
 100
AcDbLayerTableRecord
   2
102
  70
0
  62
7
   6
CONTINUOUS
   0
LAYER
   5
9F
 100
AcDbSymbolTableRecord
 100
AcDbLayerTableRecord
   2
103
  70
0
  62
7
   6
CONTINUOUS
   0
LAYER
   5
A0
 100
AcDbSymbolTableRecord
 100
AcDbLayerTableRecord
   2
104
  70
0
  62
7
   6
CONTINUOUS
   0
LAYER
   5
A1
 100
AcDbSymbolTableRecord
 100
AcDbLayerTableRecord
   2
105
  70
0
  62
7
   6
CONTINUOUS
   0
LAYER
   5
A2
 100
AcDbSymbolTableRecord
 100
AcDbLayerTableRecord
   2
106
  70
0
  62
7
   6
CONTINUOUS
   0
LAYER
   5
A3
 100
AcDbSymbolTableRecord
 100
AcDbLayerTableRecord
   2
107
  70
0
  62
7
   6
CONTINUOUS
   0
LAYER
   5
A4
 100
AcDbSymbolTableRecord
 100
AcDbLayerTableRecord
   2
108
  70
0
  62
7
   6
CONTINUOUS
   0
LAYER
   5
A5
 100
AcDbSymbolTableRecord
 100
AcDbLayerTableRecord
   2
109
  70
0
  62
7
   6
CONTINUOUS
   0
LAYER
   5
A6
 100
AcDbSymbolTableRecord
 100
AcDbLayerTableRecord
   2
110
  70
0
  62
7
   6
CONTINUOUS
   0
LAYER
   5
A7
 100
AcDbSymbolTableRecord
 100
AcDbLayerTableRecord
   2
111
  70
0
  62
7
   6
CONTINUOUS
   0
LAYER
   5
A8
 100
AcDbSymbolTableRecord
 100
AcDbLayerTableRecord
   2
112
  70
0
  62
7
   6
CONTINUOUS
   0
LAYER
   5
A9
 100
AcDbSymbolTableRecord
 100
AcDbLayerTableRecord
   2
113
  70
0
  62
7
   6
CONTINUOUS
   0
LAYER
   5
AA
 100
AcDbSymbolTableRecord
 100
AcDbLayerTableRecord
   2
114
  70
0
  62
7
   6
CONTINUOUS
   0
LAYER
   5
AB
 100
AcDbSymbolTableRecord
 100
AcDbLayerTableRecord
   2
115
  70
0
  62
7
   6
CONTINUOUS
   0
LAYER
   5
AC
 100
AcDbSymbolTableRecord
 100
AcDbLayerTableRecord
   2
116
  70
0
  62
7
   6
CONTINUOUS
   0
LAYER
   5
AD
 100
AcDbSymbolTableRecord
 100
AcDbLayerTableRecord
   2
117
  70
0
  62
7
   6
CONTINUOUS
   0
LAYER
   5
AE
 100
AcDbSymbolTableRecord
 100
AcDbLayerTableRecord
   2
118
  70
0
  62
7
   6
CONTINUOUS
   0
LAYER
   5
AF
 100
AcDbSymbolTableRecord
 100
AcDbLayerTableRecord
   2
119
  70
0
  62
7
   6
CONTINUOUS
   0
LAYER
   5
B0
 100
AcDbSymbolTableRecord
 100
AcDbLayerTableRecord
   2
120
  70
0
  62
7
   6
CONTINUOUS
   0
LAYER
   5
B1
 100
AcDbSymbolTableRecord
 100
AcDbLayerTableRecord
   2
121
  70
0
  62
7
   6
CONTINUOUS
   0
LAYER
   5
B2
 100
AcDbSymbolTableRecord
 100
AcDbLayerTableRecord
   2
122
  70
0
  62
7
   6
CONTINUOUS
   0
LAYER
   5
B3
 100
AcDbSymbolTableRecord
 100
AcDbLayerTableRecord
   2
123
  70
0
  62
7
   6
CONTINUOUS
   0
LAYER
   5
B4
 100
AcDbSymbolTableRecord
 100
AcDbLayerTableRecord
   2
124
  70
0
  62
7
   6
CONTINUOUS
   0
LAYER
   5
B5
 100
AcDbSymbolTableRecord
 100
AcDbLayerTableRecord
   2
125
  70
0
  62
7
   6
CONTINUOUS
   0
LAYER
   5
B6
 100
AcDbSymbolTableRecord
 100
AcDbLayerTableRecord
   2
126
  70
0
  62
7
   6
CONTINUOUS
   0
LAYER
   5
B7
 100
AcDbSymbolTableRecord
 100
AcDbLayerTableRecord
   2
127
  70
0
  62
7
   6
CONTINUOUS
   0
LAYER
   5
B8
 100
AcDbSymbolTableRecord
 100
AcDbLayerTableRecord
   2
128
  70
0
  62
7
   6
CONTINUOUS
   0
LAYER
   5
B9
 100
AcDbSymbolTableRecord
 100
AcDbLayerTableRecord
   2
129
  70
0
  62
7
   6
CONTINUOUS
   0
LAYER
   5
BA
 100
AcDbSymbolTableRecord
 100
AcDbLayerTableRecord
   2
130
  70
0
  62
7
   6
CONTINUOUS
   0
LAYER
   5
BB
 100
AcDbSymbolTableRecord
 100
AcDbLayerTableRecord
   2
131
  70
0
  62
7
   6
CONTINUOUS
   0
LAYER
   5
BC
 100
AcDbSymbolTableRecord
 100
AcDbLayerTableRecord
   2
132
  70
0
  62
7
   6
CONTINUOUS
   0
LAYER
   5
BD
 100
AcDbSymbolTableRecord
 100
AcDbLayerTableRecord
   2
133
  70
0
  62
7
   6
CONTINUOUS
   0
LAYER
   5
BE
 100
AcDbSymbolTableRecord
 100
AcDbLayerTableRecord
   2
134
  70
0
  62
7
   6
CONTINUOUS
   0
LAYER
   5
BF
 100
AcDbSymbolTableRecord
 100
AcDbLayerTableRecord
   2
135
  70
0
  62
7
   6
CONTINUOUS
   0
LAYER
   5
C0
 100
AcDbSymbolTableRecord
 100
AcDbLayerTableRecord
   2
136
  70
0
  62
7
   6
CONTINUOUS
   0
LAYER
   5
C1
 100
AcDbSymbolTableRecord
 100
AcDbLayerTableRecord
   2
137
  70
0
  62
7
   6
CONTINUOUS
   0
LAYER
   5
C2
 100
AcDbSymbolTableRecord
 100
AcDbLayerTableRecord
   2
138
  70
0
  62
7
   6
CONTINUOUS
   0
LAYER
   5
C3
 100
AcDbSymbolTableRecord
 100
AcDbLayerTableRecord
   2
139
  70
0
  62
7
   6
CONTINUOUS
   0
LAYER
   5
C4
 100
AcDbSymbolTableRecord
 100
AcDbLayerTableRecord
   2
140
  70
0
  62
7
   6
CONTINUOUS
   0
LAYER
   5
C5
 100
AcDbSymbolTableRecord
 100
AcDbLayerTableRecord
   2
141
  70
0
  62
7
   6
CONTINUOUS
   0
LAYER
   5
C6
 100
AcDbSymbolTableRecord
 100
AcDbLayerTableRecord
   2
142
  70
0
  62
7
   6
CONTINUOUS
   0
LAYER
   5
C7
 100
AcDbSymbolTableRecord
 100
AcDbLayerTableRecord
   2
143
  70
0
  62
7
   6
CONTINUOUS
   0
LAYER
   5
C8
 100
AcDbSymbolTableRecord
 100
AcDbLayerTableRecord
   2
144
  70
0
  62
7
   6
CONTINUOUS
   0
LAYER
   5
C9
 100
AcDbSymbolTableRecord
 100
AcDbLayerTableRecord
   2
145
  70
0
  62
7
   6
CONTINUOUS
   0
LAYER
   5
CA
 100
AcDbSymbolTableRecord
 100
AcDbLayerTableRecord
   2
146
  70
0
  62
7
   6
CONTINUOUS
   0
LAYER
   5
CB
 100
AcDbSymbolTableRecord
 100
AcDbLayerTableRecord
   2
147
  70
0
  62
7
   6
CONTINUOUS
   0
LAYER
   5
CC
 100
AcDbSymbolTableRecord
 100
AcDbLayerTableRecord
   2
148
  70
0
  62
7
   6
CONTINUOUS
   0
LAYER
   5
CD
 100
AcDbSymbolTableRecord
 100
AcDbLayerTableRecord
   2
149
  70
0
  62
7
   6
CONTINUOUS
   0
LAYER
   5
CE
 100
AcDbSymbolTableRecord
 100
AcDbLayerTableRecord
   2
150
  70
0
  62
7
   6
CONTINUOUS
   0
LAYER
   5
CF
 100
AcDbSymbolTableRecord
 100
AcDbLayerTableRecord
   2
151
  70
0
  62
7
   6
CONTINUOUS
   0
LAYER
   5
D0
 100
AcDbSymbolTableRecord
 100
AcDbLayerTableRecord
   2
152
  70
0
  62
7
   6
CONTINUOUS
   0
LAYER
   5
D1
 100
AcDbSymbolTableRecord
 100
AcDbLayerTableRecord
   2
153
  70
0
  62
7
   6
CONTINUOUS
   0
LAYER
   5
D2
 100
AcDbSymbolTableRecord
 100
AcDbLayerTableRecord
   2
154
  70
0
  62
7
   6
CONTINUOUS
   0
LAYER
   5
D3
 100
AcDbSymbolTableRecord
 100
AcDbLayerTableRecord
   2
155
  70
0
  62
7
   6
CONTINUOUS
   0
LAYER
   5
D4
 100
AcDbSymbolTableRecord
 100
AcDbLayerTableRecord
   2
156
  70
0
  62
7
   6
CONTINUOUS
   0
LAYER
   5
D5
 100
AcDbSymbolTableRecord
 100
AcDbLayerTableRecord
   2
157
  70
0
  62
7
   6
CONTINUOUS
   0
LAYER
   5
D6
 100
AcDbSymbolTableRecord
 100
AcDbLayerTableRecord
   2
158
  70
0
  62
7
   6
CONTINUOUS
   0
LAYER
   5
D7
 100
AcDbSymbolTableRecord
 100
AcDbLayerTableRecord
   2
159
  70
0
  62
7
   6
CONTINUOUS
   0
LAYER
   5
D8
 100
AcDbSymbolTableRecord
 100
AcDbLayerTableRecord
   2
160
  70
0
  62
7
   6
CONTINUOUS
   0
LAYER
   5
D9
 100
AcDbSymbolTableRecord
 100
AcDbLayerTableRecord
   2
161
  70
0
  62
7
   6
CONTINUOUS
   0
LAYER
   5
DA
 100
AcDbSymbolTableRecord
 100
AcDbLayerTableRecord
   2
162
  70
0
  62
7
   6
CONTINUOUS
   0
LAYER
   5
DB
 100
AcDbSymbolTableRecord
 100
AcDbLayerTableRecord
   2
163
  70
0
  62
7
   6
CONTINUOUS
   0
LAYER
   5
DC
 100
AcDbSymbolTableRecord
 100
AcDbLayerTableRecord
   2
164
  70
0
  62
7
   6
CONTINUOUS
   0
LAYER
   5
DD
 100
AcDbSymbolTableRecord
 100
AcDbLayerTableRecord
   2
165
  70
0
  62
7
   6
CONTINUOUS
   0
LAYER
   5
DE
 100
AcDbSymbolTableRecord
 100
AcDbLayerTableRecord
   2
166
  70
0
  62
7
   6
CONTINUOUS
   0
LAYER
   5
DF
 100
AcDbSymbolTableRecord
 100
AcDbLayerTableRecord
   2
167
  70
0
  62
7
   6
CONTINUOUS
   0
LAYER
   5
E0
 100
AcDbSymbolTableRecord
 100
AcDbLayerTableRecord
   2
168
  70
0
  62
7
   6
CONTINUOUS
   0
LAYER
   5
E1
 100
AcDbSymbolTableRecord
 100
AcDbLayerTableRecord
   2
169
  70
0
  62
7
   6
CONTINUOUS
   0
LAYER
   5
E2
 100
AcDbSymbolTableRecord
 100
AcDbLayerTableRecord
   2
170
  70
0
  62
7
   6
CONTINUOUS
   0
LAYER
   5
E3
 100
AcDbSymbolTableRecord
 100
AcDbLayerTableRecord
   2
171
  70
0
  62
7
   6
CONTINUOUS
   0
LAYER
   5
E4
 100
AcDbSymbolTableRecord
 100
AcDbLayerTableRecord
   2
172
  70
0
  62
7
   6
CONTINUOUS
   0
LAYER
   5
E5
 100
AcDbSymbolTableRecord
 100
AcDbLayerTableRecord
   2
173
  70
0
  62
7
   6
CONTINUOUS
   0
LAYER
   5
E6
 100
AcDbSymbolTableRecord
 100
AcDbLayerTableRecord
   2
174
  70
0
  62
7
   6
CONTINUOUS
   0
LAYER
   5
E7
 100
AcDbSymbolTableRecord
 100
AcDbLayerTableRecord
   2
175
  70
0
  62
7
   6
CONTINUOUS
   0
LAYER
   5
E8
 100
AcDbSymbolTableRecord
 100
AcDbLayerTableRecord
   2
176
  70
0
  62
7
   6
CONTINUOUS
   0
LAYER
   5
E9
 100
AcDbSymbolTableRecord
 100
AcDbLayerTableRecord
   2
177
  70
0
  62
7
   6
CONTINUOUS
   0
LAYER
   5
EA
 100
AcDbSymbolTableRecord
 100
AcDbLayerTableRecord
   2
178
  70
0
  62
7
   6
CONTINUOUS
   0
LAYER
   5
EB
 100
AcDbSymbolTableRecord
 100
AcDbLayerTableRecord
   2
179
  70
0
  62
7
   6
CONTINUOUS
   0
LAYER
   5
EC
 100
AcDbSymbolTableRecord
 100
AcDbLayerTableRecord
   2
180
  70
0
  62
7
   6
CONTINUOUS
   0
LAYER
   5
ED
 100
AcDbSymbolTableRecord
 100
AcDbLayerTableRecord
   2
181
  70
0
  62
7
   6
CONTINUOUS
   0
LAYER
   5
EE
 100
AcDbSymbolTableRecord
 100
AcDbLayerTableRecord
   2
182
  70
0
  62
7
   6
CONTINUOUS
   0
LAYER
   5
EF
 100
AcDbSymbolTableRecord
 100
AcDbLayerTableRecord
   2
183
  70
0
  62
7
   6
CONTINUOUS
   0
LAYER
   5
F0
 100
AcDbSymbolTableRecord
 100
AcDbLayerTableRecord
   2
184
  70
0
  62
7
   6
CONTINUOUS
   0
LAYER
   5
F1
 100
AcDbSymbolTableRecord
 100
AcDbLayerTableRecord
   2
185
  70
0
  62
7
   6
CONTINUOUS
   0
LAYER
   5
F2
 100
AcDbSymbolTableRecord
 100
AcDbLayerTableRecord
   2
186
  70
0
  62
7
   6
CONTINUOUS
   0
LAYER
   5
F3
 100
AcDbSymbolTableRecord
 100
AcDbLayerTableRecord
   2
187
  70
0
  62
7
   6
CONTINUOUS
   0
LAYER
   5
F4
 100
AcDbSymbolTableRecord
 100
AcDbLayerTableRecord
   2
188
  70
0
  62
7
   6
CONTINUOUS
   0
LAYER
   5
F5
 100
AcDbSymbolTableRecord
 100
AcDbLayerTableRecord
   2
189
  70
0
  62
7
   6
CONTINUOUS
   0
LAYER
   5
F6
 100
AcDbSymbolTableRecord
 100
AcDbLayerTableRecord
   2
190
  70
0
  62
7
   6
CONTINUOUS
   0
LAYER
   5
F7
 100
AcDbSymbolTableRecord
 100
AcDbLayerTableRecord
   2
191
  70
0
  62
7
   6
CONTINUOUS
   0
LAYER
   5
F8
 100
AcDbSymbolTableRecord
 100
AcDbLayerTableRecord
   2
192
  70
0
  62
7
   6
CONTINUOUS
   0
LAYER
   5
F9
 100
AcDbSymbolTableRecord
 100
AcDbLayerTableRecord
   2
193
  70
0
  62
7
   6
CONTINUOUS
   0
LAYER
   5
FA
 100
AcDbSymbolTableRecord
 100
AcDbLayerTableRecord
   2
194
  70
0
  62
7
   6
CONTINUOUS
   0
LAYER
   5
FB
 100
AcDbSymbolTableRecord
 100
AcDbLayerTableRecord
   2
195
  70
0
  62
7
   6
CONTINUOUS
   0
LAYER
   5
FC
 100
AcDbSymbolTableRecord
 100
AcDbLayerTableRecord
   2
196
  70
0
  62
7
   6
CONTINUOUS
   0
LAYER
   5
FD
 100
AcDbSymbolTableRecord
 100
AcDbLayerTableRecord
   2
197
  70
0
  62
7
   6
CONTINUOUS
   0
LAYER
   5
FE
 100
AcDbSymbolTableRecord
 100
AcDbLayerTableRecord
   2
198
  70
0
  62
7
   6
CONTINUOUS
   0
LAYER
   5
FF
 100
AcDbSymbolTableRecord
 100
AcDbLayerTableRecord
   2
199
  70
0
  62
7
   6
CONTINUOUS
   0
LAYER
   5
100
 100
AcDbSymbolTableRecord
 100
AcDbLayerTableRecord
   2
200
  70
0
  62
7
   6
CONTINUOUS
   0
LAYER
   5
101
 100
AcDbSymbolTableRecord
 100
AcDbLayerTableRecord
   2
201
  70
0
  62
7
   6
CONTINUOUS
   0
LAYER
   5
102
 100
AcDbSymbolTableRecord
 100
AcDbLayerTableRecord
   2
202
  70
0
  62
7
   6
CONTINUOUS
   0
LAYER
   5
103
 100
AcDbSymbolTableRecord
 100
AcDbLayerTableRecord
   2
203
  70
0
  62
7
   6
CONTINUOUS
   0
LAYER
   5
104
 100
AcDbSymbolTableRecord
 100
AcDbLayerTableRecord
   2
204
  70
0
  62
7
   6
CONTINUOUS
   0
LAYER
   5
105
 100
AcDbSymbolTableRecord
 100
AcDbLayerTableRecord
   2
205
  70
0
  62
7
   6
CONTINUOUS
   0
LAYER
   5
106
 100
AcDbSymbolTableRecord
 100
AcDbLayerTableRecord
   2
206
  70
0
  62
7
   6
CONTINUOUS
   0
LAYER
   5
107
 100
AcDbSymbolTableRecord
 100
AcDbLayerTableRecord
   2
207
  70
0
  62
7
   6
CONTINUOUS
   0
LAYER
   5
108
 100
AcDbSymbolTableRecord
 100
AcDbLayerTableRecord
   2
208
  70
0
  62
7
   6
CONTINUOUS
   0
LAYER
   5
109
 100
AcDbSymbolTableRecord
 100
AcDbLayerTableRecord
   2
209
  70
0
  62
7
   6
CONTINUOUS
   0
LAYER
   5
10A
 100
AcDbSymbolTableRecord
 100
AcDbLayerTableRecord
   2
210
  70
0
  62
7
   6
CONTINUOUS
   0
LAYER
   5
10B
 100
AcDbSymbolTableRecord
 100
AcDbLayerTableRecord
   2
211
  70
0
  62
7
   6
CONTINUOUS
   0
LAYER
   5
10C
 100
AcDbSymbolTableRecord
 100
AcDbLayerTableRecord
   2
212
  70
0
  62
7
   6
CONTINUOUS
   0
LAYER
   5
10D
 100
AcDbSymbolTableRecord
 100
AcDbLayerTableRecord
   2
213
  70
0
  62
7
   6
CONTINUOUS
   0
LAYER
   5
10E
 100
AcDbSymbolTableRecord
 100
AcDbLayerTableRecord
   2
214
  70
0
  62
7
   6
CONTINUOUS
   0
LAYER
   5
10F
 100
AcDbSymbolTableRecord
 100
AcDbLayerTableRecord
   2
215
  70
0
  62
7
   6
CONTINUOUS
   0
LAYER
   5
110
 100
AcDbSymbolTableRecord
 100
AcDbLayerTableRecord
   2
216
  70
0
  62
7
   6
CONTINUOUS
   0
LAYER
   5
111
 100
AcDbSymbolTableRecord
 100
AcDbLayerTableRecord
   2
217
  70
0
  62
7
   6
CONTINUOUS
   0
LAYER
   5
112
 100
AcDbSymbolTableRecord
 100
AcDbLayerTableRecord
   2
218
  70
0
  62
7
   6
CONTINUOUS
   0
LAYER
   5
113
 100
AcDbSymbolTableRecord
 100
AcDbLayerTableRecord
   2
219
  70
0
  62
7
   6
CONTINUOUS
   0
LAYER
   5
114
 100
AcDbSymbolTableRecord
 100
AcDbLayerTableRecord
   2
220
  70
0
  62
7
   6
CONTINUOUS
   0
LAYER
   5
115
 100
AcDbSymbolTableRecord
 100
AcDbLayerTableRecord
   2
221
  70
0
  62
7
   6
CONTINUOUS
   0
LAYER
   5
116
 100
AcDbSymbolTableRecord
 100
AcDbLayerTableRecord
   2
222
  70
0
  62
7
   6
CONTINUOUS
   0
LAYER
   5
117
 100
AcDbSymbolTableRecord
 100
AcDbLayerTableRecord
   2
223
  70
0
  62
7
   6
CONTINUOUS
   0
LAYER
   5
118
 100
AcDbSymbolTableRecord
 100
AcDbLayerTableRecord
   2
224
  70
0
  62
7
   6
CONTINUOUS
   0
LAYER
   5
119
 100
AcDbSymbolTableRecord
 100
AcDbLayerTableRecord
   2
225
  70
0
  62
7
   6
CONTINUOUS
   0
LAYER
   5
11A
 100
AcDbSymbolTableRecord
 100
AcDbLayerTableRecord
   2
226
  70
0
  62
7
   6
CONTINUOUS
   0
LAYER
   5
11B
 100
AcDbSymbolTableRecord
 100
AcDbLayerTableRecord
   2
227
  70
0
  62
7
   6
CONTINUOUS
   0
LAYER
   5
11C
 100
AcDbSymbolTableRecord
 100
AcDbLayerTableRecord
   2
228
  70
0
  62
7
   6
CONTINUOUS
   0
LAYER
   5
11D
 100
AcDbSymbolTableRecord
 100
AcDbLayerTableRecord
   2
229
  70
0
  62
7
   6
CONTINUOUS
   0
LAYER
   5
11E
 100
AcDbSymbolTableRecord
 100
AcDbLayerTableRecord
   2
230
  70
0
  62
7
   6
CONTINUOUS
   0
LAYER
   5
11F
 100
AcDbSymbolTableRecord
 100
AcDbLayerTableRecord
   2
231
  70
0
  62
7
   6
CONTINUOUS
   0
LAYER
   5
120
 100
AcDbSymbolTableRecord
 100
AcDbLayerTableRecord
   2
232
  70
0
  62
7
   6
CONTINUOUS
   0
LAYER
   5
121
 100
AcDbSymbolTableRecord
 100
AcDbLayerTableRecord
   2
233
  70
0
  62
7
   6
CONTINUOUS
   0
LAYER
   5
122
 100
AcDbSymbolTableRecord
 100
AcDbLayerTableRecord
   2
234
  70
0
  62
7
   6
CONTINUOUS
   0
LAYER
   5
123
 100
AcDbSymbolTableRecord
 100
AcDbLayerTableRecord
   2
235
  70
0
  62
7
   6
CONTINUOUS
   0
LAYER
   5
124
 100
AcDbSymbolTableRecord
 100
AcDbLayerTableRecord
   2
236
  70
0
  62
7
   6
CONTINUOUS
   0
LAYER
   5
125
 100
AcDbSymbolTableRecord
 100
AcDbLayerTableRecord
   2
237
  70
0
  62
7
   6
CONTINUOUS
   0
LAYER
   5
126
 100
AcDbSymbolTableRecord
 100
AcDbLayerTableRecord
   2
238
  70
0
  62
7
   6
CONTINUOUS
   0
LAYER
   5
127
 100
AcDbSymbolTableRecord
 100
AcDbLayerTableRecord
   2
239
  70
0
  62
7
   6
CONTINUOUS
   0
LAYER
   5
128
 100
AcDbSymbolTableRecord
 100
AcDbLayerTableRecord
   2
240
  70
0
  62
7
   6
CONTINUOUS
   0
LAYER
   5
129
 100
AcDbSymbolTableRecord
 100
AcDbLayerTableRecord
   2
241
  70
0
  62
7
   6
CONTINUOUS
   0
LAYER
   5
12A
 100
AcDbSymbolTableRecord
 100
AcDbLayerTableRecord
   2
242
  70
0
  62
7
   6
CONTINUOUS
   0
LAYER
   5
12B
 100
AcDbSymbolTableRecord
 100
AcDbLayerTableRecord
   2
243
  70
0
  62
7
   6
CONTINUOUS
   0
LAYER
   5
12C
 100
AcDbSymbolTableRecord
 100
AcDbLayerTableRecord
   2
244
  70
0
  62
7
   6
CONTINUOUS
   0
LAYER
   5
12D
 100
AcDbSymbolTableRecord
 100
AcDbLayerTableRecord
   2
245
  70
0
  62
7
   6
CONTINUOUS
   0
LAYER
   5
12E
 100
AcDbSymbolTableRecord
 100
AcDbLayerTableRecord
   2
246
  70
0
  62
7
   6
CONTINUOUS
   0
LAYER
   5
12F
 100
AcDbSymbolTableRecord
 100
AcDbLayerTableRecord
   2
247
  70
0
  62
7
   6
CONTINUOUS
   0
LAYER
   5
130
 100
AcDbSymbolTableRecord
 100
AcDbLayerTableRecord
   2
248
  70
0
  62
7
   6
CONTINUOUS
   0
LAYER
   5
131
 100
AcDbSymbolTableRecord
 100
AcDbLayerTableRecord
   2
249
  70
0
  62
7
   6
CONTINUOUS
   0
LAYER
   5
132
 100
AcDbSymbolTableRecord
 100
AcDbLayerTableRecord
   2
Ａ３図面枠
  70
0
  62
7
   6
CONTINUOUS
   0
LAYER
   5
133
 100
AcDbSymbolTableRecord
 100
AcDbLayerTableRecord
   2
251
  70
0
  62
7
   6
CONTINUOUS
   0
LAYER
   5
134
 100
AcDbSymbolTableRecord
 100
AcDbLayerTableRecord
   2
252
  70
0
  62
7
   6
CONTINUOUS
   0
LAYER
   5
135
 100
AcDbSymbolTableRecord
 100
AcDbLayerTableRecord
   2
253
  70
0
  62
7
   6
CONTINUOUS
   0
LAYER
   5
136
 100
AcDbSymbolTableRecord
 100
AcDbLayerTableRecord
   2
254
  70
0
  62
7
   6
CONTINUOUS
   0
ENDTAB
  0
TABLE
  2
STYLE
  5
3
100
AcDbSymbolTable
  70
3
  0
STYLE
  5
F
100
AcDbSymbolTableRecord
100
AcDbTextStyleTableRecord
  2
STANDARD
 70
     0
 40
0.0
 41
1.0
 50
0.0
 71
     0
 42
0.2
  3
TXT
  4
BIGFONT
  0
STYLE
  5
38
100
AcDbSymbolTableRecord
100
AcDbTextStyleTableRecord
  2
STANDARD1
 70
     4
 40
0.0
 41
1.0
 50
0.0
 71
     0
 42
0.2
  3
TXT
  4
BIGFONT
   0
STYLE
   5
137
 100
AcDbSymbolTableRecord
 100
AcDbTextStyleTableRecord
   2
GMM001
  70
0
  40
0.0
  41
 1.0000000000000
  50
0.0
  71
     0
  42
1.0
   3
txt.shx
   4
bigfont.shx
   0
ENDTAB
  0
TABLE
  2
VIEW
  5
6
100
AcDbSymbolTable
 70
     0
  0
ENDTAB
  0
TABLE
  2
UCS
  5
7
100
AcDbSymbolTable
 70
     0
  0
ENDTAB
  0
TABLE
  2
APPID
  5
9
100
AcDbSymbolTable
 70
     1
  0
APPID
  5
10
100
AcDbSymbolTableRecord
100
AcDbRegAppTableRecord
  2
ACAD
 70
     0
  0
ENDTAB
   0
TABLE
   2
DIMSTYLE
   5
A
 100
AcDbSymbolTable
  70
6
  0
DIMSTYLE
105
1D
100
AcDbSymbolTableRecord
100
AcDbDimStyleTableRecord
  2
STANDARD
 70
     0
  3

  4

  5

  6

  7

 40
1.0
 41
0.18
 42
0.0625
 43
0.38
 44
0.18
 45
0.0
 46
0.0
 47
0.0
 48
0.0
140
0.18
141
0.09
142
0.0
143
25.4
144
1.0
145
0.0
146
1.0
147
0.09
 71
     0
 72
     0
 73
     1
 74
     1
 75
     0
 76
     0
 77
     0
 78
     0
170
     0
171
     2
172
     0
173
     0
174
     0
175
     0
176
     0
177
     0
178
     0
270
     2
271
     4
272
     4
273
     2
274
     2
340
F
275
     0
280
     0
281
     0
282
     0
283
     1
284
     0
285
     0
286
     0
287
     3
288
     0
   0
DIMSTYLE
 105
138
 100
AcDbSymbolTableRecord
 100
AcDbDimStyleTableRecord
   2
GMM001
  70
0
   3

   4

   5

   6
_OPEN30
   7
_OPEN30
  40
 1.0000000000000
  41
 3.0000000000000
  42
0.0
  43
 8.0000000000000
  44
 2.0000000000000
  45
0.0
  46
0.0
  47
0.0
  48
0.0
 140
 4.0000000000000
 141
 1.0000000000000
 142
0.0
 143
 0.39400000000000E-1
 144
 1.0000000000000
 145
0.0
 146
 0.62500000000000
 147
 1.7142857142857
  71
0
  72
0
  73
0
  74
0
  75
0
  76
0
  77
3
  78
8
 170
0
 171
2
 172
1
 173
1
 174
0
 175
0
 176
10
 177
10
 178
10
 270
2
 271
6
 272
0
 273
2
 274
2
 340
137
 275
1
 280
0
 281
0
 282
0
 283
1
 284
0
 285
0
 286
0
 287
3
 288
0
   0
DIMSTYLE
 105
139
 100
AcDbSymbolTableRecord
 100
AcDbDimStyleTableRecord
   2
GMM002
  70
0
   3

   4

   5

   6
_NONE
   7
_OPEN30
  40
 1.0000000000000
  41
 3.0000000000000
  42
0.0
  43
 8.0000000000000
  44
 2.0000000000000
  45
0.0
  46
0.0
  47
0.0
  48
0.0
 140
 4.0000000000000
 141
 1.0000000000000
 142
0.0
 143
 0.39400000000000E-1
 144
 1.0000000000000
 145
0.0
 146
 0.62500000000000
 147
 1.7142857142857
  71
0
  72
0
  73
0
  74
0
  75
0
  76
0
  77
3
  78
8
 170
0
 171
2
 172
1
 173
1
 174
0
 175
0
 176
10
 177
10
 178
10
 270
2
 271
6
 272
0
 273
2
 274
2
 340
137
 275
1
 280
0
 281
0
 282
0
 283
1
 284
0
 285
0
 286
0
 287
4
 288
1
   0
DIMSTYLE
 105
13A
 100
AcDbSymbolTableRecord
 100
AcDbDimStyleTableRecord
   2
GMM003
  70
0
   3

   4

   5

   6
_NONE
   7
_OPEN30
  40
 1.0000000000000
  41
 3.0000000000000
  42
0.0
  43
 8.0000000000000
  44
 2.0000000000000
  45
0.0
  46
0.0
  47
0.0
  48
0.0
 140
 4.0000000000000
 141
 1.0000000000000
 142
0.0
 143
 0.39400000000000E-1
 144
 1.0000000000000
 145
0.0
 146
 0.62500000000000
 147
 2.3951188487360
  71
0
  72
0
  73
0
  74
0
  75
0
  76
0
  77
3
  78
8
 170
0
 171
2
 172
1
 173
1
 174
0
 175
0
 176
10
 177
10
 178
10
 270
2
 271
6
 272
0
 273
2
 274
2
 340
137
 275
1
 280
0
 281
0
 282
0
 283
1
 284
0
 285
0
 286
0
 287
4
 288
1
   0
DIMSTYLE
 105
13B
 100
AcDbSymbolTableRecord
 100
AcDbDimStyleTableRecord
   2
GMM004
  70
0
   3

   4

   5

   6
_OPEN30
   7
_OPEN30
  40
 1.0000000000000
  41
 3.0000000000000
  42
0.0
  43
 8.0000000000000
  44
 2.0000000000000
  45
0.0
  46
0.0
  47
0.0
  48
0.0
 140
 4.0000000000000
 141
 1.0000000000000
 142
0.0
 143
 0.39400000000000E-1
 144
 1.0000000000000
 145
0.0
 146
 0.62500000000000
 147
 1.7692693040053
  71
0
  72
0
  73
0
  74
0
  75
0
  76
0
  77
3
  78
8
 170
0
 171
2
 172
1
 173
1
 174
0
 175
0
 176
10
 177
10
 178
10
 270
2
 271
6
 272
0
 273
2
 274
2
 340
137
 275
1
 280
0
 281
0
 282
0
 283
1
 284
0
 285
0
 286
0
 287
0
 288
1
   0
ENDTAB
  0
TABLE
  2
BLOCK_RECORD
  5
1
100
AcDbSymbolTable
 70
     0
  0
BLOCK_RECORD
  5
18
100
AcDbSymbolTableRecord
100
AcDbBlockTableRecord
  2
*MODEL_SPACE
  0
BLOCK_RECORD
  5
15
100
AcDbSymbolTableRecord
100
AcDbBlockTableRecord
  2
*PAPER_SPACE
   0
BLOCK_RECORD
   5
13C
 100
AcDbSymbolTableRecord
 100
AcDbBlockTableRecord
   2
*D1
   0
BLOCK_RECORD
   5
13D
 100
AcDbSymbolTableRecord
 100
AcDbBlockTableRecord
   2
*D2
   0
BLOCK_RECORD
   5
13E
 100
AcDbSymbolTableRecord
 100
AcDbBlockTableRecord
   2
*D3
   0
BLOCK_RECORD
   5
13F
 100
AcDbSymbolTableRecord
 100
AcDbBlockTableRecord
   2
*D4
   0
BLOCK_RECORD
   5
140
 100
AcDbSymbolTableRecord
 100
AcDbBlockTableRecord
   2
*D5
   0
BLOCK_RECORD
   5
141
 100
AcDbSymbolTableRecord
 100
AcDbBlockTableRecord
   2
*D6
   0
BLOCK_RECORD
   5
142
 100
AcDbSymbolTableRecord
 100
AcDbBlockTableRecord
   2
_ARCHTICK
   0
BLOCK_RECORD
   5
143
 100
AcDbSymbolTableRecord
 100
AcDbBlockTableRecord
   2
_BOXBLANK
   0
BLOCK_RECORD
   5
144
 100
AcDbSymbolTableRecord
 100
AcDbBlockTableRecord
   2
_BOXFILLED
   0
BLOCK_RECORD
   5
145
 100
AcDbSymbolTableRecord
 100
AcDbBlockTableRecord
   2
_CLOSED
   0
BLOCK_RECORD
   5
146
 100
AcDbSymbolTableRecord
 100
AcDbBlockTableRecord
   2
_CLOSEDBLANK
   0
BLOCK_RECORD
   5
147
 100
AcDbSymbolTableRecord
 100
AcDbBlockTableRecord
   2
_DATUMBLANK
   0
BLOCK_RECORD
   5
148
 100
AcDbSymbolTableRecord
 100
AcDbBlockTableRecord
   2
_DATUMFILLED
   0
BLOCK_RECORD
   5
149
 100
AcDbSymbolTableRecord
 100
AcDbBlockTableRecord
   2
_DOT
   0
BLOCK_RECORD
   5
14A
 100
AcDbSymbolTableRecord
 100
AcDbBlockTableRecord
   2
_DOTBLANK
   0
BLOCK_RECORD
   5
14B
 100
AcDbSymbolTableRecord
 100
AcDbBlockTableRecord
   2
_DOTSMALL
   0
BLOCK_RECORD
   5
14C
 100
AcDbSymbolTableRecord
 100
AcDbBlockTableRecord
   2
_INTEGRAL
   0
BLOCK_RECORD
   5
14D
 100
AcDbSymbolTableRecord
 100
AcDbBlockTableRecord
   2
_NONE
   0
BLOCK_RECORD
   5
14E
 100
AcDbSymbolTableRecord
 100
AcDbBlockTableRecord
   2
_OBLIQUE
   0
BLOCK_RECORD
   5
14F
 100
AcDbSymbolTableRecord
 100
AcDbBlockTableRecord
   2
_OPEN
   0
BLOCK_RECORD
   5
150
 100
AcDbSymbolTableRecord
 100
AcDbBlockTableRecord
   2
_OPEN30
   0
BLOCK_RECORD
   5
151
 100
AcDbSymbolTableRecord
 100
AcDbBlockTableRecord
   2
_OPEN90
   0
BLOCK_RECORD
   5
152
 100
AcDbSymbolTableRecord
 100
AcDbBlockTableRecord
   2
_ORIGIN
   0
ENDTAB
   0
ENDSEC
  0
SECTION
  2
BLOCKS
  0
BLOCK
  5
19
100
AcDbEntity
  8
0
100
AcDbBlockBegin
  2
*MODEL_SPACE
 70
     0
 10
0.0
 20
0.0
 30
0.0
  3
*MODEL_SPACE
  1

  0
ENDBLK
  5
1A
100
AcDbEntity
  8
0
100
AcDbBlockEnd
  0
BLOCK
  5
16
100
AcDbEntity
 67
     1
  8
0
100
AcDbBlockBegin
  2
*PAPER_SPACE
 70
     0
 10
0.0
 20
0.0
 30
0.0
  3
*PAPER_SPACE
  1

  0
ENDBLK
  5
17
100
AcDbEntity
 67
     1
  8
0
100
AcDbBlockEnd
   0
BLOCK
   5
153
 100
AcDbEntity
   8
0
 100
AcDbBlockBegin
   2
_ARCHTICK
  70
0
  10
0.0
  20
0.0
  30
0.0
   3
_ARCHTICK
   0
POLYLINE
   5
154
 100
AcDbEntity
   8
0
   6
BYBLOCK
  62
0
 100
AcDb2dPolyline
  66
1
  10
0.0
  20
0.0
  30
0.0
  70
1
  40
 0.15000000000000
  41
 0.15000000000000
   0
VERTEX
   5
155
 100
AcDbEntity
   8
0
   6
BYBLOCK
  62
0
 100
AcDbVertex
 100
AcDb2dVertex
  10
-0.50000000000000
  20
-0.50000000000000
  30
0.0
  40
 0.15000000000000
  41
 0.15000000000000
   0
VERTEX
   5
156
 100
AcDbEntity
   8
0
   6
BYBLOCK
  62
0
 100
AcDbVertex
 100
AcDb2dVertex
  10
 0.50000000000000
  20
 0.50000000000000
  30
0.0
  40
 0.15000000000000
  41
 0.15000000000000
   0
SEQEND
   5
157
 100
AcDbEntity
   8
0
   6
BYBLOCK
  62
0
   0
ENDBLK
   5
158
 100
AcDbEntity
   8
0
 100
AcDbBlockEnd
   0
BLOCK
   5
159
 100
AcDbEntity
   8
0
 100
AcDbBlockBegin
   2
_OBLIQUE
  70
0
  10
0.0
  20
0.0
  30
0.0
   3
_OBLIQUE
   0
LINE
   5
15A
 100
AcDbEntity
   8
0
 100
AcDbLine
   6
BYBLOCK
  62
0
  10
-0.50000000000000
  20
-0.50000000000000
  30
0.0
  11
 0.50000000000000
  21
 0.50000000000000
  31
0.0
   0
ENDBLK
   5
15B
 100
AcDbEntity
   8
0
 100
AcDbBlockEnd
   0
BLOCK
   5
15C
 100
AcDbEntity
   8
0
 100
AcDbBlockBegin
   2
_BOXBLANK
  70
0
  10
0.0
  20
0.0
  30
0.0
   3
_BOXBLANK
   0
LINE
   5
15D
 100
AcDbEntity
   8
0
 100
AcDbLine
   6
BYBLOCK
  62
0
  10
-0.50000000000000
  20
-0.50000000000000
  30
0.0
  11
 0.50000000000000
  21
-0.50000000000000
  31
0.0
   0
LINE
   5
15E
 100
AcDbEntity
   8
0
 100
AcDbLine
   6
BYBLOCK
  62
0
  10
 0.50000000000000
  20
-0.50000000000000
  30
0.0
  11
 0.50000000000000
  21
 0.50000000000000
  31
0.0
   0
LINE
   5
15F
 100
AcDbEntity
   8
0
 100
AcDbLine
   6
BYBLOCK
  62
0
  10
 0.50000000000000
  20
 0.50000000000000
  30
0.0
  11
-0.50000000000000
  21
 0.50000000000000
  31
0.0
   0
LINE
   5
160
 100
AcDbEntity
   8
0
 100
AcDbLine
   6
BYBLOCK
  62
0
  10
-0.50000000000000
  20
 0.50000000000000
  30
0.0
  11
-0.50000000000000
  21
-0.50000000000000
  31
0.0
   0
LINE
   5
161
 100
AcDbEntity
   8
0
 100
AcDbLine
   6
BYBLOCK
  62
0
  10
-0.50000000000000
  20
0.0
  30
0.0
  11
-1.0000000000000
  21
0.0
  31
0.0
   0
ENDBLK
   5
162
 100
AcDbEntity
   8
0
 100
AcDbBlockEnd
   0
BLOCK
   5
163
 100
AcDbEntity
   8
0
 100
AcDbBlockBegin
   2
_BOXFILLED
  70
0
  10
0.0
  20
0.0
  30
0.0
   3
_BOXFILLED
   0
SOLID
   5
164
 100
AcDbEntity
   8
0
 100
AcDbTrace
   6
BYBLOCK
  62
0
  10
-0.50000000000000
  20
 0.50000000000000
  30
0.0
  11
 0.50000000000000
  21
 0.50000000000000
  31
0.0
  12
-0.50000000000000
  22
-0.50000000000000
  32
0.0
  13
 0.50000000000000
  23
-0.50000000000000
  33
0.0
   0
LINE
   5
165
 100
AcDbEntity
   8
0
 100
AcDbLine
   6
BYBLOCK
  62
0
  10
-0.50000000000000
  20
0.0
  30
0.0
  11
-1.0000000000000
  21
0.0
  31
0.0
   0
ENDBLK
   5
166
 100
AcDbEntity
   8
0
 100
AcDbBlockEnd
   0
BLOCK
   5
167
 100
AcDbEntity
   8
0
 100
AcDbBlockBegin
   2
_CLOSED
  70
0
  10
0.0
  20
0.0
  30
0.0
   3
_CLOSED
   0
LINE
   5
168
 100
AcDbEntity
   8
0
 100
AcDbLine
   6
BYBLOCK
  62
0
  10
-1.0000000000000
  20
 0.16666666666667
  30
0.0
  11
0.0
  21
0.0
  31
0.0
   0
LINE
   5
169
 100
AcDbEntity
   8
0
 100
AcDbLine
   6
BYBLOCK
  62
0
  10
0.0
  20
0.0
  30
0.0
  11
-1.0000000000000
  21
-0.16666666666667
  31
0.0
   0
LINE
   5
16A
 100
AcDbEntity
   8
0
 100
AcDbLine
   6
BYBLOCK
  62
0
  10
-1.0000000000000
  20
 0.16666666666667
  30
0.0
  11
-1.0000000000000
  21
-0.16666666666667
  31
0.0
   0
LINE
   5
16B
 100
AcDbEntity
   8
0
 100
AcDbLine
   6
BYBLOCK
  62
0
  10
0.0
  20
0.0
  30
0.0
  11
-1.0000000000000
  21
0.0
  31
0.0
   0
ENDBLK
   5
16C
 100
AcDbEntity
   8
0
 100
AcDbBlockEnd
   0
BLOCK
   5
16D
 100
AcDbEntity
   8
0
 100
AcDbBlockBegin
   2
_OPEN
  70
0
  10
0.0
  20
0.0
  30
0.0
   3
_OPEN
   0
LINE
   5
16E
 100
AcDbEntity
   8
0
 100
AcDbLine
   6
BYBLOCK
  62
0
  10
-1.0000000000000
  20
 0.16666666666667
  30
0.0
  11
0.0
  21
0.0
  31
0.0
   0
LINE
   5
16F
 100
AcDbEntity
   8
0
 100
AcDbLine
   6
BYBLOCK
  62
0
  10
0.0
  20
0.0
  30
0.0
  11
-1.0000000000000
  21
-0.16666666666667
  31
0.0
   0
LINE
   5
170
 100
AcDbEntity
   8
0
 100
AcDbLine
   6
BYBLOCK
  62
0
  10
0.0
  20
0.0
  30
0.0
  11
-1.0000000000000
  21
0.0
  31
0.0
   0
ENDBLK
   5
171
 100
AcDbEntity
   8
0
 100
AcDbBlockEnd
   0
BLOCK
   5
172
 100
AcDbEntity
   8
0
 100
AcDbBlockBegin
   2
_OPEN30
  70
0
  10
0.0
  20
0.0
  30
0.0
   3
_OPEN30
   0
LINE
   5
173
 100
AcDbEntity
   8
0
 100
AcDbLine
   6
BYBLOCK
  62
0
  10
-1.0000000000000
  20
 0.26794919243110
  30
0.0
  11
0.0
  21
0.0
  31
0.0
   0
LINE
   5
174
 100
AcDbEntity
   8
0
 100
AcDbLine
   6
BYBLOCK
  62
0
  10
0.0
  20
0.0
  30
0.0
  11
-1.0000000000000
  21
-0.26794919243110
  31
0.0
   0
LINE
   5
175
 100
AcDbEntity
   8
0
 100
AcDbLine
   6
BYBLOCK
  62
0
  10
0.0
  20
0.0
  30
0.0
  11
-1.0000000000000
  21
0.0
  31
0.0
   0
ENDBLK
   5
176
 100
AcDbEntity
   8
0
 100
AcDbBlockEnd
   0
BLOCK
   5
177
 100
AcDbEntity
   8
0
 100
AcDbBlockBegin
   2
_OPEN90
  70
0
  10
0.0
  20
0.0
  30
0.0
   3
_OPEN90
   0
LINE
   5
178
 100
AcDbEntity
   8
0
 100
AcDbLine
   6
BYBLOCK
  62
0
  10
-0.50000000000000
  20
 0.50000000000000
  30
0.0
  11
0.0
  21
0.0
  31
0.0
   0
LINE
   5
179
 100
AcDbEntity
   8
0
 100
AcDbLine
   6
BYBLOCK
  62
0
  10
0.0
  20
0.0
  30
0.0
  11
-0.50000000000000
  21
-0.50000000000000
  31
0.0
   0
LINE
   5
17A
 100
AcDbEntity
   8
0
 100
AcDbLine
   6
BYBLOCK
  62
0
  10
0.0
  20
0.0
  30
0.0
  11
-1.0000000000000
  21
0.0
  31
0.0
   0
ENDBLK
   5
17B
 100
AcDbEntity
   8
0
 100
AcDbBlockEnd
   0
BLOCK
   5
17C
 100
AcDbEntity
   8
0
 100
AcDbBlockBegin
   2
_CLOSEDBLANK
  70
0
  10
0.0
  20
0.0
  30
0.0
   3
_CLOSEDBLANK
   0
LINE
   5
17D
 100
AcDbEntity
   8
0
 100
AcDbLine
   6
BYBLOCK
  62
0
  10
-1.0000000000000
  20
 0.16666666666667
  30
0.0
  11
0.0
  21
0.0
  31
0.0
   0
LINE
   5
17E
 100
AcDbEntity
   8
0
 100
AcDbLine
   6
BYBLOCK
  62
0
  10
0.0
  20
0.0
  30
0.0
  11
-1.0000000000000
  21
-0.16666666666667
  31
0.0
   0
LINE
   5
17F
 100
AcDbEntity
   8
0
 100
AcDbLine
   6
BYBLOCK
  62
0
  10
-1.0000000000000
  20
 0.16666666666667
  30
0.0
  11
-1.0000000000000
  21
-0.16666666666667
  31
0.0
   0
ENDBLK
   5
180
 100
AcDbEntity
   8
0
 100
AcDbBlockEnd
   0
BLOCK
   5
181
 100
AcDbEntity
   8
0
 100
AcDbBlockBegin
   2
_DOT
  70
0
  10
0.0
  20
0.0
  30
0.0
   3
_DOT
   0
POLYLINE
   5
182
 100
AcDbEntity
   8
0
   6
BYBLOCK
  62
0
 100
AcDb2dPolyline
  66
1
  10
0.0
  20
0.0
  30
0.0
  70
1
  40
 0.50000000000000
  41
 0.50000000000000
   0
VERTEX
   5
183
 100
AcDbEntity
   8
0
   6
BYBLOCK
  62
0
 100
AcDbVertex
 100
AcDb2dVertex
  10
-0.25000000000000
  20
0.0
  30
0.0
  42
 1.0000000000000
  40
 0.50000000000000
  41
 0.50000000000000
   0
VERTEX
   5
184
 100
AcDbEntity
   8
0
   6
BYBLOCK
  62
0
 100
AcDbVertex
 100
AcDb2dVertex
  10
 0.25000000000000
  20
0.0
  30
0.0
  42
 1.0000000000000
  40
 0.50000000000000
  41
 0.50000000000000
   0
SEQEND
   5
185
 100
AcDbEntity
   8
0
   6
BYBLOCK
  62
0
   0
LINE
   5
186
 100
AcDbEntity
   8
0
 100
AcDbLine
   6
BYBLOCK
  62
0
  10
-0.50000000000000
  20
0.0
  30
0.0
  11
-1.0000000000000
  21
0.0
  31
0.0
   0
ENDBLK
   5
187
 100
AcDbEntity
   8
0
 100
AcDbBlockEnd
   0
BLOCK
   5
188
 100
AcDbEntity
   8
0
 100
AcDbBlockBegin
   2
_DOTSMALL
  70
0
  10
0.0
  20
0.0
  30
0.0
   3
_DOTSMALL
   0
POLYLINE
   5
189
 100
AcDbEntity
   8
0
   6
BYBLOCK
  62
0
 100
AcDb2dPolyline
  66
1
  10
0.0
  20
0.0
  30
0.0
  70
1
  40
 0.50000000000000
  41
 0.50000000000000
   0
VERTEX
   5
18A
 100
AcDbEntity
   8
0
   6
BYBLOCK
  62
0
 100
AcDbVertex
 100
AcDb2dVertex
  10
-0.62500000000000E-1
  20
0.0
  30
0.0
  42
 1.0000000000000
  40
 0.50000000000000
  41
 0.50000000000000
   0
VERTEX
   5
18B
 100
AcDbEntity
   8
0
   6
BYBLOCK
  62
0
 100
AcDbVertex
 100
AcDb2dVertex
  10
 0.62500000000000E-1
  20
0.0
  30
0.0
  42
 1.0000000000000
  40
 0.50000000000000
  41
 0.50000000000000
   0
SEQEND
   5
18C
 100
AcDbEntity
   8
0
   6
BYBLOCK
  62
0
   0
ENDBLK
   5
18D
 100
AcDbEntity
   8
0
 100
AcDbBlockEnd
   0
BLOCK
   5
18E
 100
AcDbEntity
   8
0
 100
AcDbBlockBegin
   2
_DATUMBLANK
  70
0
  10
0.0
  20
0.0
  30
0.0
   3
_DATUMBLANK
   0
LINE
   5
18F
 100
AcDbEntity
   8
0
 100
AcDbLine
   6
BYBLOCK
  62
0
  10
0.0
  20
 0.57735027000000
  30
0.0
  11
-1.0000000000000
  21
0.0
  31
0.0
   0
LINE
   5
190
 100
AcDbEntity
   8
0
 100
AcDbLine
   6
BYBLOCK
  62
0
  10
-1.0000000000000
  20
0.0
  30
0.0
  11
0.0
  21
-0.57735027000000
  31
0.0
   0
LINE
   5
191
 100
AcDbEntity
   8
0
 100
AcDbLine
   6
BYBLOCK
  62
0
  10
0.0
  20
-0.57735027000000
  30
0.0
  11
0.0
  21
 0.57735027000000
  31
0.0
   0
ENDBLK
   5
192
 100
AcDbEntity
   8
0
 100
AcDbBlockEnd
   0
BLOCK
   5
193
 100
AcDbEntity
   8
0
 100
AcDbBlockBegin
   2
_DATUMFILLED
  70
0
  10
0.0
  20
0.0
  30
0.0
   3
_DATUMFILLED
   0
SOLID
   5
194
 100
AcDbEntity
   8
0
 100
AcDbTrace
   6
BYBLOCK
  62
0
  10
0.0
  20
 0.57735027000000
  30
0.0
  11
-1.0000000000000
  21
0.0
  31
0.0
  12
0.0
  22
-0.57735027000000
  32
0.0
  13
0.0
  23
-0.57735027000000
  33
0.0
   0
ENDBLK
   5
195
 100
AcDbEntity
   8
0
 100
AcDbBlockEnd
   0
BLOCK
   5
196
 100
AcDbEntity
   8
0
 100
AcDbBlockBegin
   2
_ORIGIN
  70
0
  10
0.0
  20
0.0
  30
0.0
   3
_ORIGIN
   0
CIRCLE
   5
197
 100
AcDbEntity
   8
0
 100
AcDbCircle
   6
BYBLOCK
  62
0
  10
0.0
  20
0.0
  30
0.0
  40
 0.50000000000000
   0
LINE
   5
198
 100
AcDbEntity
   8
0
 100
AcDbLine
   6
BYBLOCK
  62
0
  10
0.0
  20
0.0
  30
0.0
  11
-1.0000000000000
  21
0.0
  31
0.0
   0
ENDBLK
   5
199
 100
AcDbEntity
   8
0
 100
AcDbBlockEnd
   0
BLOCK
   5
19A
 100
AcDbEntity
   8
0
 100
AcDbBlockBegin
   2
_NONE
  70
0
  10
0.0
  20
0.0
  30
0.0
   3
_NONE
   0
CIRCLE
   5
19B
 100
AcDbEntity
   8
0
 100
AcDbCircle
   6
BYBLOCK
  62
0
  10
0.0
  20
0.0
  30
0.0
  40
 0.25000000000000
   0
ENDBLK
   5
19C
 100
AcDbEntity
   8
0
 100
AcDbBlockEnd
   0
BLOCK
   5
19D
 100
AcDbEntity
   8
0
 100
AcDbBlockBegin
   2
_DOTBLANK
  70
0
  10
0.0
  20
0.0
  30
0.0
   3
_DOTBLANK
   0
CIRCLE
   5
19E
 100
AcDbEntity
   8
0
 100
AcDbCircle
   6
BYBLOCK
  62
0
  10
0.0
  20
0.0
  30
0.0
  40
 0.50000000000000
   0
LINE
   5
19F
 100
AcDbEntity
   8
0
 100
AcDbLine
   6
BYBLOCK
  62
0
  10
-0.50000000000000
  20
0.0
  30
0.0
  11
-1.0000000000000
  21
0.0
  31
0.0
   0
ENDBLK
   5
1A0
 100
AcDbEntity
   8
0
 100
AcDbBlockEnd
   0
BLOCK
   5
1A1
 100
AcDbEntity
   8
0
 100
AcDbBlockBegin
   2
_INTEGRAL
  70
0
  10
0.0
  20
0.0
  30
0.0
   3
_INTEGRAL
   0
ARC
   5
1A2
 100
AcDbEntity
   8
0
   6
BYBLOCK
  62
0
 100
AcDbCircle
  10
 0.44488800000000
  20
-0.91335000000000E-1
  30
0.0
  40
 0.45416700000000
 100
AcDbArc
  50
 102.00000000000
  51
 168.00000000000
   0
ARC
   5
1A3
 100
AcDbEntity
   8
0
   6
BYBLOCK
  62
0
 100
AcDbCircle
  10
-0.44488800000000
  20
 0.91335000000000E-1
  30
0.0
  40
 0.45416700000000
 100
AcDbArc
  50
 282.00000000000
  51
 348.00000000000
   0
ENDBLK
   5
1A4
 100
AcDbEntity
   8
0
 100
AcDbBlockEnd
   0
BLOCK
   5
1A5
 100
AcDbEntity
   8
0
 100
AcDbBlockBegin
   2
*D1
  70
65
  10
0.0
  20
0.0
  30
0.0
   3
*D1
   0
LINE
   5
1A6
 100
AcDbEntity
   8
0
 100
AcDbLine
   6
CONTINUOUS
  62
10
  10
 1358.3993684008
  20
 108.84528434817
  30
0.0
  11
 1372.7364026237
  21
 108.84528434817
  31
0.0
   0
LINE
   5
1A7
 100
AcDbEntity
   8
0
 100
AcDbLine
   6
CONTINUOUS
  62
10
  10
 1357.6689249289
  20
 93.983443234011
  30
0.0
  11
 1372.7364026237
  21
 93.983443234011
  31
0.0
   0
LINE
   5
1A8
 100
AcDbEntity
   8
0
 100
AcDbLine
   6
CONTINUOUS
  62
10
  10
 1370.7364026237
  20
 108.84528434817
  30
0.0
  11
 1370.7364026237
  21
 101.41436379109
  31
0.0
   0
LINE
   5
1A9
 100
AcDbEntity
   8
0
 100
AcDbLine
   6
CONTINUOUS
  62
10
  10
 1370.7364026237
  20
 93.983443234011
  30
0.0
  11
 1370.7364026237
  21
 101.41436379109
  31
0.0
   0
INSERT
   5
1AA
 100
AcDbEntity
   8
0
   6
CONTINUOUS
  62
10
 100
AcDbBlockReference
   2
_OPEN30
  10
 1370.7364026237
  20
 108.84528434817
  30
0.0
  41
 3.0000000000000
  42
 3.0000000000000
  43
 3.0000000000000
  50
 90.000000000000
   0
INSERT
   5
1AB
 100
AcDbEntity
   8
0
   6
CONTINUOUS
  62
10
 100
AcDbBlockReference
   2
_OPEN30
  10
 1370.7364026237
  20
 93.983443234011
  30
0.0
  41
 3.0000000000000
  42
 3.0000000000000
  43
 3.0000000000000
  50
 270.00000000000
   0
MTEXT
   5
1AC
 100
AcDbEntity
   8
0
  62
10
 100
AcDbMText
  10
 1369.0221169094
  20
 101.41436379109
  30
0.0
  40
 4.0000000000000
  41
0.0
  71
8
  72
1
   1
\A1;15
   7
GMM001
  11
0.0
  21
 1.0000000000000
  31
0.0
   0
ENDBLK
   5
1AD
 100
AcDbEntity
   8
0
 100
AcDbBlockEnd
   0
BLOCK
   5
1AE
 100
AcDbEntity
   8
0
 100
AcDbBlockBegin
   2
*D2
  70
65
  10
0.0
  20
0.0
  30
0.0
   3
*D2
   0
LINE
   5
1AF
 100
AcDbEntity
   8
0
 100
AcDbLine
   6
CONTINUOUS
  62
10
  10
 1307.6689249289
  20
 106.98344323401
  30
0.0
  11
 1307.6689249289
  21
 120.61190231307
  31
0.0
   0
LINE
   5
1B0
 100
AcDbEntity
   8
0
 100
AcDbLine
   6
CONTINUOUS
  62
10
  10
 1359.6689249289
  20
 106.98344323401
  30
0.0
  11
 1359.6689249289
  21
 120.61190231307
  31
0.0
   0
LINE
   5
1B1
 100
AcDbEntity
   8
0
 100
AcDbLine
   6
CONTINUOUS
  62
10
  10
 1307.6689249289
  20
 118.61190231307
  30
0.0
  11
 1333.6689249289
  21
 118.61190231307
  31
0.0
   0
LINE
   5
1B2
 100
AcDbEntity
   8
0
 100
AcDbLine
   6
CONTINUOUS
  62
10
  10
 1359.6689249289
  20
 118.61190231307
  30
0.0
  11
 1333.6689249289
  21
 118.61190231307
  31
0.0
   0
INSERT
   5
1B3
 100
AcDbEntity
   8
0
   6
CONTINUOUS
  62
10
 100
AcDbBlockReference
   2
_OPEN30
  10
 1307.6689249289
  20
 118.61190231307
  30
0.0
  41
 3.0000000000000
  42
 3.0000000000000
  43
 3.0000000000000
  50
 180.00000000000
   0
INSERT
   5
1B4
 100
AcDbEntity
   8
0
   6
CONTINUOUS
  62
10
 100
AcDbBlockReference
   2
_OPEN30
  10
 1359.6689249289
  20
 118.61190231307
  30
0.0
  41
 3.0000000000000
  42
 3.0000000000000
  43
 3.0000000000000
  50
0.0
   0
MTEXT
   5
1B5
 100
AcDbEntity
   8
0
  62
10
 100
AcDbMText
  10
 1333.6689249289
  20
 120.32618802736
  30
0.0
  40
 4.0000000000000
  41
0.0
  71
8
  72
1
   1
\A1;52
   7
GMM001
   0
ENDBLK
   5
1B6
 100
AcDbEntity
   8
0
 100
AcDbBlockEnd
   0
BLOCK
   5
1B7
 100
AcDbEntity
   8
0
 100
AcDbBlockBegin
   2
*D3
  70
65
  10
0.0
  20
0.0
  30
0.0
   3
*D3
   0
LINE
   5
1B8
 100
AcDbEntity
   8
27
 100
AcDbLine
   6
CONTINUOUS
  62
10
  10
 1272.8703617508
  20
 92.970942340278
  30
0.0
  11
 1264.6823649406
  21
 102.41587263310
  31
0.0
   0
LINE
   5
1B9
 100
AcDbEntity
   8
27
 100
AcDbLine
   6
CONTINUOUS
  62
10
  10
 1264.6823649406
  20
 102.41587263310
  30
0.0
  11
 1247.9528390567
  21
 121.71353596499
  31
0.0
   0
INSERT
   5
1BA
 100
AcDbEntity
   8
27
   6
CONTINUOUS
  62
10
 100
AcDbBlockReference
   2
_OPEN30
  10
 1256.4943681304
  20
 111.86080292593
  30
0.0
  41
 3.0000000000000
  42
 3.0000000000000
  43
 3.0000000000000
  50
 310.92266368581
   0
MTEXT
   5
1BB
 100
AcDbEntity
   8
27
  62
10
 100
AcDbMText
  10
 1253.7187900409
  20
 117.67952930194
  30
0.0
  40
 4.0000000000000
  41
0.0
  71
8
  72
1
   1
\A1;%%c25
   7
GMM001
  11
 0.65503974481564
  21
-0.75559442342559
  31
0.0
   0
ENDBLK
   5
1BC
 100
AcDbEntity
   8
0
 100
AcDbBlockEnd
   0
BLOCK
   5
1BD
 100
AcDbEntity
   8
0
 100
AcDbBlockBegin
   2
*D4
  70
65
  10
0.0
  20
0.0
  30
0.0
   3
*D4
   0
LINE
   5
1BE
 100
AcDbEntity
   8
27
 100
AcDbLine
   6
CONTINUOUS
  62
10
  10
 1260.7703852465
  20
 99.591501654743
  30
0.0
  11
 1264.5349518756
  21
 102.23499141158
  31
0.0
   0
LINE
   5
1BF
 100
AcDbEntity
   8
27
 100
AcDbLine
   6
CONTINUOUS
  62
10
  10
 1264.5349518756
  20
 102.23499141158
  30
0.0
  11
 1286.4361166803
  21
 117.61405373860
  31
0.0
   0
INSERT
   5
1C0
 100
AcDbEntity
   8
27
   6
CONTINUOUS
  62
10
 100
AcDbBlockReference
   2
_OPEN30
  10
 1268.2995185048
  20
 104.87848116842
  30
0.0
  41
 3.0000000000000
  42
 3.0000000000000
  43
 3.0000000000000
  50
 215.07664342647
   0
MTEXT
   5
1C1
 100
AcDbEntity
   8
27
  62
10
 100
AcDbMText
  10
 1279.7222768694
  20
 114.99429602010
  30
0.0
  40
 4.0000000000000
  41
0.0
  71
8
  72
1
   1
\A1;%%c9.2穴
   7
GMM001
  11
 0.81838404981868
  21
 0.57467168627172
  31
0.0
   0
ENDBLK
   5
1C2
 100
AcDbEntity
   8
0
 100
AcDbBlockEnd
   0
BLOCK
   5
1C3
 100
AcDbEntity
   8
0
 100
AcDbBlockBegin
   2
*D5
  70
65
  10
0.0
  20
0.0
  30
0.0
   3
*D5
   0
LINE
   5
1C4
 100
AcDbEntity
   8
27
 100
AcDbLine
   6
CONTINUOUS
  62
10
  10
 1120.8733584340
  20
 141.96172679417
  30
0.0
  11
 1125.8957537363
  21
 146.08792909498
  31
0.0
   0
LINE
   5
1C5
 100
AcDbEntity
   8
27
 100
AcDbLine
   6
CONTINUOUS
  62
10
  10
 1125.8957537363
  20
 146.08792909498
  30
0.0
  11
 1140.2810904643
  21
 157.90635554925
  31
0.0
   0
INSERT
   5
1C6
 100
AcDbEntity
   8
27
   6
CONTINUOUS
  62
10
 100
AcDbBlockReference
   2
_OPEN30
  10
 1130.9181490387
  20
 150.21413139580
  30
0.0
  41
 3.0000000000000
  42
 3.0000000000000
  43
 3.0000000000000
  50
 219.40517866685
   0
MTEXT
   5
1C7
 100
AcDbEntity
   8
27
  62
10
 100
AcDbMText
  10
 1134.1246109692
  20
 155.94820475688
  30
0.0
  40
 4.0000000000000
  41
0.0
  71
8
  72
1
   1
\A1;%%c13穴
   7
GMM001
  11
 0.77267620035860
  21
 0.63480035396918
  31
0.0
   0
ENDBLK
   5
1C8
 100
AcDbEntity
   8
0
 100
AcDbBlockEnd
   0
BLOCK
   5
1C9
 100
AcDbEntity
   8
0
 100
AcDbBlockBegin
   2
*D6
  70
65
  10
0.0
  20
0.0
  30
0.0
   3
*D6
   0
LINE
   5
1CA
 100
AcDbEntity
   8
27
 100
AcDbLine
   6
CONTINUOUS
  62
10
  10
 1178.4826574370
  20
 107.88298754050
  30
0.0
  11
 1125.8957537364
  21
 146.08792909498
  31
0.0
   0
LINE
   5
1CB
 100
AcDbEntity
   8
27
 100
AcDbLine
   6
CONTINUOUS
  62
10
  10
 1125.8957537364
  20
 146.08792909498
  30
0.0
  11
 1073.3088500357
  21
 184.29287064947
  31
0.0
   0
INSERT
   5
1CC
 100
AcDbEntity
   8
27
   6
CONTINUOUS
  62
10
 100
AcDbBlockReference
   2
_OPEN30
  10
 1178.4826574370
  20
 107.88298754050
  30
0.0
  41
 3.0000000000000
  42
 3.0000000000000
  43
 3.0000000000000
  50
 324.00119833884
   0
INSERT
   5
1CD
 100
AcDbEntity
   8
27
   6
CONTINUOUS
  62
10
 100
AcDbBlockReference
   2
_OPEN30
  10
 1073.3088500357
  20
 184.29287064947
  30
0.0
  41
 3.0000000000000
  42
 3.0000000000000
  43
 3.0000000000000
  50
 144.00119833884
   0
MTEXT
   5
1CE
 100
AcDbEntity
   8
27
  62
10
 100
AcDbMText
  10
 1082.9625895059
  20
 179.46623075211
  30
0.0
  40
 4.0000000000000
  41
0.0
  71
8
  72
1
   1
\A1;%%c130
   7
GMM001
  11
 0.80902928770204
  21
-0.58776833160722
  31
0.0
   0
ENDBLK
   5
1CF
 100
AcDbEntity
   8
0
 100
AcDbBlockEnd
   0
ENDSEC
   0
SECTION
   2
ENTITIES
   0
LINE
   5
1D0
 100
AcDbEntity
   8
0
 100
AcDbLine
   6
CONTINUOUS
  62
10
  10
 1409.1630615731
  20
 266.65964124033
  30
0.0
  11
 1409.1630615731
  21
-10.229579951073
  31
0.0
   0
LINE
   5
1D1
 100
AcDbEntity
   8
0
 100
AcDbLine
   6
CONTINUOUS
  62
10
  10
 1409.1630615731
  20
-10.229579951073
  30
0.0
  11
 1024.1630615731
  21
-10.229579951073
  31
0.0
   0
LINE
   5
1D2
 100
AcDbEntity
   8
0
 100
AcDbLine
   6
CONTINUOUS
  62
10
  10
 1024.1630615731
  20
-10.229579951073
  30
0.0
  11
 1024.1630615731
  21
 266.65964124033
  31
0.0
   0
LINE
   5
1D3
 100
AcDbEntity
   8
0
 100
AcDbLine
   6
CONTINUOUS
  62
10
  10
 1024.1630615731
  20
 266.65964124033
  30
0.0
  11
 1409.1630615731
  21
 266.65964124033
  31
0.0
   0
LINE
   5
1D4
 100
AcDbEntity
   8
1
 100
AcDbLine
   6
CONTINUOUS
  62
10
  10
 1255.6630615731
  20
-10.229579951073
  30
0.0
  11
 1255.6630615731
  21
 19.770420048927
  31
0.0
   0
LINE
   5
1D5
 100
AcDbEntity
   8
1
 100
AcDbLine
   6
CONTINUOUS
  62
10
  10
 1383.1630615731
  20
 19.770420048927
  30
0.0
  11
 1383.1630615731
  21
 4.7704200489275
  31
0.0
   0
LINE
   5
1D6
 100
AcDbEntity
   8
1
 100
AcDbLine
   6
CONTINUOUS
  62
10
  10
 1284.1630615731
  20
 4.7704200489275
  30
0.0
  11
 1284.1630615731
  21
 9.7704200489275
  31
0.0
   0
TEXT
   5
1D7
 100
AcDbEntity
   8
1
  62
10
 100
AcDbText
  10
 1333.5510801765
  20
 16.170420436628
  30
0.0
  40
 2.2000000000000
   1
品名
  41
 1.0054460000000
   7
STANDARD
  72
1
  11
 1335.7630613765
  21
 16.170420436628
  31
0.0
 100
AcDbText
   0
LINE
   5
1D8
 100
AcDbEntity
   8
1
 100
AcDbLine
   6
CONTINUOUS
  62
10
  10
 1361.1630615731
  20
-10.229579951073
  30
0.0
  11
 1361.1630615731
  21
 4.7704200489275
  31
0.0
   0
LINE
   5
1D9
 100
AcDbEntity
   8
1
 100
AcDbLine
   6
CONTINUOUS
  62
10
  10
 1331.1630615731
  20
 19.770420048927
  30
0.0
  11
 1331.1630615731
  21
 4.7704200489275
  31
0.0
   0
TEXT
   5
1DA
 100
AcDbEntity
   8
1
  62
10
 100
AcDbText
  10
 1384.6630613765
  20
 13.270420436628
  30
0.0
  40
 4.0000000000000
   1
尺
   7
STANDARD
  72
1
  11
 1386.6630613765
  21
 13.270420436628
  31
0.0
 100
AcDbText
   0
TEXT
   5
1DB
 100
AcDbEntity
   8
1
  62
10
 100
AcDbText
  10
 1384.6630613765
  20
 7.2704204366275
  30
0.0
  40
 4.0000000000000
   1
度
   7
STANDARD
  72
1
  11
 1386.6630613765
  21
 7.2704204366275
  31
0.0
 100
AcDbText
   0
LINE
   5
1DC
 100
AcDbEntity
   8
1
 100
AcDbLine
   6
CONTINUOUS
  62
10
  10
 1390.6630615731
  20
 19.770420048927
  30
0.0
  11
 1390.6630615731
  21
 4.7704200489275
  31
0.0
   0
TEXT
   5
1DD
 100
AcDbEntity
   8
1
  62
10
 100
AcDbText
  10
 1394.2088113765
  20
 9.3653644366275
  30
0.0
  40
 6.0000000000000
   1
ＮＴＳ
  41
 0.61876200000000
   7
STANDARD
  72
1
  11
 1399.7776693765
  21
 9.3653644366275
  31
0.0
 100
AcDbText
   0
TEXT
   5
1DE
 100
AcDbEntity
   8
1
  62
10
 100
AcDbText
  10
 1153.0405320515
  20
 7.5486748932029
  30
0.0
  40
 5.0000000000000
   1
１．設置工事については、設置工事説明書による。　　　　　　　　　　　　　　　　　　　
  41
 0.59832500000000
   7
STANDARD
  72
1
  11
 1215.8646570515
  21
 7.5486748932029
  31
0.0
 100
AcDbText
   0
TEXT
   5
1DF
 100
AcDbEntity
   8
1
  62
10
 100
AcDbText
  10
 1153.0405320515
  20
-0.45132510679707
  30
0.0
  40
 5.0000000000000
   1
２．本仕様は、予告なく変更することがあります。　　　　　　　　　　　　　　　　　　　
  41
 0.59832500000000
   7
STANDARD
  72
1
  11
 1215.8646570515
  21
-0.45132510679707
  31
0.0
 100
AcDbText
   0
TEXT
   5
1E0
 100
AcDbEntity
   8
1
  62
10
 100
AcDbText
  10
 1152.9010228081
  20
 15.548674893380
  30
0.0
  40
 5.0000000000000
   1
注記
  41
 0.59880200000000
   7
STANDARD
  72
1
  11
 1155.8950328081
  21
 15.548674893380
  31
0.0
 100
AcDbText
   0
TEXT
   5
1E1
 100
AcDbEntity
   8
1
  62
10
 100
AcDbText
  10
 1301.8728778465
  20
 62.344339891032
  30
0.0
  40
 6.0000000000000
   1
主要部品
  41
 0.70214300000000
   7
STANDARD
  72
1
  11
 1310.2985938465
  21
 62.344339891032
  31
0.0
 100
AcDbText
   0
LINE
   5
1E2
 100
AcDbEntity
   8
1
 100
AcDbLine
   6
CONTINUOUS
  62
10
  10
 1382.7985941260
  20
 61.844340008032
  30
0.0
  11
 1292.7985941260
  21
 61.844340008032
  31
0.0
   0
LINE
   5
1E3
 100
AcDbEntity
   8
1
 100
AcDbLine
   6
CONTINUOUS
  62
10
  10
 1292.7985941260
  20
 54.844340008032
  30
0.0
  11
 1382.7985941260
  21
 54.844340008032
  31
0.0
   0
LINE
   5
1E4
 100
AcDbEntity
   8
1
 100
AcDbLine
   6
CONTINUOUS
  62
10
  10
 1382.7985941260
  20
 47.844340008032
  30
0.0
  11
 1292.7985941260
  21
 47.844340008032
  31
0.0
   0
LINE
   5
1E5
 100
AcDbEntity
   8
1
 100
AcDbLine
   6
CONTINUOUS
  62
10
  10
 1292.7985941260
  20
 40.844340008032
  30
0.0
  11
 1382.7985941260
  21
 40.844340008032
  31
0.0
   0
TEXT
   5
1E6
 100
AcDbEntity
   8
1
  62
10
 100
AcDbText
  10
 1296.2985938465
  20
 55.844339891032
  30
0.0
  40
 5.0000000000000
   1
１
  41
 0.60000000000000
   7
STANDARD
  72
1
  11
 1297.7985938465
  21
 55.844339891032
  31
0.0
 100
AcDbText
   0
TEXT
   5
1E7
 100
AcDbEntity
   8
1
  62
10
 100
AcDbText
  10
 1296.2985938465
  20
 48.844339891032
  30
0.0
  40
 5.0000000000000
   1
２
  41
 0.60000000000000
   7
STANDARD
  72
1
  11
 1297.7985938465
  21
 48.844339891032
  31
0.0
 100
AcDbText
   0
TEXT
   5
1E8
 100
AcDbEntity
   8
1
  62
10
 100
AcDbText
  10
 1296.2985938465
  20
 41.844339891032
  30
0.0
  40
 5.0000000000000
   1
３
  41
 0.60000000000000
   7
STANDARD
  72
1
  11
 1297.7985938465
  21
 41.844339891032
  31
0.0
 100
AcDbText
   0
LINE
   5
1E9
 100
AcDbEntity
   8
1
 100
AcDbLine
   6
CONTINUOUS
  62
10
  10
 1382.7985941260
  20
 40.844340008032
  30
0.0
  11
 1382.7985941260
  21
 61.844340008032
  31
0.0
   0
LINE
   5
1EA
 100
AcDbEntity
   8
1
 100
AcDbLine
   6
CONTINUOUS
  62
10
  10
 1337.7985941260
  20
 61.844340008032
  30
0.0
  11
 1337.7985941260
  21
 40.844340008032
  31
0.0
   0
LINE
   5
1EB
 100
AcDbEntity
   8
1
 100
AcDbLine
   6
CONTINUOUS
  62
10
  10
 1302.7985941260
  20
 61.844340008032
  30
0.0
  11
 1302.7985941260
  21
 40.844340008032
  31
0.0
   0
LINE
   5
1EC
 100
AcDbEntity
   8
1
 100
AcDbLine
   6
CONTINUOUS
  62
10
  10
 1292.7985941260
  20
 61.844340008032
  30
0.0
  11
 1292.7985941260
  21
 40.844340008032
  31
0.0
   0
CIRCLE
   5
1ED
 100
AcDbEntity
   8
27
 100
AcDbCircle
   6
CONTINUOUS
  62
10
  10
 1125.8957537363
  20
 146.08792909498
  30
0.0
  40
 65.000000000000
   0
CIRCLE
   5
1EE
 100
AcDbEntity
   8
27
 100
AcDbCircle
   6
CONTINUOUS
  62
10
  10
 1125.8957537363
  20
 146.08792909498
  30
0.0
  40
 6.5000000000000
   0
LINE
   5
1EF
 100
AcDbEntity
   8
27
 100
AcDbLine
   6
CONTINUOUS
  62
10
  10
 1125.8957537363
  20
 139.58792909498
  30
0.0
  11
 1125.8957537363
  21
 81.087929094983
  31
0.0
   0
ARC
   5
1F0
 100
AcDbEntity
   8
0
   6
CONTINUOUS
  62
10
 100
AcDbCircle
  10
 1357.6689249289
  20
 106.98344323401
  30
0.0
  40
 2.0000000000000
 100
AcDbArc
  50
0.0
  51
 89.999999999518
   0
POINT
   5
1F1
 100
AcDbEntity
   8
0
 100
AcDbPoint
  62
10
  10
 1359.6689249289
  20
 108.98344323401
  30
0.0
   0
LINE
   5
1F2
 100
AcDbEntity
   8
0
 100
AcDbLine
   6
CONTINUOUS
  62
10
  10
 1359.6689249289
  20
 95.983443234011
  30
0.0
  11
 1359.6689249289
  21
 106.98344323401
  31
0.0
   0
ARC
   5
1F3
 100
AcDbEntity
   8
0
   6
CONTINUOUS
  62
10
 100
AcDbCircle
  10
 1357.6689249289
  20
 95.983443233987
  30
0.0
  40
 2.0000000000000
 100
AcDbArc
  50
 270.00000000000
  51
 0.68231803470501E-9
   0
POINT
   5
1F4
 100
AcDbEntity
   8
0
 100
AcDbPoint
  62
10
  10
 1359.6689249289
  20
 93.983443234011
  30
0.0
   0
LINE
   5
1F5
 100
AcDbEntity
   8
0
 100
AcDbLine
   6
CONTINUOUS
  62
10
  10
 1357.6689249289
  20
 108.98344323401
  30
0.0
  11
 1309.6689249289
  21
 108.98344323401
  31
0.0
   0
ARC
   5
1F6
 100
AcDbEntity
   8
0
   6
CONTINUOUS
  62
10
 100
AcDbCircle
  10
 1309.6689249289
  20
 106.98344323404
  30
0.0
  40
 2.0000000000000
 100
AcDbArc
  50
 90.000000000000
  51
 180.00000000095
   0
POINT
   5
1F7
 100
AcDbEntity
   8
0
 100
AcDbPoint
  62
10
  10
 1307.6689249289
  20
 108.98344323401
  30
0.0
   0
LINE
   5
1F8
 100
AcDbEntity
   8
0
 100
AcDbLine
   6
CONTINUOUS
  62
10
  10
 1307.6689249289
  20
 106.98344323401
  30
0.0
  11
 1307.6689249289
  21
 95.983443234011
  31
0.0
   0
LINE
   5
1F9
 100
AcDbEntity
   8
0
 100
AcDbLine
   6
CONTINUOUS
  62
10
  10
 1309.6689249289
  20
 93.983443234011
  30
0.0
  11
 1357.6689249289
  21
 93.983443234011
  31
0.0
   0
ARC
   5
1FA
 100
AcDbEntity
   8
0
   6
CONTINUOUS
  62
10
 100
AcDbCircle
  10
 1309.6689249289
  20
 95.983443234011
  30
0.0
  40
 2.0000000000000
 100
AcDbArc
  50
 180.00000000000
  51
 269.99999999883
   0
POINT
   5
1FB
 100
AcDbEntity
   8
0
 100
AcDbPoint
  62
10
  10
 1307.6689249289
  20
 93.983443234011
  30
0.0
   0
CIRCLE
   5
1FC
 100
AcDbEntity
   8
27
 100
AcDbCircle
   6
CONTINUOUS
  62
10
  10
 1264.5349518756
  20
 102.23499141158
  30
0.0
  40
 4.6000000000000
   0
CIRCLE
   5
1FD
 100
AcDbEntity
   8
27
 100
AcDbCircle
   6
CONTINUOUS
  62
10
  10
 1264.6823649406
  20
 102.41587263310
  30
0.0
  40
 12.500000000000
   0
LINE
   5
1FE
 100
AcDbEntity
   8
27
 100
AcDbLine
   6
CONTINUOUS
  62
10
  10
 1264.6823649406
  20
 97.637354041335
  30
0.0
  11
 1264.6823649406
  21
 89.915872633103
  31
0.0
   0
TEXT
   5
1FF
 100
AcDbEntity
   8
1
  62
10
 100
AcDbText
  10
 1306.8322538465
  20
 55.844339891032
  30
0.0
  40
 5.0000000000000
   1
シーリングプレート
  41
 0.59850400000000
   7
STANDARD
  72
1
  11
 1320.2985938465
  21
 55.844339891032
  31
0.0
 100
AcDbText
   0
TEXT
   5
200
 100
AcDbEntity
   8
1
  62
10
 100
AcDbText
  10
 1341.5942188465
  20
 48.844339891032
  30
0.0
  40
 5.0000000000000
   1
ｼﾞｭﾗｺﾝ（ｔ0.5）両面ﾃｰﾌﾟ付
  41
 0.59854000000000
   7
STANDARD
  72
1
  11
 1360.2985938465
  21
 48.844339891032
  31
0.0
 100
AcDbText
   0
TEXT
   5
201
 100
AcDbEntity
   8
1
  62
10
 100
AcDbText
  10
 1341.5942188465
  20
 41.844339891032
  30
0.0
  40
 5.0000000000000
   1
ｼﾞｭﾗｺﾝ（ｔ0.5）両面ﾃｰﾌﾟ付
  41
 0.59854000000000
   7
STANDARD
  72
1
  11
 1360.2985938465
  21
 41.844339891032
  31
0.0
 100
AcDbText
   0
TEXT
   5
202
 100
AcDbEntity
   8
1
  62
10
 100
AcDbText
  10
 1306.0704913465
  20
 48.844339891032
  30
0.0
  40
 5.0000000000000
   1
シーリングプレートS
  41
 0.59907800000000
   7
STANDARD
  72
1
  11
 1320.2985938465
  21
 48.844339891032
  31
0.0
 100
AcDbText
   0
TEXT
   5
203
 100
AcDbEntity
   8
1
  62
10
 100
AcDbText
  10
 1314.3126738465
  20
 41.844339891032
  30
0.0
  40
 5.0000000000000
   1
プレート
  41
 0.59859200000000
   7
STANDARD
  72
1
  11
 1320.2985938465
  21
 41.844339891032
  31
0.0
 100
AcDbText
   0
TEXT
   5
204
 100
AcDbEntity
   8
1
  62
10
 100
AcDbText
  10
 1341.5942188465
  20
 55.844339891032
  30
0.0
  40
 5.0000000000000
   1
ｼﾞｭﾗｺﾝ（ｔ0.5）両面ﾃｰﾌﾟ付
  41
 0.59854000000000
   7
STANDARD
  72
1
  11
 1360.2985938465
  21
 55.844339891032
  31
0.0
 100
AcDbText
   0
LINE
   5
205
 100
AcDbEntity
   8
27
 100
AcDbLine
   6
CONTINUOUS
  62
10
  10
 1125.8957537363
  20
 116.08568844097
  30
0.0
  11
 1122.4150011287
  21
 108.03283512890
  31
0.0
   0
LINE
   5
206
 100
AcDbEntity
   8
27
 100
AcDbLine
   6
CONTINUOUS
  62
10
  10
 1122.4150011287
  20
 108.03283512890
  30
0.0
  11
 1106.4150011287
  21
 108.03283512890
  31
0.0
   0
LINE
   5
207
 100
AcDbEntity
   8
27
 100
AcDbLine
   6
CONTINUOUS
  62
10
  10
 1123.9676010961
  20
 113.65085819560
  30
0.0
  11
 1125.8957537363
  21
 116.08568844097
  31
0.0
   0
LINE
   5
208
 100
AcDbEntity
   8
27
 100
AcDbLine
   6
CONTINUOUS
  62
10
  10
 1125.8957537363
  20
 116.08568844097
  30
0.0
  11
 1125.4433396902
  21
 113.01298727450
  31
0.0
   0
LINE
   5
209
 100
AcDbEntity
   8
27
 100
AcDbLine
   6
CONTINUOUS
  62
10
  10
 1125.8957537363
  20
 116.08568844097
  30
0.0
  11
 1124.7054703932
  21
 113.33192273505
  31
0.0
   0
TEXT
   5
20A
 100
AcDbEntity
   8
27
  62
10
 100
AcDbText
  10
 1106.4150011287
  20
 109.74712084318
  30
0.0
  40
 4.0000000000000
   1
切り欠き
   7
STANDARD
 100
AcDbText
   0
LINE
   5
20B
 100
AcDbEntity
   8
27
 100
AcDbLine
   6
CONTINUOUS
  62
10
  10
 1264.6823649406
  20
 92.631835021847
  30
0.0
  11
 1261.2016123329
  21
 84.578981709773
  31
0.0
   0
LINE
   5
20C
 100
AcDbEntity
   8
27
 100
AcDbLine
   6
CONTINUOUS
  62
10
  10
 1261.2016123329
  20
 84.578981709773
  30
0.0
  11
 1245.2016123329
  21
 84.578981709773
  31
0.0
   0
LINE
   5
20D
 100
AcDbEntity
   8
27
 100
AcDbLine
   6
CONTINUOUS
  62
10
  10
 1262.7542123004
  20
 90.197004776474
  30
0.0
  11
 1264.6823649406
  21
 92.631835021847
  31
0.0
   0
LINE
   5
20E
 100
AcDbEntity
   8
27
 100
AcDbLine
   6
CONTINUOUS
  62
10
  10
 1264.6823649406
  20
 92.631835021847
  30
0.0
  11
 1264.2299508945
  21
 89.559133855374
  31
0.0
   0
LINE
   5
20F
 100
AcDbEntity
   8
27
 100
AcDbLine
   6
CONTINUOUS
  62
10
  10
 1264.6823649406
  20
 92.631835021847
  30
0.0
  11
 1263.4920815975
  21
 89.878069315924
  31
0.0
   0
TEXT
   5
210
 100
AcDbEntity
   8
27
  62
10
 100
AcDbText
  10
 1245.2016123329
  20
 86.293267424059
  30
0.0
  40
 4.0000000000000
   1
切り欠き
   7
STANDARD
 100
AcDbText
   0
LINE
   5
211
 100
AcDbEntity
   8
0
 100
AcDbLine
   6
CONTINUOUS
  62
10
  10
 1150.3959937554
  20
 195.44272908684
  30
0.0
  11
 1164.1616342623
  21
 214.50284671179
  31
0.0
   0
LINE
   5
212
 100
AcDbEntity
   8
0
 100
AcDbLine
   6
CONTINUOUS
  62
10
  10
 1164.1616342623
  20
 214.50284671179
  30
0.0
  11
 1184.1616342623
  21
 214.50284671179
  31
0.0
   0
ARC
   5
213
 100
AcDbEntity
   8
0
   6
CONTINUOUS
  62
10
 100
AcDbCircle
  10
 1150.3959937554
  20
 195.44272908684
  30
0.0
  40
 0.20000000000000
 100
AcDbArc
  50
 54.162347045718
  51
 234.16234704572
   0
ARC
   5
214
 100
AcDbEntity
   8
0
   6
CONTINUOUS
  62
10
 100
AcDbCircle
  10
 1150.3959937554
  20
 195.44272908684
  30
0.0
  40
 0.20000000000000
 100
AcDbArc
  50
 234.16234704572
  51
 54.162347045718
   0
LINE
   5
215
 100
AcDbEntity
   8
0
 100
AcDbLine
   6
CONTINUOUS
  62
10
  10
 1150.6301899769
  20
 195.76700077820
  30
0.0
  11
 1150.8643861985
  21
 196.09127246956
  31
0.0
   0
TEXT
   5
216
 100
AcDbEntity
   8
0
  62
10
 100
AcDbText
  10
 1164.1616342623
  20
 216.21713242607
  30
0.0
  40
 4.0000000000000
   1
ベージュ色
   7
STANDARD
 100
AcDbText
   0
LINE
   5
217
 100
AcDbEntity
   8
0
 100
AcDbLine
   6
CONTINUOUS
  62
10
  10
 1181.8098913224
  20
 154.14580756613
  30
0.0
  11
 1206.4874174138
  21
 156.78982821878
  31
0.0
   0
CIRCLE
   5
218
 100
AcDbEntity
   8
0
 100
AcDbCircle
   6
CONTINUOUS
  62
10
  10
 1211.4589631834
  20
 157.32249383695
  30
0.0
  40
 5.0000000000000
   0
ARC
   5
219
 100
AcDbEntity
   8
0
   6
CONTINUOUS
  62
10
 100
AcDbCircle
  10
 1181.8098913224
  20
 154.14580756613
  30
0.0
  40
 0.20000000000000
 100
AcDbArc
  50
 6.1155035662889
  51
 186.11550356629
   0
ARC
   5
21A
 100
AcDbEntity
   8
0
   6
CONTINUOUS
  62
10
 100
AcDbCircle
  10
 1181.8098913224
  20
 154.14580756613
  30
0.0
  40
 0.20000000000000
 100
AcDbArc
  50
 186.11550356629
  51
 6.1155035662889
   0
LINE
   5
21B
 100
AcDbEntity
   8
0
 100
AcDbLine
   6
CONTINUOUS
  62
10
  10
 1182.2076149840
  20
 154.18842081558
  30
0.0
  11
 1182.6053386455
  21
 154.23103406504
  31
0.0
   0
TEXT
   5
21C
 100
AcDbEntity
   8
0
  62
10
 100
AcDbText
  10
 1207.9234292775
  20
 153.78695993102
  30
0.0
  40
 7.0710678118655
   1
１
   7
STANDARD
 100
AcDbText
   0
LINE
   5
21D
 100
AcDbEntity
   8
0
 100
AcDbLine
   6
CONTINUOUS
  62
10
  10
 1266.1685600698
  20
 109.67219977459
  30
0.0
  11
 1270.0572916670
  21
 127.72702504690
  31
0.0
   0
CIRCLE
   5
21E
 100
AcDbEntity
   8
0
 100
AcDbCircle
   6
CONTINUOUS
  62
10
  10
 1271.1100720467
  20
 132.61493395276
  30
0.0
  40
 5.0000000000000
   0
ARC
   5
21F
 100
AcDbEntity
   8
0
   6
CONTINUOUS
  62
10
 100
AcDbCircle
  10
 1266.1685600698
  20
 109.67219977459
  30
0.0
  40
 0.20000000000000
 100
AcDbArc
  50
 77.845058302804
  51
 257.84505830280
   0
ARC
   5
220
 100
AcDbEntity
   8
0
   6
CONTINUOUS
  62
10
 100
AcDbCircle
  10
 1266.1685600698
  20
 109.67219977459
  30
0.0
  40
 0.20000000000000
 100
AcDbArc
  50
 257.84505830280
  51
 77.845058302804
   0
LINE
   5
221
 100
AcDbEntity
   8
0
 100
AcDbLine
   6
CONTINUOUS
  62
10
  10
 1266.2527825002
  20
 110.06323248706
  30
0.0
  11
 1266.3370049306
  21
 110.45426519953
  31
0.0
   0
TEXT
   5
222
 100
AcDbEntity
   8
0
  62
10
 100
AcDbText
  10
 1267.5745381408
  20
 129.07940004683
  30
0.0
  40
 7.0710678118655
   1
２
   7
STANDARD
 100
AcDbText
   0
LINE
   5
223
 100
AcDbEntity
   8
0
 100
AcDbLine
   6
CONTINUOUS
  62
10
  10
 1333.2319368984
  20
 98.377315256104
  30
0.0
  11
 1338.4500283711
  21
 87.692651764320
  31
0.0
   0
CIRCLE
   5
224
 100
AcDbEntity
   8
0
 100
AcDbCircle
   6
CONTINUOUS
  62
10
  10
 1340.6442048636
  20
 83.199814184388
  30
0.0
  40
 5.0000000000000
   0
ARC
   5
225
 100
AcDbEntity
   8
0
   6
CONTINUOUS
  62
10
 100
AcDbCircle
  10
 1333.2319368984
  20
 98.377315256104
  30
0.0
  40
 0.20000000000000
 100
AcDbArc
  50
 296.02959219152
  51
 116.02959219152
   0
ARC
   5
226
 100
AcDbEntity
   8
0
   6
CONTINUOUS
  62
10
 100
AcDbCircle
  10
 1333.2319368984
  20
 98.377315256104
  30
0.0
  40
 0.20000000000000
 100
AcDbArc
  50
 116.02959219152
  51
 296.02959219152
   0
LINE
   5
227
 100
AcDbEntity
   8
0
 100
AcDbLine
   6
CONTINUOUS
  62
10
  10
 1333.4074710178
  20
 98.017888249709
  30
0.0
  11
 1333.5830051372
  21
 97.658461243315
  31
0.0
   0
TEXT
   5
228
 100
AcDbEntity
   8
0
  62
10
 100
AcDbText
  10
 1337.1086709577
  20
 79.664280278455
  30
0.0
  40
 7.0710678118655
   1
３
   7
STANDARD
 100
AcDbText
   0
TEXT
   5
229
 100
AcDbEntity
   8
1
  62
10
 100
AcDbText
  10
 1294.1229088765
  20
 7.2704204366275
  30
0.0
  40
 5.0000000000000
   1
ＨＴ－ＳＰ１３
  41
 0.77372300000000
   7
STANDARD
  72
1
  11
 1307.6630613765
  21
 7.2704204366275
  31
0.0
 100
AcDbText
   0
TEXT
   5
22A
 100
AcDbEntity
   8
1
  62
10
 100
AcDbText
  10
 1334.9357129891
  20
 7.2704204366275
  30
0.0
  40
 5.0000000000000
   1
ｸｯｷﾝｸﾞﾋｰﾀｰ用シーリングプレート
  41
 0.59840400000000
   7
STANDARD
  72
1
  11
 1357.3758629891
  21
 7.2704204366275
  31
0.0
 100
AcDbText
   0
LINE
   5
22B
 100
AcDbEntity
   8
1
 100
AcDbLine
   6
CONTINUOUS
  62
10
  10
 1409.1630615731
  20
 19.770420048927
  30
0.0
  11
 1255.6630615731
  21
 19.770420048927
  31
0.0
   0
LINE
   5
22C
 100
AcDbEntity
   8
1
 100
AcDbLine
   6
CONTINUOUS
  62
10
  10
 1255.6630615731
  20
 4.7704200489275
  30
0.0
  11
 1409.1630615731
  21
 4.7704200489275
  31
0.0
   0
LINE
   5
22D
 100
AcDbEntity
   8
1
 100
AcDbLine
   6
CONTINUOUS
  62
10
  10
 1284.1630615731
  20
 4.7704200489275
  30
0.0
  11
 1284.1630615731
  21
 19.770420048927
  31
0.0
   0
TEXT
   5
22E
 100
AcDbEntity
   8
1
  62
10
 100
AcDbText
  10
 1261.2747753765
  20
 8.6454204366280
  30
0.0
  40
 4.0000000000000
   1
三角法
  41
 1.4970060000000
   7
STANDARD
  72
1
  11
 1270.2568113765
  21
 8.6454204366280
  31
0.0
 100
AcDbText
   0
TEXT
   5
22F
 100
AcDbEntity
   8
1
  62
10
 100
AcDbText
  10
 1278.5511486423
  20
-5.5066994077831
  30
0.0
  40
 6.0000000000000
   1
日立アプライアンス株式会社
  41
 0.77100100000000
   7
STANDARD
  72
1
  11
 1308.6201876423
  21
-5.5066994077831
  31
0.0
 100
AcDbText
   0
DIMENSION
   5
230
 100
AcDbEntity
   8
0
   6
CONTINUOUS
  62
10
 100
AcDbDimension
   2
*D1
  10
 1370.7364026237
  20
 93.983443234011
  30
0.0
  11
 1370.7364026237
  21
 101.41436379109
  31
0.0
  70
0
   1
\A1;15
   3
GMM001
 100
AcDbAlignedDimension
  13
 1358.3993684008
  23
 108.84528434817
  33
0.0
  14
 1357.6689249289
  24
 93.983443234011
  34
0.0
  50
 270.00000000000
 100
AcDbRotatedDimension
   0
DIMENSION
   5
232
 100
AcDbEntity
   8
0
   6
CONTINUOUS
  62
10
 100
AcDbDimension
   2
*D2
  10
 1359.6689249289
  20
 118.61190231307
  30
0.0
  11
 1333.6689249289
  21
 118.61190231307
  31
0.0
  70
0
   1
\A1;52
   3
GMM001
 100
AcDbAlignedDimension
  13
 1307.6689249289
  23
 106.98344323401
  33
0.0
  14
 1359.6689249289
  24
 106.98344323401
  34
0.0
 100
AcDbRotatedDimension
   0
DIMENSION
   5
234
 100
AcDbEntity
   8
27
   6
CONTINUOUS
  62
10
 100
AcDbDimension
   2
*D3
  10
 1272.8703617508
  20
 92.970942340278
  30
0.0
  11
 1252.4234853150
  21
 116.55660402511
  31
0.0
  70
131
   1
\A1;%%c25
   3
GMM002
 100
AcDbDiametricDimension
  15
 1256.4943681304
  25
 111.86080292593
  35
0.0
   0
INSERT
   5
236
 100
AcDbEntity
   8
27
 100
AcDbBlockReference
   2
*D4
  10
0.0
  20
0.0
  30
0.0
   0
INSERT
   5
237
 100
AcDbEntity
   8
27
 100
AcDbBlockReference
   2
*D5
  10
0.0
  20
0.0
  30
0.0
   0
DIMENSION
   5
238
 100
AcDbEntity
   8
27
   6
CONTINUOUS
  62
10
 100
AcDbDimension
   2
*D6
  10
 1178.4826574370
  20
 107.88298754050
  30
0.0
  11
 1081.9226690389
  21
 178.03484006733
  31
0.0
  70
131
   1
\A1;%%c130
   3
GMM004
 100
AcDbDiametricDimension
  15
 1073.3088500357
  25
 184.29287064947
  35
0.0
   0
LINE
   5
23A
 100
AcDbEntity
   8
1
 100
AcDbLine
   6
CONTINUOUS
  62
10
  10
 1255.6630615731
  20
 4.7704200489275
  30
0.0
  11
 1284.1630615731
  21
 4.7704200489275
  31
0.0
   0
ENDSEC
  0
SECTION
  2
OBJECTS
  0
DICTIONARY
  5
C
100
AcDbDictionary
  3
ACAD_GROUP
350
D
  3
ACAD_MLINESTYLE
350
1B
  0
DICTIONARY
  5
D
102
{ACAD_REACTORS
330
C
102
}
100
AcDbDictionary
  0
DICTIONARY
  5
1B
102
{ACAD_REACTORS
330
C
102
}
100
AcDbDictionary
  3
STANDARD
350
1C
  0
MLINESTYLE
  5
1C
102
{ACAD_REACTORS
330
1B
102
}
100
AcDbMlineStyle
  2
STANDARD
 70
     0
  3

 62
   256
 51
90.0
 52
90.0
 71
     2
 49
0.5
 62
   256
  6
BYLAYER
 49
-0.5
 62
   256
  6
BYLAYER
  0
ENDSEC
   0
EOF
