  0
SECTION
  2
HEADER
  9
$ACADVER
  1
AC1012
  9
$INSBASE
 10
0.0
 20
0.0
  9
$VIEWCTR
 10
7.531722
 20
4.5
  9
$VIEWSIZE
 40
9.0
  9
$SNAPMODE
 70
     0
  9
$SNAPUNIT
 10
1.0
 20
1.0
  9
$SNAPBASE
 10
0.0
 20
0.0
  9
$SNAPANG
 50
0.0
  9
$SNAPSTYLE
 70
     0
  9
$SNAPISOPAIR
 70
     0
  9
$GRIDMODE
 70
     0
  9
$GRIDUNIT
 10
0.0
 20
0.0
  9
$ORTHOMODE
 70
     0
  9
$REGENMODE
 70
     1
  9
$FILLMODE
 70
     1
  9
$QTEXTMODE
 70
     0
  9
$DRAGMODE
 70
     2
  9
$LTSCALE
 40
1.0
  9
$OSMODE
 70
     0
  9
$ATTMODE
 70
     1
  9
$TEXTSIZE
 40
0.2
  9
$TRACEWID
 40
0.05
  9
$TEXTSTYLE
  7
STANDARD
  9
$CELTYPE
  6
BYLAYER
  9
$CECOLOR
 62
   256
  9
$DIMSCALE
 40
1.0
  9
$DIMASZ
 40
0.18
  9
$DIMEXO
 40
0.0625
  9
$DIMDLI
 40
0.38
  9
$DIMRND
 40
0.0
  9
$DIMDLE
 40
0.0
  9
$DIMEXE
 40
0.18
  9
$DIMTP
 40
0.0
  9
$DIMTM
 40
0.0
  9
$DIMTXT
 40
0.18
  9
$DIMCEN
 40
0.09
  9
$DIMTSZ
 40
0.0
  9
$DIMTOL
 70
     0
  9
$DIMLIM
 70
     0
  9
$DIMTIH
 70
     1
  9
$DIMTOH
 70
     1
  9
$DIMSE1
 70
     0
  9
$DIMSE2
 70
     0
  9
$DIMTAD
 70
     0
  9
$DIMZIN
 70
     0
  9
$DIMBLK
  1

  9
$LUNITS
 70
     2
  9
$LUPREC
 70
     4
  9
$AXISMODE
 70
     0
  9
$AXISUNIT
 10
0.0
 20
0.0
  9
$SKETCHINC
 40
0.1
  9
$FILLETRAD
 40
0.0
  9
$AUNITS
 70
     0
  9
$AUPREC
 70
     0
  9
$MENU
  1
ACAD
  9
$ELEVATION
 40
0.0
  9
$THICKNESS
 40
0.0
  9
$VIEWDIR
 10
0.0
 20
0.0
 30
1.0
  9
$LIMCHECK
 70
     0
  9
$BLIPMODE
 70
     1
  9
$CHAMFERA
 40
0.0
  9
$CHAMFERB
 40
0.0
  9
$FASTZOOM
 70
     1
  9
$SKPOLY
 70
     0
  9
$TDCREATE
 40
0000000.0000000000
  9
$TDUPDATE
 40
0000000.0000000000
  9
$TDINDWG
 40
0.0000000000
  9
$TDUSRTIMER
 40
0.0000000000
  9
$USRTIMER
 70
     1
  9
$ANGBASE
 50
0.0
  9
$ANGDIR
 70
     0
  9
$PDMODE
 70
     0
  9
$PDSIZE
 40
0.0
  9
$PLINEWID
 40
0.0
  9
$COORDS
 70
     0
  9
$USERI1
 70
     0
  9
$USERI2
 70
     0
  9
$USERI3
 70
     0
  9
$USERI4
 70
     0
  9
$USERI5
 70
     0
  9
$USERR1
 40
0.0
  9
$USERR2
 40
0.0
  9
$USERR3
 40
0.0
  9
$USERR4
 40
0.0
  9
$USERR5
 40
0.0
  9
$CLAYER
  8
M0
  9
$EXTMIN
 10
0.0
 20
0.0
  9
$EXTMAX
 10
297.0
 20
210.0
  9
$LIMMIN
 10
0.0
 20
0.0
  9
$LIMMAX
 10
297.0
 20
210.0
  9
$HANDSEED
  5
A12
  0
ENDSEC
  0
SECTION
  2
CLASSES
  0
ENDSEC
  0
SECTION
  2
TABLES
  0
TABLE
  2
VPORT
  5
8
100
AcDbSymbolTable
 70
     2
  0
VPORT
  5
14
100
AcDbSymbolTableRecord
100
AcDbViewportTableRecord
  2
*ACTIVE
 70
     0
 10
0.0
 20
0.0
 11
1.0
 21
1.0
 12
484.0
 22
297.0
 13
0.0
 23
0.0
 14
1.0
 24
1.0
 15
0.0
 25
0.0
 16
0.0
 26
0.0
 36
1.0
 17
0.0
 27
0.0
 37
0.0
 40
594.0
 41
2.0
 42
50.0
 43
0.0
 44
0.0
 50
0.0
 51
0.0
 71
     0
 72
   100
 73
     1
 74
     1
 75
     0
 76
     0
 77
     0
 78
     0
  0
ENDTAB
  0
TABLE
  2
LTYPE
  5
5
100
AcDbSymbolTable
 70
     5
  0
LTYPE
  5
15
100
AcDbSymbolTableRecord
100
AcDbLinetypeTableRecord
  2
BYBLOCK
 70
     0
  3

 72
    65
 73
     0
 40
0.0
  0
LTYPE
  5
16
100
AcDbSymbolTableRecord
100
AcDbLinetypeTableRecord
  2
BYLAYER
 70
     0
  3

 72
    65
 73
     0
 40
0.0
  0
LTYPE
  5
17
100
AcDbSymbolTableRecord
100
AcDbLinetypeTableRecord
  2
CONTINUOUS
 70
    64
  3
Solid line
 72
    65
 73
     0
 40
0.0
  0
LTYPE
  5
18
100
AcDbSymbolTableRecord
100
AcDbLinetypeTableRecord
  2
DASHED
 70
    64
  3
__ __ __ __ __ __ __ __ __ __ __ __ __ __ __ __
 72
    65
 73
     2
 40
0.75
 49
0.5
 74
     0
 49
-0.25
 74
     0
  0
LTYPE
  5
19
100
AcDbSymbolTableRecord
100
AcDbLinetypeTableRecord
  2
DASHDOT
 70
    64
  3
__ . __ . __ . __ . __ . __ . __ . __ . __ . __
 72
    65
 73
     4
 40
1.0
 49
0.5
 74
     0
 49
-0.25
 74
     0
 49
0.0
 74
     0
 49
-0.25
 74
     0
  0
LTYPE
  5
1A
100
AcDbSymbolTableRecord
100
AcDbLinetypeTableRecord
  2
DIVIDE
 70
    64
  3
____ . . ____ . . ____ . . ____ . . ____ . . __
 72
    65
 73
     6
 40
1.25
 49
0.5
 74
     0
 49
-0.25
 74
     0
 49
0.0
 74
     0
 49
-0.25
 74
     0
 49
0.0
 74
     0
 49
-0.25
 74
     0
  0
LTYPE
  5
1B
100
AcDbSymbolTableRecord
100
AcDbLinetypeTableRecord
  2
DOT
 70
    64
  3
. . . . . . . . . . . . . . . . . . . . . . . .
 72
    65
 73
     2
 40
0.25
 49
0.0
 74
     0
 49
-0.25
 74
     0
  0
ENDTAB
  0
TABLE
  2
LAYER
  5
2
100
AcDbSymbolTable
 70
   102
  0
LAYER
  5
F
100
AcDbSymbolTableRecord
100
AcDbLayerTableRecord
  2
0
 70
     0
 62
     7
  6
CONTINUOUS
  0
LAYER
  5
1C
100
AcDbSymbolTableRecord
100
AcDbLayerTableRecord
  2
DEFPOINTS
 70
     0
 62
     7
  6
CONTINUOUS
  0
LAYER
  5
1D
100
AcDbSymbolTableRecord
100
AcDbLayerTableRecord
  2
M0
 70
     0
 62
     3
  6
CONTINUOUS
  0
LAYER
  5
1E
100
AcDbSymbolTableRecord
100
AcDbLayerTableRecord
  2
M47
 70
     0
 62
     3
  6
CONTINUOUS
  0
LAYER
  5
1F
100
AcDbSymbolTableRecord
100
AcDbLayerTableRecord
  2
DD0
 70
     0
 62
     4
  6
CONTINUOUS
  0
ENDTAB
  0
TABLE
  2
STYLE
  5
3
100
AcDbSymbolTable
 70
     2
  0
STYLE
  5
10
100
AcDbSymbolTableRecord
100
AcDbTextStyleTableRecord
  2
STANDARD
 70
     0
 40
0.0
 41
1.0
 50
0.0
 71
     0
 42
0.2
  3
txt
  4
BIGFONT
  0
ENDTAB
  0
TABLE
  2
VIEW
  5
6
100
AcDbSymbolTable
 70
     0
  0
ENDTAB
  0
TABLE
  2
UCS
  5
7
100
AcDbSymbolTable
 70
     0
  0
ENDTAB
  0
TABLE
  2
APPID
  5
9
100
AcDbSymbolTable
 70
     1
  0
APPID
  5
11
100
AcDbSymbolTableRecord
100
AcDbRegAppTableRecord
  2
ACAD
 70
     0
  0
ENDTAB
  0
TABLE
  2
DIMSTYLE
  5
A
100
AcDbSymbolTable
 70
     2
  0
DIMSTYLE
105
26
100
AcDbSymbolTableRecord
100
AcDbDimStyleTableRecord
  2
STANDARD
 70
     0
  3

  4

  5

  6
_OPEN
  7
_OPEN
 40
1.0
 41
3.0
 42
0.0
 43
8.0
 44
1.5
 45
0.0
 46
0.0
 47
0.0
 48
0.0
140
3.5
141
0.09
142
0.0
143
0.03937
144
1.0
145
0.0
146
1.0
147
1.0
 71
     0
 72
     0
 73
     0
 74
     0
 75
     0
 76
     0
 77
     3
 78
     8
170
     0
171
     2
172
     0
173
     1
174
     0
175
     0
176
     0
177
     0
178
     0
270
     2
271
     2
272
     4
273
     2
274
     2
340
10
275
     0
280
     0
281
     0
282
     0
283
     1
284
     0
285
     0
286
     0
287
     3
288
     0
  0
DIMSTYLE
105
27
100
AcDbSymbolTableRecord
100
AcDbDimStyleTableRecord
  2
LEADSTYL
 70
     0
  3

  4

  5

  6
_OPEN
  7
_OPEN
 40
1.0
 41
3.0
 42
0.0625
 43
0.38
 44
0.18
 45
0.0
 46
0.0
 47
0.0
 48
0.0
140
3.2
141
0.09
142
0.0
143
25.4
144
1.0
145
0.0
146
1.0
147
1.0
 71
     0
 72
     0
 73
     1
 74
     1
 75
     0
 76
     0
 77
     0
 78
     0
170
     0
171
     2
172
     0
173
     1
174
     0
175
     0
176
     0
177
     0
178
     0
270
     2
271
     4
272
     4
273
     2
274
     2
340
10
275
     0
280
     0
281
     0
282
     0
283
     1
284
     0
285
     0
286
     0
287
     3
288
     0
  0
ENDTAB
  0
TABLE
  2
BLOCK_RECORD
  5
1
100
AcDbSymbolTable
 70
    20
  0
BLOCK_RECORD
  5
20
100
AcDbSymbolTableRecord
100
AcDbBlockTableRecord
  2
*MODEL_SPACE
  0
BLOCK_RECORD
  5
23
100
AcDbSymbolTableRecord
100
AcDbBlockTableRecord
  2
*PAPER_SPACE
  0
BLOCK_RECORD
  5
28
100
AcDbSymbolTableRecord
100
AcDbBlockTableRecord
  2
_NONE
  0
BLOCK_RECORD
  5
2C
100
AcDbSymbolTableRecord
100
AcDbBlockTableRecord
  2
_OPEN
  0
BLOCK_RECORD
  5
32
100
AcDbSymbolTableRecord
100
AcDbBlockTableRecord
  2
_CLOSED
  0
BLOCK_RECORD
  5
39
100
AcDbSymbolTableRecord
100
AcDbBlockTableRecord
  2
_ORIGIN
  0
BLOCK_RECORD
  5
3E
100
AcDbSymbolTableRecord
100
AcDbBlockTableRecord
  2
_DOT
  0
BLOCK_RECORD
  5
46
100
AcDbSymbolTableRecord
100
AcDbBlockTableRecord
  2
_OBLIQUE
  0
BLOCK_RECORD
  5
4C
100
AcDbSymbolTableRecord
100
AcDbBlockTableRecord
  2
*D0
  0
BLOCK_RECORD
  5
59
100
AcDbSymbolTableRecord
100
AcDbBlockTableRecord
  2
*D1
  0
BLOCK_RECORD
  5
66
100
AcDbSymbolTableRecord
100
AcDbBlockTableRecord
  2
*D2
  0
BLOCK_RECORD
  5
73
100
AcDbSymbolTableRecord
100
AcDbBlockTableRecord
  2
*D3
  0
BLOCK_RECORD
  5
82
100
AcDbSymbolTableRecord
100
AcDbBlockTableRecord
  2
*D4
  0
BLOCK_RECORD
  5
8F
100
AcDbSymbolTableRecord
100
AcDbBlockTableRecord
  2
*D5
  0
BLOCK_RECORD
  5
9E
100
AcDbSymbolTableRecord
100
AcDbBlockTableRecord
  2
*D6
  0
BLOCK_RECORD
  5
AB
100
AcDbSymbolTableRecord
100
AcDbBlockTableRecord
  2
*D7
  0
BLOCK_RECORD
  5
B8
100
AcDbSymbolTableRecord
100
AcDbBlockTableRecord
  2
*D8
  0
BLOCK_RECORD
  5
C7
100
AcDbSymbolTableRecord
100
AcDbBlockTableRecord
  2
LEAD0
  0
BLOCK_RECORD
  5
CE
100
AcDbSymbolTableRecord
100
AcDbBlockTableRecord
  2
LEAD1
  0
BLOCK_RECORD
  5
D5
100
AcDbSymbolTableRecord
100
AcDbBlockTableRecord
  2
LEAD2
  0
BLOCK_RECORD
  5
DC
100
AcDbSymbolTableRecord
100
AcDbBlockTableRecord
  2
LEAD3
  0
BLOCK_RECORD
  5
E3
100
AcDbSymbolTableRecord
100
AcDbBlockTableRecord
  2
LEAD4
  0
ENDTAB
  0
ENDSEC
  0
SECTION
  2
BLOCKS
  0
BLOCK
  5
21
100
AcDbEntity
  8
0
100
AcDbBlockBegin
  2
*MODEL_SPACE
 70
     0
 10
0.0
 20
0.0
 30
0.0
  3
*MODEL_SPACE
  1

  0
ENDBLK
  5
22
100
AcDbEntity
  8
0
100
AcDbBlockEnd
  0
BLOCK
  5
24
100
AcDbEntity
 67
     1
  8
0
100
AcDbBlockBegin
  2
*PAPER_SPACE
 70
     0
 10
0.0
 20
0.0
 30
0.0
  3
*PAPER_SPACE
  1

  0
ENDBLK
  5
25
100
AcDbEntity
 67
     1
  8
0
100
AcDbBlockEnd
  0
BLOCK
  5
29
100
AcDbEntity
  8
0
100
AcDbBlockBegin
  2
_NONE
 70
     0
 10
0.0
 20
0.0
  0
CIRCLE
  5
2A
100
AcDbEntity
  8
0
 62
     0
100
AcDbCircle
 10
0.0
 20
0.0
 40
0.25
  0
ENDBLK
  5
2B
100
AcDbEntity
  8
0
100
AcDbBlockEnd
  0
BLOCK
  5
2D
100
AcDbEntity
  8
0
100
AcDbBlockBegin
  2
_OPEN
 70
     0
 10
0.0
 20
0.0
  0
LINE
  5
2E
100
AcDbEntity
  8
0
 62
     0
100
AcDbLine
 10
-0.965926
 20
0.258819
 11
0.0
 21
0.0
  0
LINE
  5
2F
100
AcDbEntity
  8
0
 62
     0
100
AcDbLine
 10
0.0
 20
0.0
 11
-0.965926
 21
-0.258819
  0
LINE
  5
30
100
AcDbEntity
  8
0
 62
     0
100
AcDbLine
 10
0.0
 20
0.0
 11
-1.0
 21
0.0
  0
ENDBLK
  5
31
100
AcDbEntity
  8
0
100
AcDbBlockEnd
  0
BLOCK
  5
33
100
AcDbEntity
  8
0
100
AcDbBlockBegin
  2
_CLOSED
 70
     0
 10
0.0
 20
0.0
  0
LINE
  5
34
100
AcDbEntity
  8
0
 62
     0
100
AcDbLine
 10
-0.965926
 20
0.258819
 11
0.0
 21
0.0
  0
LINE
  5
35
100
AcDbEntity
  8
0
 62
     0
100
AcDbLine
 10
0.0
 20
0.0
 11
-0.965926
 21
-0.258819
  0
LINE
  5
36
100
AcDbEntity
  8
0
 62
     0
100
AcDbLine
 10
-0.965926
 20
0.258819
 11
-0.965926
 21
-0.258819
  0
LINE
  5
37
100
AcDbEntity
  8
0
 62
     0
100
AcDbLine
 10
0.0
 20
0.0
 11
-1.0
 21
0.0
  0
ENDBLK
  5
38
100
AcDbEntity
  8
0
100
AcDbBlockEnd
  0
BLOCK
  5
3A
100
AcDbEntity
  8
0
100
AcDbBlockBegin
  2
_ORIGIN
 70
     0
 10
0.0
 20
0.0
  0
CIRCLE
  5
3B
100
AcDbEntity
  8
0
 62
     0
100
AcDbCircle
 10
0.0
 20
0.0
 40
0.5
  0
LINE
  5
3C
100
AcDbEntity
  8
0
 62
     0
100
AcDbLine
 10
0.0
 20
0.0
 11
-1.0
 21
0.0
  0
ENDBLK
  5
3D
100
AcDbEntity
  8
0
100
AcDbBlockEnd
  0
BLOCK
  5
3F
100
AcDbEntity
  8
0
100
AcDbBlockBegin
  2
_DOT
 70
     0
 10
0.0
 20
0.0
  0
POLYLINE
  5
40
100
AcDbEntity
  8
0
 62
     0
100
AcDb2dPolyline
 66
     1
 70
     1
 40
0.5
 41
0.5
  0
VERTEX
  5
41
100
AcDbEntity
  8
0
 62
     0
100
AcDbVertex
100
AcDb2dVertex
 10
-0.25
 20
0.0
 42
1.0
  0
VERTEX
  5
42
100
AcDbEntity
  8
0
 62
     0
100
AcDbVertex
100
AcDb2dVertex
 10
0.25
 20
0.0
 42
1.0
  0
SEQEND
  5
43
100
AcDbEntity
  8
0
 62
     0
  0
LINE
  5
44
100
AcDbEntity
  8
0
 62
     0
100
AcDbLine
 10
-0.5
 20
0.0
 11
-1.0
 21
0.0
  0
ENDBLK
  5
45
100
AcDbEntity
  8
0
100
AcDbBlockEnd
  0
BLOCK
  5
47
100
AcDbEntity
  8
0
100
AcDbBlockBegin
  2
_OBLIQUE
 70
     0
 10
0.0
 20
0.0
  0
LINE
  5
48
100
AcDbEntity
  8
0
 62
     0
100
AcDbLine
 10
-0.353553
 20
-0.353553
 11
0.353553
 21
0.353553
  0
ENDBLK
  5
49
100
AcDbEntity
  8
0
100
AcDbBlockEnd
  0
BLOCK
  5
4D
100
AcDbEntity
  8
DD0
100
AcDbBlockBegin
  2
*D0
 70
    65
 10
0.0
 20
0.0
  0
POINT
  5
4E
100
AcDbEntity
  8
DEFPOINTS
100
AcDbPoint
 10
84.699699
 20
163.246704
  0
POINT
  5
4F
100
AcDbEntity
  8
DEFPOINTS
100
AcDbPoint
 10
40.499699
 20
132.038666
  0
POINT
  5
50
100
AcDbEntity
  8
DEFPOINTS
100
AcDbPoint
 10
84.699699
 20
132.038666
  0
LINE
  5
51
100
AcDbEntity
  8
DD0
100
AcDbLine
 10
40.499699
 20
132.038666
 11
40.499699
 21
164.746704
  0
LINE
  5
52
100
AcDbEntity
  8
DD0
100
AcDbLine
 10
84.699699
 20
132.038666
 11
84.699699
 21
164.746704
  0
INSERT
  5
53
100
AcDbEntity
  8
DD0
100
AcDbBlockReference
  2
_OPEN
 10
84.699699
 20
163.246704
 41
3.0
 42
3.0
  0
INSERT
  5
54
100
AcDbEntity
  8
DD0
100
AcDbBlockReference
  2
_OPEN
 10
40.499699
 20
163.246704
 41
3.0
 42
3.0
 50
180.0
  0
LINE
  5
55
100
AcDbEntity
  8
DD0
100
AcDbLine
 10
43.499699
 20
163.246704
 11
81.699699
 21
163.246704
  0
TEXT
  5
56
100
AcDbEntity
  8
DD0
100
AcDbText
 10
55.891368
 20
164.246704
 40
3.5
  1
４４．２
 41
0.833333
  7
STANDARD
100
AcDbText
  0
ENDBLK
  5
57
100
AcDbEntity
  8
DD0
100
AcDbBlockEnd
  0
BLOCK
  5
5A
100
AcDbEntity
  8
DD0
100
AcDbBlockBegin
  2
*D1
 70
    65
 10
0.0
 20
0.0
  0
POINT
  5
5B
100
AcDbEntity
  8
DEFPOINTS
100
AcDbPoint
 10
99.599701
 20
169.55896
  0
POINT
  5
5C
100
AcDbEntity
  8
DEFPOINTS
100
AcDbPoint
 10
25.599701
 20
141.338669
  0
POINT
  5
5D
100
AcDbEntity
  8
DEFPOINTS
100
AcDbPoint
 10
99.599701
 20
141.338669
  0
LINE
  5
5E
100
AcDbEntity
  8
DD0
100
AcDbLine
 10
25.599701
 20
141.338669
 11
25.599701
 21
171.05896
  0
LINE
  5
5F
100
AcDbEntity
  8
DD0
100
AcDbLine
 10
99.599701
 20
141.338669
 11
99.599701
 21
171.05896
  0
INSERT
  5
60
100
AcDbEntity
  8
DD0
100
AcDbBlockReference
  2
_OPEN
 10
99.599701
 20
169.55896
 41
3.0
 42
3.0
  0
INSERT
  5
61
100
AcDbEntity
  8
DD0
100
AcDbBlockReference
  2
_OPEN
 10
25.599701
 20
169.55896
 41
3.0
 42
3.0
 50
180.0
  0
LINE
  5
62
100
AcDbEntity
  8
DD0
100
AcDbLine
 10
28.599701
 20
169.55896
 11
96.599701
 21
169.55896
  0
TEXT
  5
63
100
AcDbEntity
  8
DD0
100
AcDbText
 10
59.391368
 20
170.55896
 40
3.5
  1
７４
 41
0.833333
  7
STANDARD
100
AcDbText
  0
ENDBLK
  5
64
100
AcDbEntity
  8
DD0
100
AcDbBlockEnd
  0
BLOCK
  5
67
100
AcDbEntity
  8
DD0
100
AcDbBlockBegin
  2
*D2
 70
    65
 10
0.0
 20
0.0
  0
POINT
  5
68
100
AcDbEntity
  8
DEFPOINTS
100
AcDbPoint
 10
109.7631
 20
30.338669
  0
POINT
  5
69
100
AcDbEntity
  8
DEFPOINTS
100
AcDbPoint
 10
87.599701
 20
153.338669
  0
POINT
  5
6A
100
AcDbEntity
  8
DEFPOINTS
100
AcDbPoint
 10
87.599701
 20
30.338669
  0
LINE
  5
6B
100
AcDbEntity
  8
DD0
100
AcDbLine
 10
87.599701
 20
153.338669
 11
111.2631
 21
153.338669
  0
LINE
  5
6C
100
AcDbEntity
  8
DD0
100
AcDbLine
 10
87.599701
 20
30.338669
 11
111.2631
 21
30.338669
  0
INSERT
  5
6D
100
AcDbEntity
  8
DD0
100
AcDbBlockReference
  2
_OPEN
 10
109.7631
 20
30.338669
 41
3.0
 42
3.0
 50
270.0
  0
INSERT
  5
6E
100
AcDbEntity
  8
DD0
100
AcDbBlockReference
  2
_OPEN
 10
109.7631
 20
153.338669
 41
3.0
 42
3.0
 50
90.0
  0
LINE
  5
6F
100
AcDbEntity
  8
DD0
100
AcDbLine
 10
109.7631
 20
150.338669
 11
109.7631
 21
33.338669
  0
TEXT
  5
70
100
AcDbEntity
  8
DD0
100
AcDbText
 10
108.7631
 20
86.880335
 40
3.5
  1
１２３
 50
90.000003
 41
0.833333
  7
STANDARD
100
AcDbText
  0
ENDBLK
  5
71
100
AcDbEntity
  8
DD0
100
AcDbBlockEnd
  0
BLOCK
  5
74
100
AcDbEntity
  8
DD0
100
AcDbBlockBegin
  2
*D3
 70
    65
 10
0.0
 20
0.0
  0
POINT
  5
75
100
AcDbEntity
  8
DEFPOINTS
100
AcDbPoint
 10
135.835571
 20
169.55896
  0
POINT
  5
76
100
AcDbEntity
  8
DEFPOINTS
100
AcDbPoint
 10
125.335564
 20
145.338669
  0
POINT
  5
77
100
AcDbEntity
  8
DEFPOINTS
100
AcDbPoint
 10
135.835571
 20
153.338669
  0
LINE
  5
78
100
AcDbEntity
  8
DD0
100
AcDbLine
 10
125.335564
 20
145.338669
 11
125.335564
 21
171.05896
  0
LINE
  5
79
100
AcDbEntity
  8
DD0
100
AcDbLine
 10
135.835571
 20
153.338669
 11
135.835571
 21
171.05896
  0
INSERT
  5
7A
100
AcDbEntity
  8
DD0
100
AcDbBlockReference
  2
_OPEN
 10
135.835571
 20
169.55896
 41
3.0
 42
3.0
 50
180.0
  0
INSERT
  5
7B
100
AcDbEntity
  8
DD0
100
AcDbBlockReference
  2
_OPEN
 10
125.335564
 20
169.55896
 41
3.0
 42
3.0
  0
LINE
  5
7C
100
AcDbEntity
  8
DD0
100
AcDbLine
 10
107.035564
 20
169.55896
 11
122.335564
 21
169.55896
  0
LINE
  5
7D
100
AcDbEntity
  8
DD0
100
AcDbLine
 10
125.335564
 20
169.55896
 11
135.835571
 21
169.55896
  0
LINE
  5
7E
100
AcDbEntity
  8
DD0
100
AcDbLine
 10
138.835571
 20
169.55896
 11
139.135571
 21
169.55896
  0
TEXT
  5
7F
100
AcDbEntity
  8
DD0
100
AcDbText
 10
107.827227
 20
170.55896
 40
3.5
  1
１０．５
 41
0.833333
  7
STANDARD
100
AcDbText
  0
ENDBLK
  5
80
100
AcDbEntity
  8
DD0
100
AcDbBlockEnd
  0
BLOCK
  5
83
100
AcDbEntity
  8
DD0
100
AcDbBlockBegin
  2
*D4
 70
    65
 10
0.0
 20
0.0
  0
POINT
  5
84
100
AcDbEntity
  8
DEFPOINTS
100
AcDbPoint
 10
164.035568
 20
169.55896
  0
POINT
  5
85
100
AcDbEntity
  8
DEFPOINTS
100
AcDbPoint
 10
135.835571
 20
153.338669
  0
POINT
  5
86
100
AcDbEntity
  8
DEFPOINTS
100
AcDbPoint
 10
164.035568
 20
126.188667
  0
LINE
  5
87
100
AcDbEntity
  8
DD0
100
AcDbLine
 10
135.835571
 20
153.338669
 11
135.835571
 21
171.05896
  0
LINE
  5
88
100
AcDbEntity
  8
DD0
100
AcDbLine
 10
164.035568
 20
126.188667
 11
164.035568
 21
171.05896
  0
INSERT
  5
89
100
AcDbEntity
  8
DD0
100
AcDbBlockReference
  2
_OPEN
 10
164.035568
 20
169.55896
 41
3.0
 42
3.0
  0
INSERT
  5
8A
100
AcDbEntity
  8
DD0
100
AcDbBlockReference
  2
_OPEN
 10
135.835571
 20
169.55896
 41
3.0
 42
3.0
 50
180.0
  0
LINE
  5
8B
100
AcDbEntity
  8
DD0
100
AcDbLine
 10
138.835571
 20
169.55896
 11
161.035568
 21
169.55896
  0
TEXT
  5
8C
100
AcDbEntity
  8
DD0
100
AcDbText
 10
143.227244
 20
170.55896
 40
3.5
  1
２８．２
 41
0.833333
  7
STANDARD
100
AcDbText
  0
ENDBLK
  5
8D
100
AcDbEntity
  8
DD0
100
AcDbBlockEnd
  0
BLOCK
  5
90
100
AcDbEntity
  8
DD0
100
AcDbBlockBegin
  2
*D5
 70
    65
 10
0.0
 20
0.0
  0
POINT
  5
91
100
AcDbEntity
  8
DEFPOINTS
100
AcDbPoint
 10
125.335564
 20
163.246704
  0
POINT
  5
92
100
AcDbEntity
  8
DEFPOINTS
100
AcDbPoint
 10
121.335564
 20
137.038666
  0
POINT
  5
93
100
AcDbEntity
  8
DEFPOINTS
100
AcDbPoint
 10
125.335564
 20
145.338669
  0
LINE
  5
94
100
AcDbEntity
  8
DD0
100
AcDbLine
 10
121.335564
 20
137.038666
 11
121.335564
 21
164.746704
  0
LINE
  5
95
100
AcDbEntity
  8
DD0
100
AcDbLine
 10
125.335564
 20
145.338669
 11
125.335564
 21
164.746704
  0
INSERT
  5
96
100
AcDbEntity
  8
DD0
100
AcDbBlockReference
  2
_OPEN
 10
125.335564
 20
163.246704
 41
3.0
 42
3.0
 50
180.0
  0
INSERT
  5
97
100
AcDbEntity
  8
DD0
100
AcDbBlockReference
  2
_OPEN
 10
121.335564
 20
163.246704
 41
3.0
 42
3.0
  0
LINE
  5
98
100
AcDbEntity
  8
DD0
100
AcDbLine
 10
112.654053
 20
163.246704
 11
118.335564
 21
163.246704
  0
LINE
  5
99
100
AcDbEntity
  8
DD0
100
AcDbLine
 10
121.335564
 20
163.246704
 11
125.335564
 21
163.246704
  0
LINE
  5
9A
100
AcDbEntity
  8
DD0
100
AcDbLine
 10
128.335564
 20
163.246704
 11
128.635564
 21
163.246704
  0
TEXT
  5
9B
100
AcDbEntity
  8
DD0
100
AcDbText
 10
113.945719
 20
164.246704
 40
3.5
  1
４
 41
0.833333
  7
STANDARD
100
AcDbText
  0
ENDBLK
  5
9C
100
AcDbEntity
  8
DD0
100
AcDbBlockEnd
  0
BLOCK
  5
9F
100
AcDbEntity
  8
DD0
100
AcDbBlockBegin
  2
*D6
 70
    65
 10
0.0
 20
0.0
  0
POINT
  5
A0
100
AcDbEntity
  8
DEFPOINTS
100
AcDbPoint
 10
176.392456
 20
68.838669
  0
POINT
  5
A1
100
AcDbEntity
  8
DEFPOINTS
100
AcDbPoint
 10
173.368622
 20
114.838669
  0
POINT
  5
A2
100
AcDbEntity
  8
DEFPOINTS
100
AcDbPoint
 10
174.42067
 20
68.838669
  0
LINE
  5
A3
100
AcDbEntity
  8
DD0
100
AcDbLine
 10
173.368622
 20
114.838669
 11
177.892456
 21
114.838669
  0
LINE
  5
A4
100
AcDbEntity
  8
DD0
100
AcDbLine
 10
174.42067
 20
68.838669
 11
177.892456
 21
68.838669
  0
INSERT
  5
A5
100
AcDbEntity
  8
DD0
100
AcDbBlockReference
  2
_OPEN
 10
176.392456
 20
68.838669
 41
3.0
 42
3.0
 50
270.0
  0
INSERT
  5
A6
100
AcDbEntity
  8
DD0
100
AcDbBlockReference
  2
_OPEN
 10
176.392456
 20
114.838669
 41
3.0
 42
3.0
 50
90.0
  0
LINE
  5
A7
100
AcDbEntity
  8
DD0
100
AcDbLine
 10
176.392456
 20
111.838669
 11
176.392456
 21
71.838669
  0
TEXT
  5
A8
100
AcDbEntity
  8
DD0
100
AcDbText
 10
175.392456
 20
88.630335
 40
3.5
  1
４６
 50
90.000003
 41
0.833333
  7
STANDARD
100
AcDbText
  0
ENDBLK
  5
A9
100
AcDbEntity
  8
DD0
100
AcDbBlockEnd
  0
BLOCK
  5
AC
100
AcDbEntity
  8
DD0
100
AcDbBlockBegin
  2
*D7
 70
    65
 10
0.0
 20
0.0
  0
POINT
  5
AD
100
AcDbEntity
  8
DEFPOINTS
100
AcDbPoint
 10
171.833603
 20
126.188667
  0
POINT
  5
AE
100
AcDbEntity
  8
DEFPOINTS
100
AcDbPoint
 10
164.035568
 20
103.48867
  0
POINT
  5
AF
100
AcDbEntity
  8
DEFPOINTS
100
AcDbPoint
 10
164.035568
 20
126.188667
  0
LINE
  5
B0
100
AcDbEntity
  8
DD0
100
AcDbLine
 10
164.035568
 20
103.48867
 11
173.333603
 21
103.48867
  0
LINE
  5
B1
100
AcDbEntity
  8
DD0
100
AcDbLine
 10
164.035568
 20
126.188667
 11
173.333603
 21
126.188667
  0
INSERT
  5
B2
100
AcDbEntity
  8
DD0
100
AcDbBlockReference
  2
_OPEN
 10
171.833603
 20
126.188667
 41
3.0
 42
3.0
 50
90.0
  0
INSERT
  5
B3
100
AcDbEntity
  8
DD0
100
AcDbBlockReference
  2
_OPEN
 10
171.833603
 20
103.48867
 41
3.0
 42
3.0
 50
270.0
  0
LINE
  5
B4
100
AcDbEntity
  8
DD0
100
AcDbLine
 10
171.833603
 20
106.48867
 11
171.833603
 21
123.188667
  0
TEXT
  5
B5
100
AcDbEntity
  8
DD0
100
AcDbText
 10
170.833603
 20
111.1748
 40
3.5
  1
２２．７
 50
90.000003
 41
0.833333
  7
STANDARD
100
AcDbText
  0
ENDBLK
  5
B6
100
AcDbEntity
  8
DD0
100
AcDbBlockEnd
  0
BLOCK
  5
B9
100
AcDbEntity
  8
DD0
100
AcDbBlockBegin
  2
*D8
 70
    65
 10
0.0
 20
0.0
  0
POINT
  5
BA
100
AcDbEntity
  8
DEFPOINTS
100
AcDbPoint
 10
171.833603
 20
80.188667
  0
POINT
  5
BB
100
AcDbEntity
  8
DEFPOINTS
100
AcDbPoint
 10
164.035568
 20
57.488667
  0
POINT
  5
BC
100
AcDbEntity
  8
DEFPOINTS
100
AcDbPoint
 10
164.035568
 20
80.188667
  0
LINE
  5
BD
100
AcDbEntity
  8
DD0
100
AcDbLine
 10
164.035568
 20
57.488667
 11
173.333603
 21
57.488667
  0
LINE
  5
BE
100
AcDbEntity
  8
DD0
100
AcDbLine
 10
164.035568
 20
80.188667
 11
173.333603
 21
80.188667
  0
INSERT
  5
BF
100
AcDbEntity
  8
DD0
100
AcDbBlockReference
  2
_OPEN
 10
171.833603
 20
80.188667
 41
3.0
 42
3.0
 50
90.0
  0
INSERT
  5
C0
100
AcDbEntity
  8
DD0
100
AcDbBlockReference
  2
_OPEN
 10
171.833603
 20
57.488667
 41
3.0
 42
3.0
 50
270.0
  0
LINE
  5
C1
100
AcDbEntity
  8
DD0
100
AcDbLine
 10
171.833603
 20
60.488667
 11
171.833603
 21
77.188667
  0
TEXT
  5
C2
100
AcDbEntity
  8
DD0
100
AcDbText
 10
170.833603
 20
65.615748
 40
3.5
  1
２２．７
 50
90.000003
 41
0.833333
  7
STANDARD
100
AcDbText
  0
ENDBLK
  5
C3
100
AcDbEntity
  8
DD0
100
AcDbBlockEnd
  0
BLOCK
  5
C8
100
AcDbEntity
  8
DD0
100
AcDbBlockBegin
  2
LEAD0
 70
     0
 10
0.0
 20
0.0
  0
CIRCLE
  5
C9
100
AcDbEntity
  8
DD0
100
AcDbCircle
 10
153.948883
 20
146.857742
 40
5.0
  0
TEXT
  5
CA
100
AcDbEntity
  8
DD0
100
AcDbText
 10
151.532216
 20
143.507742
 40
6.7
  1
１
 41
0.721393
  7
STANDARD
100
AcDbText
  0
ENDBLK
  5
CB
100
AcDbEntity
  8
DD0
100
AcDbBlockEnd
  0
BLOCK
  5
CF
100
AcDbEntity
  8
DD0
100
AcDbBlockBegin
  2
LEAD1
 70
     0
 10
0.0
 20
0.0
  0
CIRCLE
  5
D0
100
AcDbEntity
  8
DD0
100
AcDbCircle
 10
158.507736
 20
36.743946
 40
5.0
  0
TEXT
  5
D1
100
AcDbEntity
  8
DD0
100
AcDbText
 10
156.091069
 20
33.393946
 40
6.7
  1
２
 41
0.721393
  7
STANDARD
100
AcDbText
  0
ENDBLK
  5
D2
100
AcDbEntity
  8
DD0
100
AcDbBlockEnd
  0
BLOCK
  5
D6
100
AcDbEntity
  8
DD0
100
AcDbBlockBegin
  2
LEAD2
 70
     0
 10
0.0
 20
0.0
  0
CIRCLE
  5
D7
100
AcDbEntity
  8
DD0
100
AcDbCircle
 10
100.294716
 20
186.562195
 40
5.0
  0
TEXT
  5
D8
100
AcDbEntity
  8
DD0
100
AcDbText
 10
97.878049
 20
183.212195
 40
6.7
  1
３
 41
0.721393
  7
STANDARD
100
AcDbText
  0
ENDBLK
  5
D9
100
AcDbEntity
  8
DD0
100
AcDbBlockEnd
  0
BLOCK
  5
DD
100
AcDbEntity
  8
DD0
100
AcDbBlockBegin
  2
LEAD3
 70
     0
 10
0.0
 20
0.0
  0
CIRCLE
  5
DE
100
AcDbEntity
  8
DD0
100
AcDbCircle
 10
76.799103
 20
187.614243
 40
5.0
  0
TEXT
  5
DF
100
AcDbEntity
  8
DD0
100
AcDbText
 10
74.382436
 20
184.264243
 40
6.7
  1
４
 41
0.721393
  7
STANDARD
100
AcDbText
  0
ENDBLK
  5
E0
100
AcDbEntity
  8
DD0
100
AcDbBlockEnd
  0
BLOCK
  5
E4
100
AcDbEntity
  8
DD0
100
AcDbBlockBegin
  2
LEAD4
 70
     0
 10
0.0
 20
0.0
  0
CIRCLE
  5
E5
100
AcDbEntity
  8
DD0
100
AcDbCircle
 10
40.328293
 20
187.263565
 40
5.0
  0
TEXT
  5
E6
100
AcDbEntity
  8
DD0
100
AcDbText
 10
37.911626
 20
183.913565
 40
6.7
  1
５
 41
0.721393
  7
STANDARD
100
AcDbText
  0
ENDBLK
  5
E7
100
AcDbEntity
  8
DD0
100
AcDbBlockEnd
  0
ENDSEC
  0
SECTION
  2
ENTITIES
  0
LEADER
  5
4A
100
AcDbEntity
  8
DD0
100
AcDbLeader
  3
LEADSTYL
 76
     3
 10
218.840561
 20
131.628891
 10
217.724625
 20
138.387955
 10
206.124619
 20
138.387955
340
4B
 77
     4
  0
TEXT
  5
4B
100
AcDbEntity
  8
DD0
100
AcDbText
 10
207.391281
 20
139.387955
 40
3.2
  1
電圧側
 41
0.833333
  7
STANDARD
100
AcDbText
  0
DIMENSION
  5
58
100
AcDbEntity
  8
DD0
100
AcDbDimension
  2
*D0
 10
84.699699
 20
163.246704
 11
62.599699
 21
163.246704
  3
STANDARD
100
AcDbAlignedDimension
 13
40.499699
 23
132.038666
 14
84.699699
 24
132.038666
100
AcDbRotatedDimension
  0
DIMENSION
  5
65
100
AcDbEntity
  8
DD0
100
AcDbDimension
  2
*D1
 10
99.599701
 20
169.55896
 11
62.599701
 21
169.55896
  3
STANDARD
100
AcDbAlignedDimension
 13
25.599701
 23
141.338669
 14
99.599701
 24
141.338669
100
AcDbRotatedDimension
  0
DIMENSION
  5
72
100
AcDbEntity
  8
DD0
100
AcDbDimension
  2
*D2
 10
109.7631
 20
30.338669
 11
109.7631
 21
91.838669
  3
STANDARD
100
AcDbAlignedDimension
 13
87.599701
 23
153.338669
 14
87.599701
 24
30.338669
 50
90.0
100
AcDbRotatedDimension
  0
DIMENSION
  5
81
100
AcDbEntity
  8
DD0
100
AcDbDimension
  2
*D3
 10
135.835571
 20
169.55896
 11
130.585567
 21
169.55896
  3
STANDARD
100
AcDbAlignedDimension
 13
125.335564
 23
145.338669
 14
135.835571
 24
153.338669
100
AcDbRotatedDimension
  0
DIMENSION
  5
8E
100
AcDbEntity
  8
DD0
100
AcDbDimension
  2
*D4
 10
164.035568
 20
169.55896
 11
149.93557
 21
169.55896
  3
STANDARD
100
AcDbAlignedDimension
 13
135.835571
 23
153.338669
 14
164.035568
 24
126.188667
100
AcDbRotatedDimension
  0
DIMENSION
  5
9D
100
AcDbEntity
  8
DD0
100
AcDbDimension
  2
*D5
 10
125.335564
 20
163.246704
 11
123.335564
 21
163.246704
  3
STANDARD
100
AcDbAlignedDimension
 13
121.335564
 23
137.038666
 14
125.335564
 24
145.338669
100
AcDbRotatedDimension
  0
DIMENSION
  5
AA
100
AcDbEntity
  8
DD0
100
AcDbDimension
  2
*D6
 10
176.392456
 20
68.838669
 11
176.392456
 21
91.838669
  3
STANDARD
100
AcDbAlignedDimension
 13
173.368622
 23
114.838669
 14
174.42067
 24
68.838669
 50
90.0
100
AcDbRotatedDimension
  0
DIMENSION
  5
B7
100
AcDbEntity
  8
DD0
100
AcDbDimension
  2
*D7
 10
171.833603
 20
126.188667
 11
171.833603
 21
114.838669
  3
STANDARD
100
AcDbAlignedDimension
 13
164.035568
 23
103.48867
 14
164.035568
 24
126.188667
 50
90.0
100
AcDbRotatedDimension
  0
DIMENSION
  5
C4
100
AcDbEntity
  8
DD0
100
AcDbDimension
  2
*D8
 10
171.833603
 20
80.188667
 11
171.833603
 21
68.838667
  3
STANDARD
100
AcDbAlignedDimension
 13
164.035568
 23
57.488667
 14
164.035568
 24
80.188667
 50
90.0
100
AcDbRotatedDimension
  0
LEADER
  5
C5
100
AcDbEntity
  8
DD0
100
AcDbLeader
  3
LEADSTYL
 76
     2
 10
149.39003
 20
126.188667
 10
152.871948
 20
141.975098
212
152.871948
222
141.975098
340
C6
 77
     4
  0
INSERT
  5
C6
100
AcDbEntity
  8
DD0
100
AcDbBlockReference
  2
LEAD0
 10
0.0
 20
0.0
  0
LEADER
  5
CC
100
AcDbEntity
  8
DD0
100
AcDbLeader
  3
LEADSTYL
 76
     2
 10
151.49411
 20
57.488667
 10
156.906326
 20
41.480556
212
156.906326
222
41.480556
340
CD
 77
     4
  0
INSERT
  5
CD
100
AcDbEntity
  8
DD0
100
AcDbBlockReference
  2
LEAD1
 10
0.0
 20
0.0
  0
LEADER
  5
D3
100
AcDbEntity
  8
DD0
100
AcDbLeader
  3
LEADSTYL
 76
     2
 10
88.353737
 20
153.314957
 10
98.60463
 20
181.856491
212
98.60463
222
181.856491
340
D4
 77
     4
  0
INSERT
  5
D4
100
AcDbEntity
  8
DD0
100
AcDbBlockReference
  2
LEAD2
 10
0.0
 20
0.0
  0
LEADER
  5
DA
100
AcDbEntity
  8
DD0
100
AcDbLeader
  3
LEADSTYL
 76
     2
 10
69.434799
 20
135.038666
 10
76.105522
 20
182.662582
212
76.105522
222
182.662582
340
DB
 77
     4
  0
INSERT
  5
DB
100
AcDbEntity
  8
DD0
100
AcDbBlockReference
  2
LEAD3
 10
0.0
 20
0.0
  0
LEADER
  5
E1
100
AcDbEntity
  8
DD0
100
AcDbLeader
  3
LEADSTYL
 76
     2
 10
58.599701
 20
114.038666
 10
41.538803
 20
182.412308
212
41.538803
222
182.412308
340
E2
 77
     4
  0
INSERT
  5
E2
100
AcDbEntity
  8
DD0
100
AcDbBlockReference
  2
LEAD4
 10
0.0
 20
0.0
  0
LEADER
  5
E8
100
AcDbEntity
  8
DD0
100
AcDbLeader
  3
LEADSTYL
 76
     3
 10
213.012787
 20
71.432709
 10
211.896851
 20
78.191772
 10
200.296844
 20
78.191772
340
E9
 77
     4
  0
TEXT
  5
E9
100
AcDbEntity
  8
DD0
100
AcDbText
 10
201.563507
 20
79.191772
 40
3.2
  1
電圧側
 41
0.833333
  7
STANDARD
100
AcDbText
  0
LEADER
  5
EA
100
AcDbEntity
  8
DD0
100
AcDbLeader
  3
LEADSTYL
 76
     3
 10
263.643158
 20
61.371098
 10
273.841187
 20
54.50248
 10
189.159912
 20
54.50248
340
EB
 77
     4
  0
TEXT
  5
EB
100
AcDbEntity
  8
DD0
100
AcDbText
 10
190.451579
 20
55.50248
 40
3.5
  1
スイッチボックス内でジョイントしてください。
 41
0.833333
  7
STANDARD
100
AcDbText
  0
LINE
  5
EC
100
AcDbEntity
  8
M0
100
AcDbLine
 10
99.5997
 20
42.338668
 11
99.5997
 21
141.338668
  0
LINE
  5
ED
100
AcDbEntity
  8
M0
100
AcDbLine
 10
87.5997
 20
153.338668
 11
37.5997
 21
153.338668
  0
LINE
  5
EE
100
AcDbEntity
  8
M0
100
AcDbLine
 10
25.5997
 20
141.338668
 11
25.5997
 21
42.338668
  0
LINE
  5
EF
100
AcDbEntity
  8
M0
100
AcDbLine
 10
37.5997
 20
30.338668
 11
87.5997
 21
30.338668
  0
LINE
  5
F0
100
AcDbEntity
  8
M0
  6
DASHDOT
100
AcDbLine
 10
20.5997
 20
91.838668
 11
104.5997
 21
91.838668
  0
LINE
  5
F1
100
AcDbEntity
  8
M0
  6
DASHDOT
100
AcDbLine
 10
62.5997
 20
25.338668
 11
62.5997
 21
158.338668
  0
LINE
  5
F2
100
AcDbEntity
  8
M0
100
AcDbLine
 10
44.4997
 20
136.038668
 11
80.6997
 21
136.038668
  0
LINE
  5
F3
100
AcDbEntity
  8
M0
100
AcDbLine
 10
44.4997
 20
47.638668
 11
80.6997
 21
47.638668
  0
LINE
  5
F4
100
AcDbEntity
  8
M0
100
AcDbLine
 10
40.4997
 20
132.038668
 11
40.4997
 21
51.638668
  0
LINE
  5
F5
100
AcDbEntity
  8
M0
100
AcDbLine
 10
84.6997
 20
132.038668
 11
84.6997
 21
51.638668
  0
LINE
  5
F6
100
AcDbEntity
  8
M0
100
AcDbLine
 10
83.6997
 20
132.038668
 11
83.6997
 21
95.838668
  0
LINE
  5
F7
100
AcDbEntity
  8
M0
100
AcDbLine
 10
41.4997
 20
132.038668
 11
41.4997
 21
95.838668
  0
LINE
  5
F8
100
AcDbEntity
  8
M0
100
AcDbLine
 10
44.4997
 20
48.638668
 11
80.6997
 21
48.638668
  0
LINE
  5
F9
100
AcDbEntity
  8
M0
100
AcDbLine
 10
44.4997
 20
135.038668
 11
80.6997
 21
135.038668
  0
LINE
  5
FA
100
AcDbEntity
  8
M0
100
AcDbLine
 10
82.1997
 20
131.538668
 11
82.1997
 21
96.338668
  0
LINE
  5
FB
100
AcDbEntity
  8
M0
100
AcDbLine
 10
42.9997
 20
131.538668
 11
42.9997
 21
96.338668
  0
LINE
  5
FC
100
AcDbEntity
  8
M0
100
AcDbLine
 10
44.9997
 20
50.138668
 11
80.1997
 21
50.138668
  0
LINE
  5
FD
100
AcDbEntity
  8
M0
100
AcDbLine
 10
44.9997
 20
133.538668
 11
80.1997
 21
133.538668
  0
LINE
  5
FE
100
AcDbEntity
  8
M0
100
AcDbLine
 10
44.4997
 20
90.838668
 11
80.6997
 21
90.838668
  0
LINE
  5
FF
100
AcDbEntity
  8
M0
100
AcDbLine
 10
44.4997
 20
92.838668
 11
80.6997
 21
92.838668
  0
LINE
  5
100
100
AcDbEntity
  8
M0
100
AcDbLine
 10
44.9997
 20
94.338668
 11
80.1997
 21
94.338668
  0
LINE
  5
101
100
AcDbEntity
  8
M0
100
AcDbLine
 10
44.9997
 20
89.338668
 11
80.1997
 21
89.338668
  0
ARC
  5
102
100
AcDbEntity
  8
M0
100
AcDbCircle
 10
80.1997
 20
131.538668
 40
2.0
100
AcDbArc
 50
0.0
 51
90.0
  0
ARC
  5
103
100
AcDbEntity
  8
M0
100
AcDbCircle
 10
44.9997
 20
131.538668
 40
2.0
100
AcDbArc
 50
90.0
 51
180.0
  0
ARC
  5
104
100
AcDbEntity
  8
M0
100
AcDbCircle
 10
44.9997
 20
96.338668
 40
2.0
100
AcDbArc
 50
180.0
 51
270.0
  0
ARC
  5
105
100
AcDbEntity
  8
M0
100
AcDbCircle
 10
80.1997
 20
96.338668
 40
2.0
100
AcDbArc
 50
270.0
 51
360.0
  0
ARC
  5
106
100
AcDbEntity
  8
M0
100
AcDbCircle
 10
80.6997
 20
132.038668
 40
3.0
100
AcDbArc
 50
0.0
 51
90.0
  0
ARC
  5
107
100
AcDbEntity
  8
M0
100
AcDbCircle
 10
44.4997
 20
132.038668
 40
3.0
100
AcDbArc
 50
90.0
 51
180.0
  0
ARC
  5
108
100
AcDbEntity
  8
M0
100
AcDbCircle
 10
44.4997
 20
95.838668
 40
3.0
100
AcDbArc
 50
180.0
 51
270.0
  0
ARC
  5
109
100
AcDbEntity
  8
M0
100
AcDbCircle
 10
80.6997
 20
95.838668
 40
3.0
100
AcDbArc
 50
270.0
 51
360.0
  0
ARC
  5
10A
100
AcDbEntity
  8
M0
100
AcDbCircle
 10
44.4997
 20
132.038668
 40
4.0
100
AcDbArc
 50
90.0
 51
180.0
  0
ARC
  5
10B
100
AcDbEntity
  8
M0
100
AcDbCircle
 10
80.6997
 20
132.038668
 40
4.0
100
AcDbArc
 50
0.0
 51
90.0
  0
LINE
  5
10C
100
AcDbEntity
  8
M0
100
AcDbLine
 10
41.4997
 20
87.838668
 11
41.4997
 21
51.638668
  0
LINE
  5
10D
100
AcDbEntity
  8
M0
100
AcDbLine
 10
83.6997
 20
87.838668
 11
83.6997
 21
51.638668
  0
LINE
  5
10E
100
AcDbEntity
  8
M0
100
AcDbLine
 10
42.9997
 20
87.338668
 11
42.9997
 21
52.138668
  0
LINE
  5
10F
100
AcDbEntity
  8
M0
100
AcDbLine
 10
82.1997
 20
87.338668
 11
82.1997
 21
52.138668
  0
ARC
  5
110
100
AcDbEntity
  8
M0
100
AcDbCircle
 10
44.9997
 20
87.338668
 40
2.0
100
AcDbArc
 50
90.0
 51
180.0
  0
ARC
  5
111
100
AcDbEntity
  8
M0
100
AcDbCircle
 10
80.1997
 20
87.338668
 40
2.0
100
AcDbArc
 50
0.0
 51
90.0
  0
ARC
  5
112
100
AcDbEntity
  8
M0
100
AcDbCircle
 10
80.1997
 20
52.138668
 40
2.0
100
AcDbArc
 50
270.0
 51
360.0
  0
ARC
  5
113
100
AcDbEntity
  8
M0
100
AcDbCircle
 10
44.9997
 20
52.138668
 40
2.0
100
AcDbArc
 50
180.0
 51
270.0
  0
ARC
  5
114
100
AcDbEntity
  8
M0
100
AcDbCircle
 10
44.4997
 20
87.838668
 40
3.0
100
AcDbArc
 50
90.0
 51
180.0
  0
ARC
  5
115
100
AcDbEntity
  8
M0
100
AcDbCircle
 10
44.4997
 20
51.638668
 40
3.0
100
AcDbArc
 50
180.0
 51
270.0
  0
ARC
  5
116
100
AcDbEntity
  8
M0
100
AcDbCircle
 10
80.6997
 20
51.638668
 40
3.0
100
AcDbArc
 50
270.0
 51
360.0
  0
ARC
  5
117
100
AcDbEntity
  8
M0
100
AcDbCircle
 10
44.4997
 20
51.638668
 40
4.0
100
AcDbArc
 50
180.0
 51
270.0
  0
ARC
  5
118
100
AcDbEntity
  8
M0
100
AcDbCircle
 10
80.6997
 20
51.638668
 40
4.0
100
AcDbArc
 50
270.0
 51
360.0
  0
ARC
  5
119
100
AcDbEntity
  8
M0
100
AcDbCircle
 10
80.6997
 20
87.838668
 40
3.0
100
AcDbArc
 50
0.0
 51
90.0
  0
LINE
  5
11A
100
AcDbEntity
  8
M0
100
AcDbLine
 10
32.4997
 20
138.038668
 11
32.4997
 21
45.638668
  0
LINE
  5
11B
100
AcDbEntity
  8
M0
100
AcDbLine
 10
92.6997
 20
138.038668
 11
92.6997
 21
45.638668
  0
LINE
  5
11C
100
AcDbEntity
  8
M0
100
AcDbLine
 10
38.4997
 20
144.038668
 11
86.6997
 21
144.038668
  0
LINE
  5
11D
100
AcDbEntity
  8
M0
100
AcDbLine
 10
38.4997
 20
39.638668
 11
86.6997
 21
39.638668
  0
ARC
  5
11E
100
AcDbEntity
  8
M0
100
AcDbCircle
 10
38.4997
 20
138.038668
 40
6.0
100
AcDbArc
 50
90.0
 51
180.0
  0
ARC
  5
11F
100
AcDbEntity
  8
M0
100
AcDbCircle
 10
38.4997
 20
45.638668
 40
6.0
100
AcDbArc
 50
180.0
 51
270.0
  0
ARC
  5
120
100
AcDbEntity
  8
M0
100
AcDbCircle
 10
86.6997
 20
45.638668
 40
6.0
100
AcDbArc
 50
270.0
 51
360.0
  0
ARC
  5
121
100
AcDbEntity
  8
M0
100
AcDbCircle
 10
86.6997
 20
138.038668
 40
6.0
100
AcDbArc
 50
0.0
 51
90.0
  0
LINE
  5
122
100
AcDbEntity
  8
M0
100
AcDbLine
 10
38.4997
 20
133.038668
 11
38.4997
 21
50.638668
  0
LINE
  5
123
100
AcDbEntity
  8
M0
100
AcDbLine
 10
86.6997
 20
133.038668
 11
86.6997
 21
50.638668
  0
LINE
  5
124
100
AcDbEntity
  8
M0
100
AcDbLine
 10
43.4997
 20
138.038668
 11
81.6997
 21
138.038668
  0
LINE
  5
125
100
AcDbEntity
  8
M0
100
AcDbLine
 10
43.4997
 20
45.638668
 11
81.6997
 21
45.638668
  0
ARC
  5
126
100
AcDbEntity
  8
M0
100
AcDbCircle
 10
43.4997
 20
133.038668
 40
5.0
100
AcDbArc
 50
90.0
 51
180.0
  0
ARC
  5
127
100
AcDbEntity
  8
M0
100
AcDbCircle
 10
81.6997
 20
133.038668
 40
5.0
100
AcDbArc
 50
0.0
 51
90.0
  0
ARC
  5
128
100
AcDbEntity
  8
M0
100
AcDbCircle
 10
43.4997
 20
50.638668
 40
5.0
100
AcDbArc
 50
180.0
 51
270.0
  0
ARC
  5
129
100
AcDbEntity
  8
M0
100
AcDbCircle
 10
81.6997
 20
50.638668
 40
5.0
100
AcDbArc
 50
270.0
 51
360.0
  0
ARC
  5
12A
100
AcDbEntity
  8
M0
100
AcDbCircle
 10
37.5997
 20
141.338668
 40
12.0
100
AcDbArc
 50
90.0
 51
180.0
  0
ARC
  5
12B
100
AcDbEntity
  8
M0
100
AcDbCircle
 10
37.5997
 20
42.338668
 40
12.0
100
AcDbArc
 50
180.0
 51
270.0
  0
ARC
  5
12C
100
AcDbEntity
  8
M0
100
AcDbCircle
 10
87.5997
 20
42.338668
 40
12.0
100
AcDbArc
 50
270.0
 51
360.0
  0
ARC
  5
12D
100
AcDbEntity
  8
M0
100
AcDbCircle
 10
87.5997
 20
141.338668
 40
12.0
100
AcDbArc
 50
0.0
 51
90.0
  0
TEXT
  5
12E
100
AcDbEntity
  8
M0
100
AcDbText
 10
47.026818
 20
108.100091
 40
5.0
  1
切
 41
0.783333
  7
STANDARD
100
AcDbText
  0
TEXT
  5
12F
100
AcDbEntity
  8
M0
100
AcDbText
 10
75.954992
 20
108.011896
 40
5.0
  1
入
 41
0.783333
  7
STANDARD
100
AcDbText
  0
TEXT
  5
130
100
AcDbEntity
  8
M0
100
AcDbText
 10
47.176519
 20
64.080799
 40
5.0
  1
弱
 41
0.783333
  7
STANDARD
100
AcDbText
  0
TEXT
  5
131
100
AcDbEntity
  8
M0
100
AcDbText
 10
74.67493
 20
63.950784
 40
5.0
  1
強
 41
0.783333
  7
STANDARD
100
AcDbText
  0
LINE
  5
132
100
AcDbEntity
  8
M0
100
AcDbLine
 10
81.0997
 20
121.038668
 11
81.0997
 21
105.038668
  0
ARC
  5
133
100
AcDbEntity
  8
M0
100
AcDbCircle
 10
79.0997
 20
121.038668
 40
2.0
100
AcDbArc
 50
0.0
 51
90.0
  0
LINE
  5
134
100
AcDbEntity
  8
M0
100
AcDbLine
 10
46.0997
 20
123.038668
 11
79.0997
 21
123.038668
  0
ARC
  5
135
100
AcDbEntity
  8
M0
100
AcDbCircle
 10
46.0997
 20
121.038668
 40
2.0
100
AcDbArc
 50
90.0
 51
180.0
  0
LINE
  5
136
100
AcDbEntity
  8
M0
100
AcDbLine
 10
44.0997
 20
121.038668
 11
44.0997
 21
105.038668
  0
ARC
  5
137
100
AcDbEntity
  8
M0
100
AcDbCircle
 10
46.0997
 20
105.038668
 40
2.0
100
AcDbArc
 50
180.0
 51
270.0
  0
LINE
  5
138
100
AcDbEntity
  8
M0
100
AcDbLine
 10
46.0997
 20
103.038668
 11
79.0997
 21
103.038668
  0
ARC
  5
139
100
AcDbEntity
  8
M0
100
AcDbCircle
 10
79.0997
 20
105.038668
 40
2.0
100
AcDbArc
 50
270.0
 51
360.0
  0
LINE
  5
13A
100
AcDbEntity
  8
M0
100
AcDbLine
 10
74.5997
 20
122.038668
 11
74.5997
 21
116.038668
  0
LINE
  5
13B
100
AcDbEntity
  8
M0
100
AcDbLine
 10
50.680474
 20
122.038668
 11
74.5997
 21
122.038668
  0
LINE
  5
13C
100
AcDbEntity
  8
M0
100
AcDbLine
 10
50.5997
 20
122.038668
 11
50.5997
 21
116.038668
  0
LINE
  5
13D
100
AcDbEntity
  8
M0
100
AcDbLine
 10
81.0997
 20
76.838668
 11
81.0997
 21
60.838668
  0
ARC
  5
13E
100
AcDbEntity
  8
M0
100
AcDbCircle
 10
79.0997
 20
76.838668
 40
2.0
100
AcDbArc
 50
0.0
 51
90.0
  0
LINE
  5
13F
100
AcDbEntity
  8
M0
100
AcDbLine
 10
46.0997
 20
78.838668
 11
79.0997
 21
78.838668
  0
ARC
  5
140
100
AcDbEntity
  8
M0
100
AcDbCircle
 10
46.0997
 20
76.838668
 40
2.0
100
AcDbArc
 50
90.0
 51
180.0
  0
LINE
  5
141
100
AcDbEntity
  8
M0
100
AcDbLine
 10
44.0997
 20
76.838668
 11
44.0997
 21
60.838668
  0
ARC
  5
142
100
AcDbEntity
  8
M0
100
AcDbCircle
 10
46.0997
 20
60.838668
 40
2.0
100
AcDbArc
 50
180.0
 51
270.0
  0
LINE
  5
143
100
AcDbEntity
  8
M0
100
AcDbLine
 10
46.0997
 20
58.838668
 11
79.0997
 21
58.838668
  0
ARC
  5
144
100
AcDbEntity
  8
M0
100
AcDbCircle
 10
79.0997
 20
60.838668
 40
2.0
100
AcDbArc
 50
270.0
 51
360.0
  0
LINE
  5
145
100
AcDbEntity
  8
M0
100
AcDbLine
 10
50.5997
 20
71.838668
 11
74.5997
 21
71.838668
  0
LINE
  5
146
100
AcDbEntity
  8
M0
100
AcDbLine
 10
74.5997
 20
77.838668
 11
74.5997
 21
71.838668
  0
LINE
  5
147
100
AcDbEntity
  8
M0
100
AcDbLine
 10
50.680474
 20
77.838668
 11
74.5997
 21
77.838668
  0
LINE
  5
148
100
AcDbEntity
  8
M0
100
AcDbLine
 10
50.5997
 20
77.838668
 11
50.5997
 21
71.838668
  0
TEXT
  5
149
100
AcDbEntity
  8
M0
100
AcDbText
 10
56.089774
 20
116.999616
 40
5.0
  1
換気扇
 41
0.783333
  7
STANDARD
100
AcDbText
  0
TEXT
  5
14A
100
AcDbEntity
  8
M0
100
AcDbText
 10
56.042853
 20
72.767192
 40
5.0
  1
換気扇
 41
0.783333
  7
STANDARD
100
AcDbText
  0
ARC
  5
14B
100
AcDbEntity
  8
M0
100
AcDbCircle
 10
58.5997
 20
113.038668
 40
1.0
100
AcDbArc
 50
90.0
 51
180.0
  0
LINE
  5
14C
100
AcDbEntity
  8
M0
100
AcDbLine
 10
58.5997
 20
114.038668
 11
66.5997
 21
114.038668
  0
ARC
  5
14D
100
AcDbEntity
  8
M0
100
AcDbCircle
 10
58.5997
 20
113.038668
 40
1.0
100
AcDbArc
 50
180.0
 51
270.0
  0
LINE
  5
14E
100
AcDbEntity
  8
M0
100
AcDbLine
 10
58.5997
 20
112.038668
 11
66.5997
 21
112.038668
  0
ARC
  5
14F
100
AcDbEntity
  8
M0
100
AcDbCircle
 10
66.5997
 20
113.038668
 40
1.0
100
AcDbArc
 50
270.0
 51
360.0
  0
LINE
  5
150
100
AcDbEntity
  8
M0
100
AcDbLine
 10
50.5997
 20
116.038668
 11
74.5997
 21
116.038668
  0
ARC
  5
151
100
AcDbEntity
  8
M0
100
AcDbCircle
 10
66.5997
 20
113.038668
 40
1.0
100
AcDbArc
 50
0.0
 51
90.0
  0
LINE
  5
152
100
AcDbEntity
  8
M0
100
AcDbLine
 10
50.5997
 20
71.838668
 11
74.5997
 21
71.838668
  0
LINE
  5
153
100
AcDbEntity
  8
M0
 62
     7
100
AcDbLine
 10
285.780637
 20
9.134664
 11
285.780637
 21
13.134664
  0
LINE
  5
154
100
AcDbEntity
  8
M0
 62
     7
100
AcDbLine
 10
285.780637
 20
198.134664
 11
15.780637
 21
198.134664
  0
LINE
  5
155
100
AcDbEntity
  8
M0
 62
     7
100
AcDbLine
 10
15.780637
 20
198.134664
 11
15.780637
 21
13.134664
  0
LINE
  5
156
100
AcDbEntity
  8
M0
 62
     7
100
AcDbLine
 10
15.780637
 20
13.134664
 11
285.780637
 21
13.134664
  0
LINE
  5
157
100
AcDbEntity
  8
M0
 62
     7
100
AcDbLine
 10
285.780637
 20
9.134664
 11
260.780637
 21
9.134664
  0
LINE
  5
158
100
AcDbEntity
  8
M0
 62
     7
100
AcDbLine
 10
270.780637
 20
9.134664
 11
270.780637
 21
20.134664
  0
LINE
  5
159
100
AcDbEntity
  8
M0
 62
     7
100
AcDbLine
 10
260.780637
 20
9.134664
 11
260.780637
 21
20.134664
  0
LINE
  5
15A
100
AcDbEntity
  8
M0
 62
     7
100
AcDbLine
 10
285.780637
 20
20.134664
 11
220.780637
 21
20.134664
  0
LINE
  5
15B
100
AcDbEntity
  8
M0
 62
     7
100
AcDbLine
 10
285.780637
 20
35.134664
 11
220.780637
 21
35.134664
  0
LINE
  5
15C
100
AcDbEntity
  8
M0
 62
     7
100
AcDbLine
 10
285.780637
 20
40.134664
 11
195.780637
 21
40.134664
  0
LINE
  5
15D
100
AcDbEntity
  8
M0
 62
     7
100
AcDbLine
 10
285.780637
 20
45.134664
 11
195.780637
 21
45.134664
  0
LINE
  5
15E
100
AcDbEntity
  8
M0
 62
     7
100
AcDbLine
 10
195.780637
 20
45.134664
 11
195.780637
 21
13.134664
  0
LINE
  5
15F
100
AcDbEntity
  8
M0
 62
     7
100
AcDbLine
 10
220.780637
 20
13.134664
 11
220.780637
 21
45.134664
  0
LINE
  5
160
100
AcDbEntity
  8
M0
 62
     7
100
AcDbLine
 10
230.780637
 20
20.134664
 11
230.780637
 21
45.134664
  0
LINE
  5
161
100
AcDbEntity
  8
M0
 62
     7
100
AcDbLine
 10
260.780637
 20
40.134664
 11
260.780637
 21
45.134664
  0
LINE
  5
162
100
AcDbEntity
  8
M0
 62
     7
100
AcDbLine
 10
270.780637
 20
40.134664
 11
270.780637
 21
45.134664
  0
LINE
  5
163
100
AcDbEntity
  8
M0
 62
     7
100
AcDbLine
 10
285.780637
 20
13.134664
 11
285.780637
 21
198.134664
  0
TEXT
  5
164
100
AcDbEntity
  8
M0
 62
     7
100
AcDbText
 10
221.905637
 20
41.384664
 40
2.5
  1
納　先
 41
0.9
  7
STANDARD
100
AcDbText
  0
TEXT
  5
165
100
AcDbEntity
  8
M0
 62
     7
100
AcDbText
 10
221.905637
 20
36.384664
 40
2.5
  1
名　称
 41
0.9
  7
STANDARD
100
AcDbText
  0
TEXT
  5
166
100
AcDbEntity
  8
M0
 62
     7
100
AcDbText
 10
261.905637
 20
41.384664
 40
2.5
  1
数　量
 41
0.9
  7
STANDARD
100
AcDbText
  0
TEXT
  5
167
100
AcDbEntity
  8
M0
 62
     7
100
AcDbText
 10
260.98897
 20
15.384664
 40
2.5
  1
作成日付
 41
0.833333
  7
STANDARD
100
AcDbText
  0
TEXT
  5
168
100
AcDbEntity
  8
M0
 62
     7
100
AcDbText
 10
261.48897
 20
9.884664
 40
2.5
  1
改訂
 41
0.833333
  7
STANDARD
100
AcDbText
  0
TEXT
  5
169
100
AcDbEntity
  8
M0
 62
     7
100
AcDbText
 10
266.405637
 20
9.884664
 40
2.5
  1
Ｎｏ．
 41
0.5
  7
STANDARD
100
AcDbText
  0
TEXT
  5
16A
100
AcDbEntity
  8
M0
 62
     7
100
AcDbText
 10
277.36397
 20
9.884664
 40
2.5
  1
４
 41
0.733333
  7
STANDARD
100
AcDbText
  0
TEXT
  5
16B
100
AcDbEntity
  8
M0
 62
     7
100
AcDbText
 10
195.98897
 20
46.134664
 40
2.5
  1
●　本仕様は改良のため変更することがあります。
 41
0.833333
  7
STANDARD
100
AcDbText
  0
TEXT
  5
16C
100
AcDbEntity
  8
M0
 62
     7
100
AcDbText
 10
197.905637
 20
41.384664
 40
2.5
  1
　御確認印欄
 41
0.9
  7
STANDARD
100
AcDbText
  0
TEXT
  5
16D
100
AcDbEntity
  8
M0
 62
     7
100
AcDbText
 10
270.905637
 20
15.384664
 40
2.5
  1
２０００．０３．０１
 41
0.5
  7
STANDARD
100
AcDbText
  0
LINE
  5
16E
100
AcDbEntity
  8
M0
 62
     7
100
AcDbLine
 10
285.780637
 20
27.634664
 11
220.780637
 21
27.634664
  0
LINE
  5
16F
100
AcDbEntity
  8
M0
 62
     7
100
AcDbLine
 10
260.780637
 20
27.634664
 11
260.780637
 21
35.134664
  0
LINE
  5
170
100
AcDbEntity
  8
M0
 62
     7
100
AcDbLine
 10
270.780637
 20
27.634664
 11
270.780637
 21
35.134664
  0
TEXT
  5
171
100
AcDbEntity
  8
M0
 62
     7
100
AcDbText
 10
221.905637
 20
29.174898
 40
2.5
  1
形　式
 41
0.9
  7
STANDARD
100
AcDbText
  0
TEXT
  5
172
100
AcDbEntity
  8
M0
 62
     7
100
AcDbText
 10
262.197304
 20
29.174898
 40
2.5
  1
商品番号
 41
0.666667
  7
STANDARD
100
AcDbText
  0
TEXT
  5
173
100
AcDbEntity
  8
M0
 62
     7
100
AcDbText
 10
221.947304
 20
22.153244
 40
2.5
  1
図面番号
 41
0.666667
  7
STANDARD
100
AcDbText
  0
TEXT
  5
174
100
AcDbEntity
  8
M0
 62
     7
100
AcDbText
 10
232.943998
 20
22.153244
 40
3.0
  1
４ＴＴ９０２４７
 41
0.75
  7
STANDARD
100
AcDbText
  0
TEXT
  5
175
100
AcDbEntity
  8
M0
 62
     7
100
AcDbText
 10
232.27815
 20
36.384664
 40
2.5
  1
日立換気扇用速調スイッチ
 41
0.9
  7
STANDARD
100
AcDbText
  0
TEXT
  5
176
100
AcDbEntity
  8
M0
 62
     7
100
AcDbText
 10
232.597913
 20
29.174898
 40
3.0
  1
ＶＰ－ＷＢＳ
 41
0.833333
  7
STANDARD
100
AcDbText
  0
LINE
  5
177
100
AcDbEntity
  8
M0
 62
     7
100
AcDbLine
 10
285.780637
 20
193.134664
 11
195.780637
 21
193.134664
  0
LINE
  5
178
100
AcDbEntity
  8
M0
 62
     7
100
AcDbLine
 10
285.780637
 20
188.134664
 11
195.780637
 21
188.134664
  0
LINE
  5
179
100
AcDbEntity
  8
M0
 62
     7
100
AcDbLine
 10
285.780637
 20
183.134664
 11
195.780637
 21
183.134664
  0
LINE
  5
17A
100
AcDbEntity
  8
M0
 62
     7
100
AcDbLine
 10
285.780637
 20
178.134664
 11
195.780637
 21
178.134664
  0
TEXT
  5
17B
100
AcDbEntity
  8
M0
 62
     7
100
AcDbText
 10
213.447304
 20
193.634664
 40
4.0
  1
主要部品一覧表
 41
1.666667
  7
STANDARD
100
AcDbText
  0
TEXT
  5
17C
100
AcDbEntity
  8
M0
 62
     7
100
AcDbText
 10
196.305631
 20
189.384664
 40
2.5
  1
品番
 41
0.9
  7
STANDARD
100
AcDbText
  0
TEXT
  5
17D
100
AcDbEntity
  8
M0
 62
     7
100
AcDbText
 10
197.597298
 20
184.384664
 40
3.0
  1
１
 41
0.888889
  7
STANDARD
100
AcDbText
  0
TEXT
  5
17E
100
AcDbEntity
  8
M0
 62
     7
100
AcDbText
 10
256.197304
 20
189.384664
 40
2.5
  1
色仕様・その他
 41
1.066667
  7
STANDARD
100
AcDbText
  0
TEXT
  5
17F
100
AcDbEntity
  8
M0
 62
     7
100
AcDbText
 10
206.405637
 20
189.384664
 40
2.5
  1
部　品　名
 41
0.9
  7
STANDARD
100
AcDbText
  0
TEXT
  5
180
100
AcDbEntity
  8
M0
 62
     7
100
AcDbText
 10
229.655637
 20
189.384664
 40
2.5
  1
材　　　質
 41
0.9
  7
STANDARD
100
AcDbText
  0
TEXT
  5
181
100
AcDbEntity
  8
M0
 62
     7
100
AcDbText
 10
197.597298
 20
179.384664
 40
3.0
  1
２
 41
0.888889
  7
STANDARD
100
AcDbText
  0
TEXT
  5
182
100
AcDbEntity
  8
M0
 62
     7
100
AcDbText
 10
197.597298
 20
174.384664
 40
3.0
  1
３
 41
0.888889
  7
STANDARD
100
AcDbText
  0
LINE
  5
183
100
AcDbEntity
  8
M0
 62
     7
100
AcDbLine
 10
195.780637
 20
163.134664
 11
195.780637
 21
198.134664
  0
LINE
  5
184
100
AcDbEntity
  8
M0
 62
     7
100
AcDbLine
 10
201.780637
 20
193.134664
 11
201.780637
 21
163.134664
  0
LINE
  5
185
100
AcDbEntity
  8
M0
 62
     7
100
AcDbLine
 10
223.780637
 20
163.134664
 11
223.780637
 21
193.134664
  0
LINE
  5
186
100
AcDbEntity
  8
M0
 62
     7
100
AcDbLine
 10
248.780637
 20
163.134664
 11
248.780637
 21
193.134664
  0
LINE
  5
187
100
AcDbEntity
  8
M0
 62
     7
100
AcDbLine
 10
285.780637
 20
173.134664
 11
195.780637
 21
173.134664
  0
LINE
  5
188
100
AcDbEntity
  8
M0
 62
     7
100
AcDbLine
 10
285.780637
 20
168.134664
 11
195.780637
 21
168.134664
  0
TEXT
  5
189
100
AcDbEntity
  8
M0
 62
     7
100
AcDbText
 10
197.597298
 20
169.384664
 40
3.0
  1
４
 41
0.888889
  7
STANDARD
100
AcDbText
  0
TEXT
  5
18A
100
AcDbEntity
  8
M0
 62
     7
100
AcDbText
 10
273.48897
 20
29.174898
 40
2.5
  1
９９９４
 41
0.833333
  7
STANDARD
100
AcDbText
  0
LINE
  5
18B
100
AcDbEntity
  8
M0
 62
     7
100
AcDbLine
 10
195.780637
 20
163.134664
 11
285.780637
 21
163.134664
  0
TEXT
  5
18C
100
AcDbEntity
  8
M0
 62
     7
100
AcDbText
 10
202.905637
 20
184.384664
 40
3.0
  1
片切スイッチ
 41
0.75
  7
STANDARD
100
AcDbText
  0
TEXT
  5
18D
100
AcDbEntity
  8
M0
 62
     7
100
AcDbText
 10
202.88897
 20
179.384664
 40
3.0
  1
３路スイッチ
 41
0.694444
  7
STANDARD
100
AcDbText
  0
TEXT
  5
18E
100
AcDbEntity
  8
M0
 62
     7
100
AcDbText
 10
202.897304
 20
174.384664
 40
3.0
  1
スイッチプレート
 41
0.388889
  7
STANDARD
100
AcDbText
  0
TEXT
  5
18F
100
AcDbEntity
  8
M0
 62
     7
100
AcDbText
 10
203.01397
 20
169.384664
 40
3.0
  1
操作板
 41
0.777778
  7
STANDARD
100
AcDbText
  0
TEXT
  5
190
100
AcDbEntity
  8
M0
 62
     7
100
AcDbText
 10
249.880637
 20
184.384664
 40
3.0
  1
４Ａ　３００Ｖ
 41
0.666667
  7
STANDARD
100
AcDbText
  0
TEXT
  5
191
100
AcDbEntity
  8
M0
 62
     7
100
AcDbText
 10
249.880637
 20
179.384664
 40
3.0
  1
４Ａ　３００Ｖ
 41
0.666667
  7
STANDARD
100
AcDbText
  0
TEXT
  5
192
100
AcDbEntity
  8
M0
 62
     7
100
AcDbText
 10
197.597298
 20
164.384664
 40
3.0
  1
５
 41
0.888889
  7
STANDARD
100
AcDbText
  0
TEXT
  5
193
100
AcDbEntity
  8
M0
 62
     7
100
AcDbText
 10
224.91397
 20
169.384664
 40
3.0
  1
合成樹脂
 41
0.777778
  7
STANDARD
100
AcDbText
  0
TEXT
  5
194
100
AcDbEntity
  8
M0
 62
     7
100
AcDbText
 10
202.897304
 20
164.384664
 40
3.0
  1
パイロットランプ
 41
0.388889
  7
STANDARD
100
AcDbText
  0
TEXT
  5
195
100
AcDbEntity
  8
M0
 62
     7
100
AcDbText
 10
224.91397
 20
174.384664
 40
3.0
  1
合成樹脂
 41
0.777778
  7
STANDARD
100
AcDbText
  0
TEXT
  5
196
100
AcDbEntity
  8
M0
 62
     7
100
AcDbText
 10
249.880637
 20
174.384664
 40
3.0
  1
ホワイト
 41
0.666667
  7
STANDARD
100
AcDbText
  0
TEXT
  5
197
100
AcDbEntity
  8
M0
 62
     7
100
AcDbText
 10
249.880637
 20
169.384664
 40
3.0
  1
ホワイト
 41
0.666667
  7
STANDARD
100
AcDbText
  0
TEXT
  5
198
100
AcDbEntity
  8
M0
 62
     7
100
AcDbText
 10
249.880637
 20
164.384664
 40
3.0
  1
オンライト（緑）
 41
0.666667
  7
STANDARD
100
AcDbText
  0
TEXT
  5
199
100
AcDbEntity
  8
M0
 62
     7
100
AcDbText
 10
221.26344
 20
15.384664
 40
3.0
  1
日立アプライアンス株式会社
 41
0.833333
  7
STANDARD
100
AcDbText
  0
LINE
  5
19A
100
AcDbEntity
  8
M0
100
AcDbLine
 10
135.835564
 20
30.338668
 11
135.835564
 21
153.338668
  0
LINE
  5
19B
100
AcDbEntity
  8
M0
100
AcDbLine
 10
135.835564
 20
153.338668
 11
133.335564
 21
153.338668
  0
LINE
  5
19C
100
AcDbEntity
  8
M0
100
AcDbLine
 10
125.335564
 20
145.338668
 11
125.335564
 21
38.338668
  0
LINE
  5
19D
100
AcDbEntity
  8
M0
100
AcDbLine
 10
133.335564
 20
30.338668
 11
135.835564
 21
30.338668
  0
LINE
  5
19E
100
AcDbEntity
  8
M0
  6
DASHDOT
100
AcDbLine
 10
120.335564
 20
91.838668
 11
168.809774
 21
91.838668
  0
LINE
  5
19F
100
AcDbEntity
  8
M0
100
AcDbLine
 10
121.335564
 20
92.838668
 11
125.335564
 21
92.838668
  0
LINE
  5
1A0
100
AcDbEntity
  8
M0
100
AcDbLine
 10
125.335564
 20
137.038668
 11
121.335564
 21
137.038668
  0
LINE
  5
1A1
100
AcDbEntity
  8
M0
100
AcDbLine
 10
125.335564
 20
90.838668
 11
121.335564
 21
90.838668
  0
LINE
  5
1A2
100
AcDbEntity
  8
M0
100
AcDbLine
 10
125.335564
 20
46.638668
 11
121.335564
 21
46.638668
  0
LINE
  5
1A3
100
AcDbEntity
  8
M0
100
AcDbLine
 10
121.335564
 20
137.038668
 11
121.335564
 21
92.838668
  0
LINE
  5
1A4
100
AcDbEntity
  8
M0
100
AcDbLine
 10
121.335564
 20
90.838668
 11
121.335564
 21
46.638668
  0
LINE
  5
1A5
100
AcDbEntity
  8
M0
100
AcDbLine
 10
129.335564
 20
146.764701
 11
129.335564
 21
36.300242
  0
ARC
  5
1A6
100
AcDbEntity
  8
M0
100
AcDbCircle
 10
133.335564
 20
145.338668
 40
8.0
100
AcDbArc
 50
90.0
 51
180.0
  0
ARC
  5
1A7
100
AcDbEntity
  8
M0
100
AcDbCircle
 10
133.335564
 20
38.338668
 40
8.0
100
AcDbArc
 50
180.0
 51
270.0
  0
LINE
  5
1A8
100
AcDbEntity
  8
M0
100
AcDbLine
 10
143.835564
 20
126.838668
 11
143.835564
 21
56.838668
  0
LINE
  5
1A9
100
AcDbEntity
  8
M0
100
AcDbLine
 10
135.835564
 20
126.838668
 11
143.835564
 21
126.838668
  0
LINE
  5
1AA
100
AcDbEntity
  8
M0
100
AcDbLine
 10
135.835564
 20
56.838668
 11
143.835564
 21
56.838668
  0
LINE
  5
1AB
100
AcDbEntity
  8
M0
100
AcDbLine
 10
164.035564
 20
126.188668
 11
164.035564
 21
103.488668
  0
LINE
  5
1AC
100
AcDbEntity
  8
M0
  6
DASHDOT
100
AcDbLine
 10
113.051523
 20
114.838668
 11
173.368625
 21
114.838668
  0
LINE
  5
1AD
100
AcDbEntity
  8
M0
  6
DASHDOT
100
AcDbLine
 10
113.752885
 20
68.838668
 11
174.420667
 21
68.838668
  0
LINE
  5
1AE
100
AcDbEntity
  8
M0
100
AcDbLine
 10
143.835564
 20
126.188668
 11
164.035564
 21
126.188668
  0
LINE
  5
1AF
100
AcDbEntity
  8
M0
100
AcDbLine
 10
143.835564
 20
103.488668
 11
164.035564
 21
103.488668
  0
LINE
  5
1B0
100
AcDbEntity
  8
M0
100
AcDbLine
 10
143.835564
 20
80.188668
 11
164.035564
 21
80.188668
  0
LINE
  5
1B1
100
AcDbEntity
  8
M0
100
AcDbLine
 10
143.835564
 20
57.488668
 11
164.035564
 21
57.488668
  0
LINE
  5
1B2
100
AcDbEntity
  8
M0
100
AcDbLine
 10
164.035564
 20
80.188668
 11
164.035564
 21
57.488668
  0
LINE
  5
1B3
100
AcDbEntity
  8
M47
 62
     5
100
AcDbLine
 10
250.412924
 20
138.732896
 11
226.508923
 21
138.732896
  0
LINE
  5
1B4
100
AcDbEntity
  8
M47
 62
     5
100
AcDbLine
 10
226.508923
 20
123.852896
 11
250.412924
 21
123.852896
  0
LINE
  5
1B5
100
AcDbEntity
  8
M47
 62
     5
100
AcDbLine
 10
228.140923
 20
131.292896
 11
235.148924
 21
131.292896
  0
CIRCLE
  5
1B6
100
AcDbEntity
  8
M47
 62
     5
100
AcDbCircle
 10
242.315073
 20
134.172896
 40
0.432
  0
CIRCLE
  5
1B7
100
AcDbEntity
  8
M47
 62
     5
100
AcDbCircle
 10
242.315073
 20
128.412896
 40
0.432
  0
LINE
  5
1B8
100
AcDbEntity
  8
M47
 62
     5
100
AcDbLine
 10
242.315073
 20
136.140896
 11
247.980924
 21
136.140896
  0
LINE
  5
1B9
100
AcDbEntity
  8
M47
 62
     5
100
AcDbLine
 10
242.315073
 20
126.444896
 11
247.980924
 21
126.444896
  0
LINE
  5
1BA
100
AcDbEntity
  8
M47
 62
     5
100
AcDbLine
 10
242.315073
 20
136.140896
 11
242.315073
 21
134.604896
  0
LINE
  5
1BB
100
AcDbEntity
  8
M47
 62
     5
100
AcDbLine
 10
242.315073
 20
127.980896
 11
242.315073
 21
126.444896
  0
TEXT
  5
1BC
100
AcDbEntity
  8
M47
 62
     5
100
AcDbText
 10
248.24348
 20
127.602975
 40
3.24
  1
３
 41
0.888889
  7
STANDARD
100
AcDbText
  0
TEXT
  5
1BD
100
AcDbEntity
  8
M47
 62
     5
100
AcDbText
 10
248.24348
 20
131.869904
 40
3.24
  1
１
 41
0.888889
  7
STANDARD
100
AcDbText
  0
LINE
  5
1BE
100
AcDbEntity
  8
M47
 62
     5
100
AcDbLine
 10
212.449554
 20
130.934372
 11
209.857554
 21
131.628896
  0
LINE
  5
1BF
100
AcDbEntity
  8
M47
 62
     5
100
AcDbLine
 10
212.449554
 20
132.323421
 11
209.857554
 21
131.628896
  0
LINE
  5
1C0
100
AcDbEntity
  8
M47
 62
     5
100
AcDbLine
 10
212.449554
 20
125.750372
 11
209.857554
 21
126.444896
  0
LINE
  5
1C1
100
AcDbEntity
  8
M47
 62
     5
100
AcDbLine
 10
212.449554
 20
127.13942
 11
209.857554
 21
126.444896
  0
TEXT
  5
1C2
100
AcDbEntity
  8
M47
 62
     5
100
AcDbText
 10
194.588017
 20
129.510708
 40
3.24
  1
電　源
 41
0.888889
  7
STANDARD
100
AcDbText
  0
TEXT
  5
1C3
100
AcDbEntity
  8
M47
 62
     5
100
AcDbText
 10
189.587618
 20
125.600788
 40
3.24
  1
ＡＣ１００Ｖ
 41
0.655556
  7
STANDARD
100
AcDbText
  0
LINE
  5
1C4
100
AcDbEntity
  8
M47
  6
DASHED
 62
     5
100
AcDbLine
 10
209.857554
 20
126.444896
 11
227.340923
 21
126.444896
  0
LINE
  5
1C5
100
AcDbEntity
  8
M47
  6
DASHED
 62
     5
100
AcDbLine
 10
221.745931
 20
131.628896
 11
209.857554
 21
131.628896
  0
LINE
  5
1C6
100
AcDbEntity
  8
M47
 62
     5
100
AcDbLine
 10
250.412924
 20
159.000613
 11
226.508923
 21
159.000613
  0
LINE
  5
1C7
100
AcDbEntity
  8
M47
 62
     5
100
AcDbLine
 10
226.508923
 20
144.120613
 11
250.412924
 21
144.120613
  0
LINE
  5
1C8
100
AcDbEntity
  8
M47
 62
     5
100
AcDbLine
 10
252.332924
 20
146.040613
 11
252.332924
 21
157.080613
  0
LINE
  5
1C9
100
AcDbEntity
  8
M47
 62
     5
100
AcDbLine
 10
224.588923
 20
157.080613
 11
224.588923
 21
146.040613
  0
ARC
  5
1CA
100
AcDbEntity
  8
M47
 62
     5
100
AcDbCircle
 10
250.412924
 20
157.080613
 40
1.92
100
AcDbArc
 50
0.0
 51
90.0
  0
ARC
  5
1CB
100
AcDbEntity
  8
M47
 62
     5
100
AcDbCircle
 10
226.508923
 20
157.080613
 40
1.92
100
AcDbArc
 50
90.0
 51
180.0
  0
ARC
  5
1CC
100
AcDbEntity
  8
M47
 62
     5
100
AcDbCircle
 10
226.508923
 20
146.040613
 40
1.92
100
AcDbArc
 50
180.0
 51
270.0
  0
ARC
  5
1CD
100
AcDbEntity
  8
M47
 62
     5
100
AcDbCircle
 10
250.412924
 20
146.040613
 40
1.92
100
AcDbArc
 50
270.0
 51
360.0
  0
LINE
  5
1CE
100
AcDbEntity
  8
M47
 62
     5
100
AcDbLine
 10
228.140923
 20
155.608613
 11
228.140923
 21
147.512613
  0
LINE
  5
1CF
100
AcDbEntity
  8
M47
 62
     5
100
AcDbLine
 10
248.780924
 20
155.608613
 11
248.780924
 21
147.512613
  0
TEXT
  5
1D0
100
AcDbEntity
  8
M47
 62
     5
100
AcDbText
 10
225.242172
 20
148.993614
 40
3.24
  1
１
 41
0.888889
  7
STANDARD
100
AcDbText
  0
TEXT
  5
1D1
100
AcDbEntity
  8
M47
 62
     5
100
AcDbText
 10
249.006472
 20
148.993614
 40
3.24
  1
２
 41
0.888889
  7
STANDARD
100
AcDbText
  0
LINE
  5
1D2
100
AcDbEntity
  8
M47
  6
DASHED
 62
     5
100
AcDbLine
 10
249.580924
 20
146.712613
 11
257.132924
 21
146.712613
  0
LINE
  5
1D3
100
AcDbEntity
  8
M47
  6
DASHED
 62
     5
100
AcDbLine
 10
257.132924
 20
140.280613
 11
257.132924
 21
146.712613
  0
LINE
  5
1D4
100
AcDbEntity
  8
M47
  6
DASHED
 62
     5
100
AcDbLine
 10
257.132924
 20
140.280613
 11
221.745931
 21
140.280613
  0
LINE
  5
1D5
100
AcDbEntity
  8
M47
 62
     5
100
AcDbLine
 10
260.135909
 20
135.446372
 11
262.727909
 21
136.140896
  0
LINE
  5
1D6
100
AcDbEntity
  8
M47
 62
     5
100
AcDbLine
 10
260.135909
 20
136.835421
 11
262.727909
 21
136.140896
  0
LINE
  5
1D7
100
AcDbEntity
  8
M47
  6
DASHED
 62
     5
100
AcDbLine
 10
249.580924
 20
136.140896
 11
262.727909
 21
136.140896
  0
TEXT
  5
1D8
100
AcDbEntity
  8
M47
 62
     5
100
AcDbText
 10
264.552007
 20
134.434567
 40
3.24
  1
強（白）
 41
0.888889
  7
STANDARD
100
AcDbText
  0
LINE
  5
1D9
100
AcDbEntity
  8
M47
 62
     5
100
AcDbLine
 10
260.135909
 20
125.750372
 11
262.727909
 21
126.444896
  0
LINE
  5
1DA
100
AcDbEntity
  8
M47
 62
     5
100
AcDbLine
 10
260.135909
 20
127.13942
 11
262.727909
 21
126.444896
  0
LINE
  5
1DB
100
AcDbEntity
  8
M47
  6
DASHED
 62
     5
100
AcDbLine
 10
249.580924
 20
126.444896
 11
262.727909
 21
126.444896
  0
TEXT
  5
1DC
100
AcDbEntity
  8
M47
 62
     5
100
AcDbText
 10
264.552007
 20
124.45639
 40
3.24
  1
弱（黒）
 41
0.888889
  7
STANDARD
100
AcDbText
  0
LINE
  5
1DD
100
AcDbEntity
  8
M47
 62
     5
100
AcDbLine
 10
212.449554
 20
147.407137
 11
209.857554
 21
146.712613
  0
LINE
  5
1DE
100
AcDbEntity
  8
M47
 62
     5
100
AcDbLine
 10
212.449554
 20
146.018088
 11
209.857554
 21
146.712613
  0
TEXT
  5
1DF
100
AcDbEntity
  8
M47
 62
     5
100
AcDbText
 10
192.97581
 20
145.103579
 40
3.24
  1
共通（赤）
 41
0.888889
  7
STANDARD
100
AcDbText
  0
LINE
  5
1E0
100
AcDbEntity
  8
M47
  6
DASHED
 62
     5
100
AcDbLine
 10
227.340923
 20
146.712613
 11
209.857554
 21
146.712613
  0
LINE
  5
1E1
100
AcDbEntity
  8
M47
  6
DASHED
 62
     5
100
AcDbLine
 10
221.745931
 20
140.280613
 11
221.745931
 21
131.628896
  0
ARC
  5
1E2
100
AcDbEntity
  8
M47
 62
     5
100
AcDbCircle
 10
211.890379
 20
129.271866
 40
4.738135
100
AcDbArc
 50
229.447538
 51
492.403172
  0
LINE
  5
1E3
100
AcDbEntity
  8
M47
 62
     5
100
AcDbLine
 10
224.588923
 20
136.812896
 11
224.588923
 21
125.772896
  0
ARC
  5
1E4
100
AcDbEntity
  8
M47
 62
     5
100
AcDbCircle
 10
226.508923
 20
136.812896
 40
1.92
100
AcDbArc
 50
90.0
 51
180.0
  0
ARC
  5
1E5
100
AcDbEntity
  8
M47
 62
     5
100
AcDbCircle
 10
226.508923
 20
125.772896
 40
1.92
100
AcDbArc
 50
180.0
 51
270.0
  0
LINE
  5
1E6
100
AcDbEntity
  8
M47
 62
     5
100
AcDbLine
 10
252.332924
 20
125.772896
 11
252.332924
 21
136.812896
  0
ARC
  5
1E7
100
AcDbEntity
  8
M47
 62
     5
100
AcDbCircle
 10
250.412924
 20
136.812896
 40
1.92
100
AcDbArc
 50
0.0
 51
90.0
  0
ARC
  5
1E8
100
AcDbEntity
  8
M47
 62
     5
100
AcDbCircle
 10
250.412924
 20
125.772896
 40
1.92
100
AcDbArc
 50
270.0
 51
360.0
  0
LINE
  5
1E9
100
AcDbEntity
  8
M47
 62
     5
100
AcDbLine
 10
228.140923
 20
135.340896
 11
228.140923
 21
127.244896
  0
TEXT
  5
1EA
100
AcDbEntity
  8
M47
 62
     5
100
AcDbText
 10
225.242172
 20
129.502581
 40
3.24
  1
０
 41
0.888889
  7
STANDARD
100
AcDbText
  0
CIRCLE
  5
1EB
100
AcDbEntity
  8
M47
 62
     5
100
AcDbCircle
 10
235.580924
 20
131.292896
 40
0.432
  0
LINE
  5
1EC
100
AcDbEntity
  8
M47
 62
     5
100
AcDbLine
 10
235.987452
 20
131.439043
 11
243.667642
 21
134.200078
  0
CIRCLE
  5
1ED
100
AcDbEntity
  8
M47
 62
     5
100
AcDbCircle
 10
228.140923
 20
146.712613
 40
0.8
  0
CIRCLE
  5
1EE
100
AcDbEntity
  8
M47
 62
     5
100
AcDbCircle
 10
228.140923
 20
156.408613
 40
0.8
  0
CIRCLE
  5
1EF
100
AcDbEntity
  8
M47
 62
     5
100
AcDbCircle
 10
248.780924
 20
156.408613
 40
0.8
  0
CIRCLE
  5
1F0
100
AcDbEntity
  8
M47
 62
     5
100
AcDbCircle
 10
248.780924
 20
146.712613
 40
0.8
  0
CIRCLE
  5
1F1
100
AcDbEntity
  8
M47
 62
     5
100
AcDbCircle
 10
248.780924
 20
136.140896
 40
0.8
  0
CIRCLE
  5
1F2
100
AcDbEntity
  8
M47
 62
     5
100
AcDbCircle
 10
248.780924
 20
126.444896
 40
0.8
  0
CIRCLE
  5
1F3
100
AcDbEntity
  8
M47
 62
     5
100
AcDbCircle
 10
228.140923
 20
136.140896
 40
0.8
  0
CIRCLE
  5
1F4
100
AcDbEntity
  8
M47
 62
     5
100
AcDbCircle
 10
228.140923
 20
126.444896
 40
0.8
  0
TEXT
  5
1F5
100
AcDbEntity
  8
M47
 62
     5
100
AcDbText
 10
199.378373
 20
157.39633
 40
3.2
  1
■　結線図
 41
0.880208
  7
STANDARD
100
AcDbText
  0
LINE
  5
1F6
100
AcDbEntity
  8
M47
 62
     5
100
AcDbLine
 10
238.650433
 20
154.900315
 11
236.890433
 21
154.900315
  0
ARC
  5
1F7
100
AcDbEntity
  8
M47
 62
     5
100
AcDbCircle
 10
235.930433
 20
154.900315
 40
0.96
100
AcDbArc
 50
1.364242E-012
 51
237.465336
  0
ARC
  5
1F8
100
AcDbEntity
  8
M47
 62
     5
100
AcDbCircle
 10
234.897839
 20
154.900315
 40
0.96
100
AcDbArc
 50
-57.465336
 51
232.074253
  0
ARC
  5
1F9
100
AcDbEntity
  8
M47
 62
     5
100
AcDbCircle
 10
233.71773
 20
154.900315
 40
0.96
100
AcDbArc
 50
-52.074253
 51
238.593423
  0
ARC
  5
1FA
100
AcDbEntity
  8
M47
 62
     5
100
AcDbCircle
 10
232.717204
 20
154.900315
 40
0.96
100
AcDbArc
 50
-58.593423
 51
180.0
  0
LINE
  5
1FB
100
AcDbEntity
  8
M47
 62
     5
100
AcDbLine
 10
231.757204
 20
154.900315
 11
229.997204
 21
154.900315
  0
LINE
  5
1FC
100
AcDbEntity
  8
M47
 62
     5
100
AcDbLine
 10
229.997204
 20
154.900315
 11
229.997204
 21
156.820315
  0
LINE
  5
1FD
100
AcDbEntity
  8
M47
 62
     5
100
AcDbLine
 10
229.997204
 20
156.820315
 11
232.717204
 21
156.820315
  0
LINE
  5
1FE
100
AcDbEntity
  8
M47
 62
     5
100
AcDbLine
 10
232.717204
 20
156.340315
 11
236.077204
 21
156.340315
  0
LINE
  5
1FF
100
AcDbEntity
  8
M47
 62
     5
100
AcDbLine
 10
232.717204
 20
157.300315
 11
236.077204
 21
157.300315
  0
LINE
  5
200
100
AcDbEntity
  8
M47
 62
     5
100
AcDbLine
 10
236.077204
 20
156.340315
 11
236.077204
 21
157.300315
  0
LINE
  5
201
100
AcDbEntity
  8
M47
 62
     5
100
AcDbLine
 10
236.077204
 20
156.820315
 11
238.650433
 21
156.820315
  0
LINE
  5
202
100
AcDbEntity
  8
M47
 62
     5
100
AcDbLine
 10
238.650433
 20
154.900315
 11
238.650433
 21
156.820315
  0
LINE
  5
203
100
AcDbEntity
  8
M47
 62
     5
100
AcDbLine
 10
232.717204
 20
157.300315
 11
232.717204
 21
156.340315
  0
LINE
  5
204
100
AcDbEntity
  8
M47
 62
     5
100
AcDbLine
 10
236.251115
 20
152.446809
 11
231.992463
 21
152.446809
  0
LINE
  5
205
100
AcDbEntity
  8
M47
 62
     5
100
AcDbLine
 10
236.263942
 20
153.216445
 11
232.043772
 21
153.216445
  0
ARC
  5
206
100
AcDbEntity
  8
M47
 62
     5
100
AcDbCircle
 10
235.930433
 20
150.600613
 40
0.96
100
AcDbArc
 50
1.364242E-012
 51
237.465336
  0
ARC
  5
207
100
AcDbEntity
  8
M47
 62
     5
100
AcDbCircle
 10
234.897839
 20
150.600613
 40
0.96
100
AcDbArc
 50
-57.465336
 51
232.074253
  0
ARC
  5
208
100
AcDbEntity
  8
M47
 62
     5
100
AcDbCircle
 10
233.71773
 20
150.600613
 40
0.96
100
AcDbArc
 50
-52.074253
 51
238.593423
  0
ARC
  5
209
100
AcDbEntity
  8
M47
 62
     5
100
AcDbCircle
 10
232.717204
 20
150.600613
 40
0.96
100
AcDbArc
 50
-58.593423
 51
180.0
  0
LINE
  5
20A
100
AcDbEntity
  8
M47
 62
     5
100
AcDbLine
 10
240.908924
 20
150.600613
 11
236.890433
 21
150.600613
  0
CIRCLE
  5
20B
100
AcDbEntity
  8
M47
 62
     5
100
AcDbCircle
 10
241.340924
 20
150.600613
 40
0.432
  0
LINE
  5
20C
100
AcDbEntity
  8
M47
 62
     5
100
AcDbLine
 10
231.757204
 20
150.600613
 11
228.140923
 21
150.600613
  0
LINE
  5
20D
100
AcDbEntity
  8
M47
 62
     5
100
AcDbLine
 10
248.780924
 20
150.600613
 11
241.078876
 21
153.260758
  0
TEXT
  5
20E
100
AcDbEntity
  8
M47
 62
     5
100
AcDbText
 10
239.666446
 20
155.518617
 40
2.4
  1
ＬＥＤ
 41
0.797222
  7
STANDARD
100
AcDbText
  0
LINE
  5
20F
100
AcDbEntity
  8
M47
 62
     2
100
AcDbLine
 10
184.837483
 20
116.937813
 11
184.837483
 21
51.585812
  0
LINE
  5
210
100
AcDbEntity
  8
M47
 62
     2
100
AcDbLine
 10
184.837483
 20
51.585812
 11
281.061484
 21
51.585812
  0
LINE
  5
211
100
AcDbEntity
  8
M47
 62
     2
100
AcDbLine
 10
281.061484
 20
116.937813
 11
184.837483
 21
116.937813
  0
LINE
  5
212
100
AcDbEntity
  8
M47
 62
     2
100
AcDbLine
 10
281.061484
 20
51.585812
 11
281.061484
 21
116.937813
  0
TEXT
  5
213
100
AcDbEntity
  8
M47
 62
     2
100
AcDbText
 10
198.108154
 20
118.800214
 40
3.1428
  1
※破線部分の結線は客先にて施工ください。
 41
0.888889
  7
STANDARD
100
AcDbText
  0
TEXT
  5
214
100
AcDbEntity
  8
M47
 62
     2
100
AcDbText
 10
192.608254
 20
112.436096
 40
3.1428
  1
※空調換気扇ＭＮ－１５ＴＦ形、ＭＮ－１５Ｔ形、ＭＮ－１２０ＴＦＣ形
 41
0.672839
  7
STANDARD
100
AcDbText
  0
LINE
  5
215
100
AcDbEntity
  8
M47
 62
     2
100
AcDbLine
 10
246.362688
 20
78.323593
 11
223.175808
 21
78.323593
  0
LINE
  5
216
100
AcDbEntity
  8
M47
 62
     2
100
AcDbLine
 10
223.175808
 20
63.889992
 11
246.362688
 21
63.889992
  0
LINE
  5
217
100
AcDbEntity
  8
M47
 62
     2
100
AcDbLine
 10
224.758848
 20
71.106792
 11
229.156608
 21
71.106792
  0
LINE
  5
218
100
AcDbEntity
  8
M47
 62
     2
100
AcDbLine
 10
236.107773
 20
75.809353
 11
244.003648
 21
75.809353
  0
LINE
  5
219
100
AcDbEntity
  8
M47
 62
     2
100
AcDbLine
 10
236.107773
 20
66.404232
 11
244.003648
 21
66.404232
  0
LINE
  5
21A
100
AcDbEntity
  8
M47
 62
     2
100
AcDbLine
 10
236.107773
 20
75.809353
 11
236.107773
 21
74.319433
  0
LINE
  5
21B
100
AcDbEntity
  8
M47
 62
     2
100
AcDbLine
 10
236.107773
 20
67.894152
 11
236.107773
 21
66.404232
  0
LINE
  5
21C
100
AcDbEntity
  8
M47
 62
     2
100
AcDbLine
 10
207.986219
 20
70.759024
 11
205.471979
 21
71.432712
  0
LINE
  5
21D
100
AcDbEntity
  8
M47
 62
     2
100
AcDbLine
 10
207.986219
 20
72.106401
 11
205.471979
 21
71.432712
  0
LINE
  5
21E
100
AcDbEntity
  8
M47
 62
     2
100
AcDbLine
 10
207.986219
 20
65.730544
 11
205.471979
 21
66.404232
  0
LINE
  5
21F
100
AcDbEntity
  8
M47
 62
     2
100
AcDbLine
 10
207.986219
 20
67.077921
 11
205.471979
 21
66.404232
  0
LINE
  5
220
100
AcDbEntity
  8
M47
  6
DASHED
 62
     2
100
AcDbLine
 10
205.471979
 20
66.404232
 11
215.451705
 21
66.404232
  0
LINE
  5
221
100
AcDbEntity
  8
M47
  6
DASHED
 62
     2
100
AcDbLine
 10
215.451705
 20
71.432712
 11
205.471979
 21
71.432712
  0
LINE
  5
222
100
AcDbEntity
  8
M47
 62
     2
100
AcDbLine
 10
246.362688
 20
99.463278
 11
223.175808
 21
99.463278
  0
LINE
  5
223
100
AcDbEntity
  8
M47
 62
     2
100
AcDbLine
 10
223.175808
 20
85.029677
 11
246.362688
 21
85.029677
  0
LINE
  5
224
100
AcDbEntity
  8
M47
 62
     2
100
AcDbLine
 10
248.225088
 20
86.892077
 11
248.225088
 21
97.600878
  0
LINE
  5
225
100
AcDbEntity
  8
M47
 62
     2
100
AcDbLine
 10
221.313408
 20
97.600878
 11
221.313408
 21
86.892077
  0
LINE
  5
226
100
AcDbEntity
  8
M47
 62
     2
100
AcDbLine
 10
224.758848
 20
96.173038
 11
224.758848
 21
88.319917
  0
LINE
  5
227
100
AcDbEntity
  8
M47
 62
     2
100
AcDbLine
 10
244.779648
 20
96.173038
 11
244.779648
 21
88.319917
  0
LINE
  5
228
100
AcDbEntity
  8
M47
  6
DASHED
 62
     2
100
AcDbLine
 10
245.555648
 20
87.543917
 11
252.881088
 21
87.543917
  0
LINE
  5
229
100
AcDbEntity
  8
M47
  6
DASHED
 62
     2
100
AcDbLine
 10
252.881088
 20
82.080877
 11
252.881088
 21
87.543917
  0
LINE
  5
22A
100
AcDbEntity
  8
M47
  6
DASHED
 62
     2
100
AcDbLine
 10
252.881088
 20
82.080877
 11
215.451705
 21
82.080877
  0
LINE
  5
22B
100
AcDbEntity
  8
M47
  6
DASHED
 62
     2
100
AcDbLine
 10
245.555648
 20
66.404232
 11
265.726259
 21
66.404232
  0
LINE
  5
22C
100
AcDbEntity
  8
M47
  6
DASHED
 62
     2
100
AcDbLine
 10
215.451705
 20
82.080877
 11
215.451705
 21
71.432712
  0
LINE
  5
22D
100
AcDbEntity
  8
M47
 62
     2
100
AcDbLine
 10
221.313408
 20
76.461193
 11
221.313408
 21
65.752392
  0
LINE
  5
22E
100
AcDbEntity
  8
M47
 62
     2
100
AcDbLine
 10
248.225088
 20
65.752392
 11
248.225088
 21
76.461193
  0
LINE
  5
22F
100
AcDbEntity
  8
M47
 62
     2
100
AcDbLine
 10
224.758848
 20
75.033353
 11
224.758848
 21
67.180232
  0
LINE
  5
230
100
AcDbEntity
  8
M47
 62
     2
100
AcDbLine
 10
229.96998
 20
71.248555
 11
237.419765
 21
73.926759
  0
LINE
  5
231
100
AcDbEntity
  8
M47
  6
DASHED
 62
     2
100
AcDbLine
 10
218.555705
 20
75.809353
 11
223.982848
 21
75.809353
  0
LINE
  5
232
100
AcDbEntity
  8
M47
  6
DASHED
 62
     2
100
AcDbLine
 10
218.555705
 20
87.543917
 11
218.555705
 21
83.244877
  0
LINE
  5
233
100
AcDbEntity
  8
M47
 62
     2
100
AcDbLine
 10
234.953072
 20
95.485989
 11
233.245872
 21
95.485989
  0
CIRCLE
  5
234
100
AcDbEntity
  8
M47
 62
     2
100
AcDbCircle
 10
236.107773
 20
73.900393
 40
0.41904
  0
CIRCLE
  5
235
100
AcDbEntity
  8
M47
 62
     2
100
AcDbCircle
 10
236.107773
 20
68.313192
 40
0.41904
  0
CIRCLE
  5
236
100
AcDbEntity
  8
M47
 62
     2
100
AcDbCircle
 10
229.575648
 20
71.106792
 40
0.41904
  0
CIRCLE
  5
237
100
AcDbEntity
  8
M47
 62
     2
100
AcDbCircle
 10
224.758848
 20
87.543917
 40
0.776
  0
CIRCLE
  5
238
100
AcDbEntity
  8
M47
 62
     2
100
AcDbCircle
 10
224.758848
 20
96.949038
 40
0.776
  0
CIRCLE
  5
239
100
AcDbEntity
  8
M47
 62
     2
100
AcDbCircle
 10
244.779648
 20
96.949038
 40
0.776
  0
CIRCLE
  5
23A
100
AcDbEntity
  8
M47
 62
     2
100
AcDbCircle
 10
244.779648
 20
87.543917
 40
0.776
  0
CIRCLE
  5
23B
100
AcDbEntity
  8
M47
 62
     2
100
AcDbCircle
 10
244.779648
 20
75.809353
 40
0.776
  0
CIRCLE
  5
23C
100
AcDbEntity
  8
M47
 62
     2
100
AcDbCircle
 10
244.779648
 20
66.404232
 40
0.776
  0
CIRCLE
  5
23D
100
AcDbEntity
  8
M47
 62
     2
100
AcDbCircle
 10
224.758848
 20
75.809353
 40
0.776
  0
ARC
  5
23E
100
AcDbEntity
  8
M47
 62
     2
100
AcDbCircle
 10
246.362688
 20
97.600878
 40
1.8624
100
AcDbArc
 50
0.0
 51
90.0
  0
ARC
  5
23F
100
AcDbEntity
  8
M47
 62
     2
100
AcDbCircle
 10
223.175808
 20
97.600878
 40
1.8624
100
AcDbArc
 50
90.0
 51
180.0
  0
ARC
  5
240
100
AcDbEntity
  8
M47
 62
     2
100
AcDbCircle
 10
223.175808
 20
86.892077
 40
1.8624
100
AcDbArc
 50
180.0
 51
270.0
  0
ARC
  5
241
100
AcDbEntity
  8
M47
 62
     2
100
AcDbCircle
 10
246.362688
 20
86.892077
 40
1.8624
100
AcDbArc
 50
270.0
 51
360.0
  0
ARC
  5
242
100
AcDbEntity
  8
M47
 62
     2
100
AcDbCircle
 10
207.443819
 20
69.146393
 40
4.595991
100
AcDbArc
 50
229.447538
 51
492.403172
  0
ARC
  5
243
100
AcDbEntity
  8
M47
 62
     2
100
AcDbCircle
 10
223.175808
 20
76.461193
 40
1.8624
100
AcDbArc
 50
90.0
 51
180.0
  0
ARC
  5
244
100
AcDbEntity
  8
M47
 62
     2
100
AcDbCircle
 10
223.175808
 20
65.752392
 40
1.8624
100
AcDbArc
 50
180.0
 51
270.0
  0
ARC
  5
245
100
AcDbEntity
  8
M47
 62
     2
100
AcDbCircle
 10
246.362688
 20
76.461193
 40
1.8624
100
AcDbArc
 50
0.0
 51
90.0
  0
ARC
  5
246
100
AcDbEntity
  8
M47
 62
     2
100
AcDbCircle
 10
246.362688
 20
65.752392
 40
1.8624
100
AcDbArc
 50
270.0
 51
360.0
  0
TEXT
  5
247
100
AcDbEntity
  8
M47
 62
     2
100
AcDbText
 10
193.704389
 20
69.37807
 40
3.1428
  1
電　源
 41
0.833333
  7
STANDARD
100
AcDbText
  0
TEXT
  5
248
100
AcDbEntity
  8
M47
 62
     2
100
AcDbText
 10
189.096889
 20
65.585447
 40
3.1428
  1
ＡＣ１００Ｖ
 41
0.617284
  7
STANDARD
100
AcDbText
  0
TEXT
  5
249
100
AcDbEntity
  8
M47
 62
     2
100
AcDbText
 10
221.947059
 20
89.756488
 40
3.1428
  1
１
 41
0.888889
  7
STANDARD
100
AcDbText
  0
TEXT
  5
24A
100
AcDbEntity
  8
M47
 62
     2
100
AcDbText
 10
244.99843
 20
89.756488
 40
3.1428
  1
２
 41
0.888889
  7
STANDARD
100
AcDbText
  0
TEXT
  5
24B
100
AcDbEntity
  8
M47
 62
     2
100
AcDbText
 10
221.947059
 20
69.370187
 40
3.1428
  1
０
 41
0.888889
  7
STANDARD
100
AcDbText
  0
LINE
  5
24C
100
AcDbEntity
  8
M47
 62
     2
100
AcDbLine
 10
228.266639
 20
95.485989
 11
226.559439
 21
95.485989
  0
LINE
  5
24D
100
AcDbEntity
  8
M47
 62
     2
100
AcDbLine
 10
226.559439
 20
95.485989
 11
226.559439
 21
97.348389
  0
LINE
  5
24E
100
AcDbEntity
  8
M47
 62
     2
100
AcDbLine
 10
226.559439
 20
97.348389
 11
229.19784
 21
97.348389
  0
LINE
  5
24F
100
AcDbEntity
  8
M47
 62
     2
100
AcDbLine
 10
229.19784
 20
96.882789
 11
232.45704
 21
96.882789
  0
LINE
  5
250
100
AcDbEntity
  8
M47
 62
     2
100
AcDbLine
 10
229.19784
 20
97.813989
 11
232.45704
 21
97.813989
  0
LINE
  5
251
100
AcDbEntity
  8
M47
 62
     2
100
AcDbLine
 10
232.45704
 20
96.882789
 11
232.45704
 21
97.813989
  0
LINE
  5
252
100
AcDbEntity
  8
M47
 62
     2
100
AcDbLine
 10
232.45704
 20
97.348389
 11
234.953072
 21
97.348389
  0
LINE
  5
253
100
AcDbEntity
  8
M47
 62
     2
100
AcDbLine
 10
234.953072
 20
95.485989
 11
234.953072
 21
97.348389
  0
LINE
  5
254
100
AcDbEntity
  8
M47
 62
     2
100
AcDbLine
 10
229.19784
 20
97.813989
 11
229.19784
 21
96.882789
  0
LINE
  5
255
100
AcDbEntity
  8
M47
 62
     2
100
AcDbLine
 10
232.625733
 20
93.106088
 11
228.494841
 21
93.106088
  0
LINE
  5
256
100
AcDbEntity
  8
M47
 62
     2
100
AcDbLine
 10
232.638176
 20
93.852635
 11
228.544611
 21
93.852635
  0
LINE
  5
257
100
AcDbEntity
  8
M47
 62
     2
100
AcDbLine
 10
237.143808
 20
91.315278
 11
233.245872
 21
91.315278
  0
LINE
  5
258
100
AcDbEntity
  8
M47
 62
     2
100
AcDbLine
 10
228.266639
 20
91.315278
 11
224.758848
 21
91.315278
  0
LINE
  5
259
100
AcDbEntity
  8
M47
 62
     2
100
AcDbLine
 10
244.779648
 20
91.315278
 11
237.308662
 21
93.895618
  0
LINE
  5
25A
100
AcDbEntity
  8
M47
  6
DASHED
 62
     2
100
AcDbLine
 10
223.982848
 20
96.949038
 11
215.238121
 21
96.949038
  0
LINE
  5
25B
100
AcDbEntity
  8
M47
  6
DASHED
 62
     2
100
AcDbLine
 10
218.555705
 20
87.543917
 11
223.982848
 21
87.543917
  0
LINE
  5
25C
100
AcDbEntity
  8
M47
  6
DASHED
 62
     2
100
AcDbLine
 10
215.451705
 20
61.811324
 11
263.004114
 21
61.811324
  0
LINE
  5
25D
100
AcDbEntity
  8
M47
  6
DASHED
 62
     2
100
AcDbLine
 10
215.451705
 20
66.404232
 11
215.451705
 21
61.811324
  0
LINE
  5
25E
100
AcDbEntity
  8
M47
  6
DASHED
 62
     2
100
AcDbLine
 10
218.555705
 20
80.916877
 11
218.555705
 21
75.809353
  0
CIRCLE
  5
25F
100
AcDbEntity
  8
M47
 62
     2
100
AcDbCircle
 10
224.758848
 20
66.404232
 40
0.776
  0
CIRCLE
  5
260
100
AcDbEntity
  8
M47
 62
     2
100
AcDbCircle
 10
237.562848
 20
91.315278
 40
0.41904
  0
ARC
  5
261
100
AcDbEntity
  8
M47
 62
     2
100
AcDbCircle
 10
232.314672
 20
95.485989
 40
0.9312
100
AcDbArc
 50
2.103206E-012
 51
237.465336
  0
ARC
  5
262
100
AcDbEntity
  8
M47
 62
     2
100
AcDbCircle
 10
231.313055
 20
95.485989
 40
0.9312
100
AcDbArc
 50
-57.465336
 51
232.074253
  0
ARC
  5
263
100
AcDbEntity
  8
M47
 62
     2
100
AcDbCircle
 10
230.16835
 20
95.485989
 40
0.9312
100
AcDbArc
 50
-52.074253
 51
238.593423
  0
ARC
  5
264
100
AcDbEntity
  8
M47
 62
     2
100
AcDbCircle
 10
229.19784
 20
95.485989
 40
0.9312
100
AcDbArc
 50
-58.593423
 51
180.0
  0
ARC
  5
265
100
AcDbEntity
  8
M47
 62
     2
100
AcDbCircle
 10
232.314672
 20
91.315278
 40
0.9312
100
AcDbArc
 50
1.392664E-012
 51
237.465336
  0
ARC
  5
266
100
AcDbEntity
  8
M47
 62
     2
100
AcDbCircle
 10
231.313055
 20
91.315278
 40
0.9312
100
AcDbArc
 50
-57.465336
 51
232.074253
  0
ARC
  5
267
100
AcDbEntity
  8
M47
 62
     2
100
AcDbCircle
 10
230.16835
 20
91.315278
 40
0.9312
100
AcDbArc
 50
-52.074253
 51
238.593423
  0
ARC
  5
268
100
AcDbEntity
  8
M47
 62
     2
100
AcDbCircle
 10
229.19784
 20
91.315278
 40
0.9312
100
AcDbArc
 50
-58.593423
 51
180.0
  0
TEXT
  5
269
100
AcDbEntity
  8
M47
 62
     2
100
AcDbText
 10
235.938605
 20
96.085742
 40
2.328
  1
ＬＥＤ
 41
0.797222
  7
STANDARD
100
AcDbText
  0
LINE
  5
26A
100
AcDbEntity
  8
M47
  6
DASHED
 62
     2
100
AcDbLine
 10
215.238121
 20
101.360769
 11
265.726259
 21
101.360769
  0
LINE
  5
26B
100
AcDbEntity
  8
M47
  6
DASHED
 62
     2
100
AcDbLine
 10
215.238121
 20
101.360769
 11
215.238121
 21
96.949038
  0
LINE
  5
26C
100
AcDbEntity
  8
M47
  6
DASHED
 62
     2
100
AcDbLine
 10
265.726259
 20
88.920662
 11
270.266562
 21
88.920662
  0
LINE
  5
26D
100
AcDbEntity
  8
M47
  6
DASHED
 62
     2
100
AcDbLine
 10
265.726259
 20
101.360769
 11
265.726259
 21
88.920662
  0
LINE
  5
26E
100
AcDbEntity
  8
M47
  6
DASHED
 62
     2
100
AcDbLine
 10
265.726259
 20
76.504662
 11
270.266562
 21
76.504662
  0
LINE
  5
26F
100
AcDbEntity
  8
M47
  6
DASHED
 62
     2
100
AcDbLine
 10
265.726259
 20
76.504662
 11
265.726259
 21
66.404232
  0
LINE
  5
270
100
AcDbEntity
  8
M47
  6
DASHED
 62
     2
100
AcDbLine
 10
263.004114
 20
82.712662
 11
270.266562
 21
82.712662
  0
LINE
  5
271
100
AcDbEntity
  8
M47
  6
DASHED
 62
     2
100
AcDbLine
 10
263.004114
 20
82.712662
 11
263.004114
 21
67.568232
  0
LINE
  5
272
100
AcDbEntity
  8
M47
  6
DASHED
 62
     2
100
AcDbLine
 10
263.004114
 20
65.240232
 11
263.004114
 21
61.811324
  0
CIRCLE
  5
273
100
AcDbEntity
  8
M47
 62
     2
100
AcDbCircle
 10
263.004114
 20
61.811324
 40
0.776
  0
ARC
  5
274
100
AcDbEntity
  8
M47
  6
DASHED
 62
     2
100
AcDbCircle
 10
218.555705
 20
82.080877
 40
1.164
100
AcDbArc
 50
270.0
 51
450.0
  0
ARC
  5
275
100
AcDbEntity
  8
M47
  6
DASHED
 62
     2
100
AcDbCircle
 10
263.004114
 20
66.404232
 40
1.164
100
AcDbArc
 50
270.0
 51
450.0
  0
LINE
  5
276
100
AcDbEntity
  8
M47
 62
     2
100
AcDbLine
 10
276.474563
 20
73.541494
 11
276.474563
 21
92.165495
  0
LINE
  5
277
100
AcDbEntity
  8
M47
 62
     2
100
AcDbLine
 10
276.474563
 20
92.165495
 11
270.266562
 21
92.165495
  0
LINE
  5
278
100
AcDbEntity
  8
M47
 62
     2
100
AcDbLine
 10
270.266562
 20
92.165495
 11
270.266562
 21
73.541494
  0
LINE
  5
279
100
AcDbEntity
  8
M47
 62
     2
100
AcDbLine
 10
270.266562
 20
85.957495
 11
276.474563
 21
85.957495
  0
LINE
  5
27A
100
AcDbEntity
  8
M47
 62
     2
100
AcDbLine
 10
276.474563
 20
79.749495
 11
270.266562
 21
79.749495
  0
LINE
  5
27B
100
AcDbEntity
  8
M47
 62
     2
100
AcDbLine
 10
270.266562
 20
73.541494
 11
276.474563
 21
73.541494
  0
TEXT
  5
27C
100
AcDbEntity
  8
M47
 62
     2
100
AcDbText
 10
271.02651
 20
94.248599
 40
3.1428
  1
本体
 41
0.617284
  7
STANDARD
100
AcDbText
  0
TEXT
  5
27D
100
AcDbEntity
  8
M47
 62
     2
100
AcDbText
 10
271.287905
 20
81.168078
 40
3.1428
  1
共通
 41
0.617284
  7
STANDARD
100
AcDbText
  0
TEXT
  5
27E
100
AcDbEntity
  8
M47
 62
     2
100
AcDbText
 10
272.415902
 20
74.960081
 40
3.1428
  1
弱
 41
0.617284
  7
STANDARD
100
AcDbText
  0
TEXT
  5
27F
100
AcDbEntity
  8
M47
 62
     2
100
AcDbText
 10
272.415902
 20
87.37608
 40
3.1428
  1
強
 41
0.617284
  7
STANDARD
100
AcDbText
  0
LINE
  5
280
100
AcDbEntity
  8
M47
 62
     2
100
AcDbLine
 10
263.318595
 20
61.101903
 11
263.713534
 21
61.496842
  0
LINE
  5
281
100
AcDbEntity
  8
M47
 62
     2
100
AcDbLine
 10
263.31663
 20
61.101035
 11
263.714402
 21
61.498808
  0
LINE
  5
282
100
AcDbEntity
  8
M47
 62
     2
100
AcDbLine
 10
263.314676
 20
61.100179
 11
263.715259
 21
61.500762
  0
LINE
  5
283
100
AcDbEntity
  8
M47
 62
     2
100
AcDbLine
 10
263.312733
 20
61.099334
 11
263.716104
 21
61.502704
  0
LINE
  5
284
100
AcDbEntity
  8
M47
 62
     2
100
AcDbLine
 10
263.310802
 20
61.098499
 11
263.716938
 21
61.504636
  0
LINE
  5
285
100
AcDbEntity
  8
M47
 62
     2
100
AcDbLine
 10
263.308881
 20
61.097676
 11
263.717762
 21
61.506557
  0
LINE
  5
286
100
AcDbEntity
  8
M47
 62
     2
100
AcDbLine
 10
263.306971
 20
61.096863
 11
263.718574
 21
61.508467
  0
LINE
  5
287
100
AcDbEntity
  8
M47
 62
     2
100
AcDbLine
 10
263.305071
 20
61.096061
 11
263.719377
 21
61.510367
  0
LINE
  5
288
100
AcDbEntity
  8
M47
 62
     2
100
AcDbLine
 10
263.303182
 20
61.095269
 11
263.720169
 21
61.512256
  0
LINE
  5
289
100
AcDbEntity
  8
M47
 62
     2
100
AcDbLine
 10
263.301302
 20
61.094487
 11
263.720951
 21
61.514136
  0
LINE
  5
28A
100
AcDbEntity
  8
M47
 62
     2
100
AcDbLine
 10
263.299432
 20
61.093714
 11
263.721723
 21
61.516005
  0
LINE
  5
28B
100
AcDbEntity
  8
M47
 62
     2
100
AcDbLine
 10
263.297572
 20
61.092952
 11
263.722486
 21
61.517865
  0
LINE
  5
28C
100
AcDbEntity
  8
M47
 62
     2
100
AcDbLine
 10
263.295722
 20
61.092199
 11
263.723239
 21
61.519716
  0
LINE
  5
28D
100
AcDbEntity
  8
M47
 62
     2
100
AcDbLine
 10
263.29388
 20
61.091455
 11
263.723983
 21
61.521557
  0
LINE
  5
28E
100
AcDbEntity
  8
M47
 62
     2
100
AcDbLine
 10
263.292048
 20
61.09072
 11
263.724718
 21
61.52339
  0
LINE
  5
28F
100
AcDbEntity
  8
M47
 62
     2
100
AcDbLine
 10
263.290225
 20
61.089994
 11
263.725444
 21
61.525213
  0
LINE
  5
290
100
AcDbEntity
  8
M47
 62
     2
100
AcDbLine
 10
263.28841
 20
61.089277
 11
263.726161
 21
61.527028
  0
LINE
  5
291
100
AcDbEntity
  8
M47
 62
     2
100
AcDbLine
 10
263.286604
 20
61.088568
 11
263.726869
 21
61.528833
  0
LINE
  5
292
100
AcDbEntity
  8
M47
 62
     2
100
AcDbLine
 10
263.284807
 20
61.087869
 11
263.727569
 21
61.530631
  0
LINE
  5
293
100
AcDbEntity
  8
M47
 62
     2
100
AcDbLine
 10
263.283018
 20
61.087177
 11
263.728261
 21
61.53242
  0
LINE
  5
294
100
AcDbEntity
  8
M47
 62
     2
100
AcDbLine
 10
263.281237
 20
61.086494
 11
263.728944
 21
61.534201
  0
LINE
  5
295
100
AcDbEntity
  8
M47
 62
     2
100
AcDbLine
 10
263.279464
 20
61.085818
 11
263.729619
 21
61.535973
  0
LINE
  5
296
100
AcDbEntity
  8
M47
 62
     2
100
AcDbLine
 10
263.2777
 20
61.085151
 11
263.730287
 21
61.537738
  0
LINE
  5
297
100
AcDbEntity
  8
M47
 62
     2
100
AcDbLine
 10
263.275943
 20
61.084491
 11
263.730946
 21
61.539495
  0
LINE
  5
298
100
AcDbEntity
  8
M47
 62
     2
100
AcDbLine
 10
263.274194
 20
61.08384
 11
263.731598
 21
61.541244
  0
LINE
  5
299
100
AcDbEntity
  8
M47
 62
     2
100
AcDbLine
 10
263.272452
 20
61.083195
 11
263.732242
 21
61.542986
  0
LINE
  5
29A
100
AcDbEntity
  8
M47
 62
     2
100
AcDbLine
 10
263.270718
 20
61.082559
 11
263.732879
 21
61.54472
  0
LINE
  5
29B
100
AcDbEntity
  8
M47
 62
     2
100
AcDbLine
 10
263.268991
 20
61.081929
 11
263.733508
 21
61.546447
  0
LINE
  5
29C
100
AcDbEntity
  8
M47
 62
     2
100
AcDbLine
 10
263.267271
 20
61.081307
 11
263.734131
 21
61.548166
  0
LINE
  5
29D
100
AcDbEntity
  8
M47
 62
     2
100
AcDbLine
 10
263.265559
 20
61.080692
 11
263.734746
 21
61.549879
  0
LINE
  5
29E
100
AcDbEntity
  8
M47
 62
     2
100
AcDbLine
 10
263.263853
 20
61.080084
 11
263.735354
 21
61.551584
  0
LINE
  5
29F
100
AcDbEntity
  8
M47
 62
     2
100
AcDbLine
 10
263.262155
 20
61.079483
 11
263.735955
 21
61.553283
  0
LINE
  5
2A0
100
AcDbEntity
  8
M47
 62
     2
100
AcDbLine
 10
263.260463
 20
61.078889
 11
263.736549
 21
61.554975
  0
LINE
  5
2A1
100
AcDbEntity
  8
M47
 62
     2
100
AcDbLine
 10
263.258778
 20
61.078301
 11
263.737137
 21
61.55666
  0
LINE
  5
2A2
100
AcDbEntity
  8
M47
 62
     2
100
AcDbLine
 10
263.2571
 20
61.07772
 11
263.737718
 21
61.558338
  0
LINE
  5
2A3
100
AcDbEntity
  8
M47
 62
     2
100
AcDbLine
 10
263.255428
 20
61.077146
 11
263.738292
 21
61.56001
  0
LINE
  5
2A4
100
AcDbEntity
  8
M47
 62
     2
100
AcDbLine
 10
263.253762
 20
61.076578
 11
263.73886
 21
61.561675
  0
LINE
  5
2A5
100
AcDbEntity
  8
M47
 62
     2
100
AcDbLine
 10
263.252103
 20
61.076016
 11
263.739422
 21
61.563334
  0
LINE
  5
2A6
100
AcDbEntity
  8
M47
 62
     2
100
AcDbLine
 10
263.250451
 20
61.075461
 11
263.739977
 21
61.564987
  0
LINE
  5
2A7
100
AcDbEntity
  8
M47
 62
     2
100
AcDbLine
 10
263.248804
 20
61.074912
 11
263.740526
 21
61.566634
  0
LINE
  5
2A8
100
AcDbEntity
  8
M47
 62
     2
100
AcDbLine
 10
263.247164
 20
61.074369
 11
263.741069
 21
61.568274
  0
LINE
  5
2A9
100
AcDbEntity
  8
M47
 62
     2
100
AcDbLine
 10
263.245529
 20
61.073832
 11
263.741606
 21
61.569909
  0
LINE
  5
2AA
100
AcDbEntity
  8
M47
 62
     2
100
AcDbLine
 10
263.243901
 20
61.0733
 11
263.742137
 21
61.571537
  0
LINE
  5
2AB
100
AcDbEntity
  8
M47
 62
     2
100
AcDbLine
 10
263.242278
 20
61.072775
 11
263.742663
 21
61.57316
  0
LINE
  5
2AC
100
AcDbEntity
  8
M47
 62
     2
100
AcDbLine
 10
263.240661
 20
61.072256
 11
263.743182
 21
61.574777
  0
LINE
  5
2AD
100
AcDbEntity
  8
M47
 62
     2
100
AcDbLine
 10
263.23905
 20
61.071742
 11
263.743696
 21
61.576388
  0
LINE
  5
2AE
100
AcDbEntity
  8
M47
 62
     2
100
AcDbLine
 10
263.237444
 20
61.071234
 11
263.744204
 21
61.577993
  0
LINE
  5
2AF
100
AcDbEntity
  8
M47
 62
     2
100
AcDbLine
 10
263.235844
 20
61.070731
 11
263.744706
 21
61.579593
  0
LINE
  5
2B0
100
AcDbEntity
  8
M47
 62
     2
100
AcDbLine
 10
263.23425
 20
61.070234
 11
263.745203
 21
61.581188
  0
LINE
  5
2B1
100
AcDbEntity
  8
M47
 62
     2
100
AcDbLine
 10
263.232661
 20
61.069743
 11
263.745695
 21
61.582777
  0
LINE
  5
2B2
100
AcDbEntity
  8
M47
 62
     2
100
AcDbLine
 10
263.231077
 20
61.069257
 11
263.746181
 21
61.58436
  0
LINE
  5
2B3
100
AcDbEntity
  8
M47
 62
     2
100
AcDbLine
 10
263.229499
 20
61.068776
 11
263.746662
 21
61.585939
  0
LINE
  5
2B4
100
AcDbEntity
  8
M47
 62
     2
100
AcDbLine
 10
263.227926
 20
61.0683
 11
263.747138
 21
61.587512
  0
LINE
  5
2B5
100
AcDbEntity
  8
M47
 62
     2
100
AcDbLine
 10
263.226358
 20
61.06783
 11
263.747608
 21
61.58908
  0
LINE
  5
2B6
100
AcDbEntity
  8
M47
 62
     2
100
AcDbLine
 10
263.224795
 20
61.067364
 11
263.748074
 21
61.590643
  0
LINE
  5
2B7
100
AcDbEntity
  8
M47
 62
     2
100
AcDbLine
 10
263.223237
 20
61.066904
 11
263.748534
 21
61.5922
  0
LINE
  5
2B8
100
AcDbEntity
  8
M47
 62
     2
100
AcDbLine
 10
263.221685
 20
61.066449
 11
263.748989
 21
61.593753
  0
LINE
  5
2B9
100
AcDbEntity
  8
M47
 62
     2
100
AcDbLine
 10
263.220137
 20
61.065998
 11
263.749439
 21
61.595301
  0
LINE
  5
2BA
100
AcDbEntity
  8
M47
 62
     2
100
AcDbLine
 10
263.218594
 20
61.065553
 11
263.749885
 21
61.596844
  0
LINE
  5
2BB
100
AcDbEntity
  8
M47
 62
     2
100
AcDbLine
 10
263.217056
 20
61.065112
 11
263.750326
 21
61.598382
  0
LINE
  5
2BC
100
AcDbEntity
  8
M47
 62
     2
100
AcDbLine
 10
263.215523
 20
61.064676
 11
263.750761
 21
61.599915
  0
LINE
  5
2BD
100
AcDbEntity
  8
M47
 62
     2
100
AcDbLine
 10
263.213994
 20
61.064245
 11
263.751193
 21
61.601444
  0
LINE
  5
2BE
100
AcDbEntity
  8
M47
 62
     2
100
AcDbLine
 10
263.21247
 20
61.063819
 11
263.751619
 21
61.602967
  0
LINE
  5
2BF
100
AcDbEntity
  8
M47
 62
     2
100
AcDbLine
 10
263.210951
 20
61.063397
 11
263.752041
 21
61.604487
  0
LINE
  5
2C0
100
AcDbEntity
  8
M47
 62
     2
100
AcDbLine
 10
263.209436
 20
61.06298
 11
263.752458
 21
61.606001
  0
LINE
  5
2C1
100
AcDbEntity
  8
M47
 62
     2
100
AcDbLine
 10
263.207926
 20
61.062567
 11
263.752871
 21
61.607511
  0
LINE
  5
2C2
100
AcDbEntity
  8
M47
 62
     2
100
AcDbLine
 10
263.206421
 20
61.062159
 11
263.753279
 21
61.609017
  0
LINE
  5
2C3
100
AcDbEntity
  8
M47
 62
     2
100
AcDbLine
 10
263.204919
 20
61.061755
 11
263.753683
 21
61.610518
  0
LINE
  5
2C4
100
AcDbEntity
  8
M47
 62
     2
100
AcDbLine
 10
263.203423
 20
61.061356
 11
263.754082
 21
61.612015
  0
LINE
  5
2C5
100
AcDbEntity
  8
M47
 62
     2
100
AcDbLine
 10
263.20193
 20
61.060961
 11
263.754477
 21
61.613508
  0
LINE
  5
2C6
100
AcDbEntity
  8
M47
 62
     2
100
AcDbLine
 10
263.200442
 20
61.06057
 11
263.754868
 21
61.614996
  0
LINE
  5
2C7
100
AcDbEntity
  8
M47
 62
     2
100
AcDbLine
 10
263.198958
 20
61.060183
 11
263.755254
 21
61.61648
  0
LINE
  5
2C8
100
AcDbEntity
  8
M47
 62
     2
100
AcDbLine
 10
263.197478
 20
61.059801
 11
263.755637
 21
61.617959
  0
LINE
  5
2C9
100
AcDbEntity
  8
M47
 62
     2
100
AcDbLine
 10
263.196003
 20
61.059423
 11
263.756015
 21
61.619435
  0
LINE
  5
2CA
100
AcDbEntity
  8
M47
 62
     2
100
AcDbLine
 10
263.194531
 20
61.059049
 11
263.756389
 21
61.620906
  0
LINE
  5
2CB
100
AcDbEntity
  8
M47
 62
     2
100
AcDbLine
 10
263.193064
 20
61.058679
 11
263.756759
 21
61.622374
  0
LINE
  5
2CC
100
AcDbEntity
  8
M47
 62
     2
100
AcDbLine
 10
263.191601
 20
61.058313
 11
263.757124
 21
61.623837
  0
LINE
  5
2CD
100
AcDbEntity
  8
M47
 62
     2
100
AcDbLine
 10
263.190142
 20
61.057951
 11
263.757486
 21
61.625296
  0
LINE
  5
2CE
100
AcDbEntity
  8
M47
 62
     2
100
AcDbLine
 10
263.188686
 20
61.057594
 11
263.757844
 21
61.626751
  0
LINE
  5
2CF
100
AcDbEntity
  8
M47
 62
     2
100
AcDbLine
 10
263.187235
 20
61.05724
 11
263.758198
 21
61.628203
  0
LINE
  5
2D0
100
AcDbEntity
  8
M47
 62
     2
100
AcDbLine
 10
263.185787
 20
61.05689
 11
263.758548
 21
61.62965
  0
LINE
  5
2D1
100
AcDbEntity
  8
M47
 62
     2
100
AcDbLine
 10
263.184344
 20
61.056544
 11
263.758894
 21
61.631094
  0
LINE
  5
2D2
100
AcDbEntity
  8
M47
 62
     2
100
AcDbLine
 10
263.182904
 20
61.056201
 11
263.759237
 21
61.632534
  0
LINE
  5
2D3
100
AcDbEntity
  8
M47
 62
     2
100
AcDbLine
 10
263.181468
 20
61.055863
 11
263.759575
 21
61.63397
  0
LINE
  5
2D4
100
AcDbEntity
  8
M47
 62
     2
100
AcDbLine
 10
263.180036
 20
61.055528
 11
263.75991
 21
61.635402
  0
LINE
  5
2D5
100
AcDbEntity
  8
M47
 62
     2
100
AcDbLine
 10
263.178607
 20
61.055197
 11
263.760241
 21
61.63683
  0
LINE
  5
2D6
100
AcDbEntity
  8
M47
 62
     2
100
AcDbLine
 10
263.177183
 20
61.054869
 11
263.760568
 21
61.638255
  0
LINE
  5
2D7
100
AcDbEntity
  8
M47
 62
     2
100
AcDbLine
 10
263.175761
 20
61.054546
 11
263.760892
 21
61.639676
  0
LINE
  5
2D8
100
AcDbEntity
  8
M47
 62
     2
100
AcDbLine
 10
263.174344
 20
61.054225
 11
263.761212
 21
61.641094
  0
LINE
  5
2D9
100
AcDbEntity
  8
M47
 62
     2
100
AcDbLine
 10
263.17293
 20
61.053909
 11
263.761529
 21
61.642508
  0
LINE
  5
2DA
100
AcDbEntity
  8
M47
 62
     2
100
AcDbLine
 10
263.171519
 20
61.053596
 11
263.761842
 21
61.643918
  0
LINE
  5
2DB
100
AcDbEntity
  8
M47
 62
     2
100
AcDbLine
 10
263.170113
 20
61.053286
 11
263.762151
 21
61.645325
  0
LINE
  5
2DC
100
AcDbEntity
  8
M47
 62
     2
100
AcDbLine
 10
263.168709
 20
61.052981
 11
263.762457
 21
61.646729
  0
LINE
  5
2DD
100
AcDbEntity
  8
M47
 62
     2
100
AcDbLine
 10
263.167309
 20
61.052678
 11
263.76276
 21
61.648128
  0
LINE
  5
2DE
100
AcDbEntity
  8
M47
 62
     2
100
AcDbLine
 10
263.165913
 20
61.052379
 11
263.763059
 21
61.649525
  0
LINE
  5
2DF
100
AcDbEntity
  8
M47
 62
     2
100
AcDbLine
 10
263.16452
 20
61.052083
 11
263.763354
 21
61.650918
  0
LINE
  5
2E0
100
AcDbEntity
  8
M47
 62
     2
100
AcDbLine
 10
263.16313
 20
61.051791
 11
263.763647
 21
61.652308
  0
LINE
  5
2E1
100
AcDbEntity
  8
M47
 62
     2
100
AcDbLine
 10
263.161744
 20
61.051502
 11
263.763936
 21
61.653694
  0
LINE
  5
2E2
100
AcDbEntity
  8
M47
 62
     2
100
AcDbLine
 10
263.160361
 20
61.051216
 11
263.764221
 21
61.655077
  0
LINE
  5
2E3
100
AcDbEntity
  8
M47
 62
     2
100
AcDbLine
 10
263.158981
 20
61.050934
 11
263.764504
 21
61.656457
  0
LINE
  5
2E4
100
AcDbEntity
  8
M47
 62
     2
100
AcDbLine
 10
263.157604
 20
61.050655
 11
263.764783
 21
61.657833
  0
LINE
  5
2E5
100
AcDbEntity
  8
M47
 62
     2
100
AcDbLine
 10
263.156231
 20
61.050379
 11
263.765058
 21
61.659207
  0
LINE
  5
2E6
100
AcDbEntity
  8
M47
 62
     2
100
AcDbLine
 10
263.154861
 20
61.050107
 11
263.765331
 21
61.660577
  0
LINE
  5
2E7
100
AcDbEntity
  8
M47
 62
     2
100
AcDbLine
 10
263.153494
 20
61.049837
 11
263.7656
 21
61.661943
  0
LINE
  5
2E8
100
AcDbEntity
  8
M47
 62
     2
100
AcDbLine
 10
263.152131
 20
61.049571
 11
263.765867
 21
61.663307
  0
LINE
  5
2E9
100
AcDbEntity
  8
M47
 62
     2
100
AcDbLine
 10
263.15077
 20
61.049308
 11
263.76613
 21
61.664668
  0
LINE
  5
2EA
100
AcDbEntity
  8
M47
 62
     2
100
AcDbLine
 10
263.149413
 20
61.049048
 11
263.76639
 21
61.666025
  0
LINE
  5
2EB
100
AcDbEntity
  8
M47
 62
     2
100
AcDbLine
 10
263.148058
 20
61.048791
 11
263.766647
 21
61.667379
  0
LINE
  5
2EC
100
AcDbEntity
  8
M47
 62
     2
100
AcDbLine
 10
263.146707
 20
61.048537
 11
263.7669
 21
61.668731
  0
LINE
  5
2ED
100
AcDbEntity
  8
M47
 62
     2
100
AcDbLine
 10
263.145359
 20
61.048286
 11
263.767151
 21
61.670079
  0
LINE
  5
2EE
100
AcDbEntity
  8
M47
 62
     2
100
AcDbLine
 10
263.144014
 20
61.048039
 11
263.767399
 21
61.671424
  0
LINE
  5
2EF
100
AcDbEntity
  8
M47
 62
     2
100
AcDbLine
 10
263.142671
 20
61.047794
 11
263.767644
 21
61.672766
  0
LINE
  5
2F0
100
AcDbEntity
  8
M47
 62
     2
100
AcDbLine
 10
263.141332
 20
61.047552
 11
263.767886
 21
61.674106
  0
LINE
  5
2F1
100
AcDbEntity
  8
M47
 62
     2
100
AcDbLine
 10
263.139996
 20
61.047313
 11
263.768125
 21
61.675442
  0
LINE
  5
2F2
100
AcDbEntity
  8
M47
 62
     2
100
AcDbLine
 10
263.138662
 20
61.047077
 11
263.768361
 21
61.676775
  0
LINE
  5
2F3
100
AcDbEntity
  8
M47
 62
     2
100
AcDbLine
 10
263.137332
 20
61.046844
 11
263.768594
 21
61.678106
  0
LINE
  5
2F4
100
AcDbEntity
  8
M47
 62
     2
100
AcDbLine
 10
263.136004
 20
61.046614
 11
263.768824
 21
61.679433
  0
LINE
  5
2F5
100
AcDbEntity
  8
M47
 62
     2
100
AcDbLine
 10
263.13468
 20
61.046387
 11
263.769051
 21
61.680758
  0
LINE
  5
2F6
100
AcDbEntity
  8
M47
 62
     2
100
AcDbLine
 10
263.133358
 20
61.046162
 11
263.769275
 21
61.68208
  0
LINE
  5
2F7
100
AcDbEntity
  8
M47
 62
     2
100
AcDbLine
 10
263.132039
 20
61.045941
 11
263.769497
 21
61.683399
  0
LINE
  5
2F8
100
AcDbEntity
  8
M47
 62
     2
100
AcDbLine
 10
263.130722
 20
61.045722
 11
263.769716
 21
61.684715
  0
LINE
  5
2F9
100
AcDbEntity
  8
M47
 62
     2
100
AcDbLine
 10
263.129409
 20
61.045506
 11
263.769932
 21
61.686029
  0
LINE
  5
2FA
100
AcDbEntity
  8
M47
 62
     2
100
AcDbLine
 10
263.128098
 20
61.045292
 11
263.770145
 21
61.687339
  0
LINE
  5
2FB
100
AcDbEntity
  8
M47
 62
     2
100
AcDbLine
 10
263.12679
 20
61.045082
 11
263.770356
 21
61.688647
  0
LINE
  5
2FC
100
AcDbEntity
  8
M47
 62
     2
100
AcDbLine
 10
263.125485
 20
61.044874
 11
263.770564
 21
61.689953
  0
LINE
  5
2FD
100
AcDbEntity
  8
M47
 62
     2
100
AcDbLine
 10
263.124182
 20
61.044669
 11
263.770769
 21
61.691255
  0
LINE
  5
2FE
100
AcDbEntity
  8
M47
 62
     2
100
AcDbLine
 10
263.122883
 20
61.044466
 11
263.770971
 21
61.692555
  0
LINE
  5
2FF
100
AcDbEntity
  8
M47
 62
     2
100
AcDbLine
 10
263.121585
 20
61.044267
 11
263.771171
 21
61.693852
  0
LINE
  5
300
100
AcDbEntity
  8
M47
 62
     2
100
AcDbLine
 10
263.120291
 20
61.04407
 11
263.771368
 21
61.695147
  0
LINE
  5
301
100
AcDbEntity
  8
M47
 62
     2
100
AcDbLine
 10
263.118999
 20
61.043875
 11
263.771563
 21
61.696439
  0
LINE
  5
302
100
AcDbEntity
  8
M47
 62
     2
100
AcDbLine
 10
263.117709
 20
61.043683
 11
263.771755
 21
61.697728
  0
LINE
  5
303
100
AcDbEntity
  8
M47
 62
     2
100
AcDbLine
 10
263.116423
 20
61.043494
 11
263.771944
 21
61.699015
  0
LINE
  5
304
100
AcDbEntity
  8
M47
 62
     2
100
AcDbLine
 10
263.115139
 20
61.043307
 11
263.772131
 21
61.700299
  0
LINE
  5
305
100
AcDbEntity
  8
M47
 62
     2
100
AcDbLine
 10
263.113857
 20
61.043123
 11
263.772315
 21
61.701581
  0
LINE
  5
306
100
AcDbEntity
  8
M47
 62
     2
100
AcDbLine
 10
263.112578
 20
61.042941
 11
263.772496
 21
61.70286
  0
LINE
  5
307
100
AcDbEntity
  8
M47
 62
     2
100
AcDbLine
 10
263.111301
 20
61.042762
 11
263.772676
 21
61.704136
  0
LINE
  5
308
100
AcDbEntity
  8
M47
 62
     2
100
AcDbLine
 10
263.110027
 20
61.042586
 11
263.772852
 21
61.70541
  0
LINE
  5
309
100
AcDbEntity
  8
M47
 62
     2
100
AcDbLine
 10
263.108756
 20
61.042411
 11
263.773026
 21
61.706682
  0
LINE
  5
30A
100
AcDbEntity
  8
M47
 62
     2
100
AcDbLine
 10
263.107487
 20
61.04224
 11
263.773198
 21
61.707951
  0
LINE
  5
30B
100
AcDbEntity
  8
M47
 62
     2
100
AcDbLine
 10
263.10622
 20
61.042071
 11
263.773367
 21
61.709218
  0
LINE
  5
30C
100
AcDbEntity
  8
M47
 62
     2
100
AcDbLine
 10
263.104956
 20
61.041904
 11
263.773534
 21
61.710482
  0
LINE
  5
30D
100
AcDbEntity
  8
M47
 62
     2
100
AcDbLine
 10
263.103694
 20
61.04174
 11
263.773698
 21
61.711744
  0
LINE
  5
30E
100
AcDbEntity
  8
M47
 62
     2
100
AcDbLine
 10
263.102435
 20
61.041578
 11
263.77386
 21
61.713003
  0
LINE
  5
30F
100
AcDbEntity
  8
M47
 62
     2
100
AcDbLine
 10
263.101178
 20
61.041418
 11
263.77402
 21
61.71426
  0
LINE
  5
310
100
AcDbEntity
  8
M47
 62
     2
100
AcDbLine
 10
263.099923
 20
61.041261
 11
263.774177
 21
61.715514
  0
LINE
  5
311
100
AcDbEntity
  8
M47
 62
     2
100
AcDbLine
 10
263.098671
 20
61.041106
 11
263.774331
 21
61.716767
  0
LINE
  5
312
100
AcDbEntity
  8
M47
 62
     2
100
AcDbLine
 10
263.097421
 20
61.040954
 11
263.774484
 21
61.718016
  0
LINE
  5
313
100
AcDbEntity
  8
M47
 62
     2
100
AcDbLine
 10
263.096174
 20
61.040804
 11
263.774634
 21
61.719264
  0
LINE
  5
314
100
AcDbEntity
  8
M47
 62
     2
100
AcDbLine
 10
263.094929
 20
61.040656
 11
263.774782
 21
61.720509
  0
LINE
  5
315
100
AcDbEntity
  8
M47
 62
     2
100
AcDbLine
 10
263.093686
 20
61.040511
 11
263.774927
 21
61.721752
  0
LINE
  5
316
100
AcDbEntity
  8
M47
 62
     2
100
AcDbLine
 10
263.092445
 20
61.040367
 11
263.77507
 21
61.722993
  0
LINE
  5
317
100
AcDbEntity
  8
M47
 62
     2
100
AcDbLine
 10
263.091207
 20
61.040227
 11
263.775211
 21
61.724231
  0
LINE
  5
318
100
AcDbEntity
  8
M47
 62
     2
100
AcDbLine
 10
263.089971
 20
61.040088
 11
263.77535
 21
61.725467
  0
LINE
  5
319
100
AcDbEntity
  8
M47
 62
     2
100
AcDbLine
 10
263.088737
 20
61.039952
 11
263.775486
 21
61.726701
  0
LINE
  5
31A
100
AcDbEntity
  8
M47
 62
     2
100
AcDbLine
 10
263.087506
 20
61.039817
 11
263.77562
 21
61.727932
  0
LINE
  5
31B
100
AcDbEntity
  8
M47
 62
     2
100
AcDbLine
 10
263.086276
 20
61.039686
 11
263.775752
 21
61.729162
  0
LINE
  5
31C
100
AcDbEntity
  8
M47
 62
     2
100
AcDbLine
 10
263.085049
 20
61.039556
 11
263.775882
 21
61.730389
  0
LINE
  5
31D
100
AcDbEntity
  8
M47
 62
     2
100
AcDbLine
 10
263.083824
 20
61.039428
 11
263.776009
 21
61.731614
  0
LINE
  5
31E
100
AcDbEntity
  8
M47
 62
     2
100
AcDbLine
 10
263.082601
 20
61.039303
 11
263.776135
 21
61.732836
  0
LINE
  5
31F
100
AcDbEntity
  8
M47
 62
     2
100
AcDbLine
 10
263.081381
 20
61.03918
 11
263.776258
 21
61.734057
  0
LINE
  5
320
100
AcDbEntity
  8
M47
 62
     2
100
AcDbLine
 10
263.080163
 20
61.039059
 11
263.776379
 21
61.735275
  0
LINE
  5
321
100
AcDbEntity
  8
M47
 62
     2
100
AcDbLine
 10
263.078946
 20
61.03894
 11
263.776497
 21
61.736491
  0
LINE
  5
322
100
AcDbEntity
  8
M47
 62
     2
100
AcDbLine
 10
263.077732
 20
61.038824
 11
263.776614
 21
61.737705
  0
LINE
  5
323
100
AcDbEntity
  8
M47
 62
     2
100
AcDbLine
 10
263.07652
 20
61.038709
 11
263.776729
 21
61.738917
  0
LINE
  5
324
100
AcDbEntity
  8
M47
 62
     2
100
AcDbLine
 10
263.07531
 20
61.038597
 11
263.776841
 21
61.740127
  0
LINE
  5
325
100
AcDbEntity
  8
M47
 62
     2
100
AcDbLine
 10
263.074103
 20
61.038486
 11
263.776951
 21
61.741335
  0
LINE
  5
326
100
AcDbEntity
  8
M47
 62
     2
100
AcDbLine
 10
263.072897
 20
61.038378
 11
263.77706
 21
61.742541
  0
LINE
  5
327
100
AcDbEntity
  8
M47
 62
     2
100
AcDbLine
 10
263.071693
 20
61.038272
 11
263.777166
 21
61.743744
  0
LINE
  5
328
100
AcDbEntity
  8
M47
 62
     2
100
AcDbLine
 10
263.070492
 20
61.038168
 11
263.77727
 21
61.744946
  0
LINE
  5
329
100
AcDbEntity
  8
M47
 62
     2
100
AcDbLine
 10
263.069292
 20
61.038066
 11
263.777372
 21
61.746145
  0
LINE
  5
32A
100
AcDbEntity
  8
M47
 62
     2
100
AcDbLine
 10
263.068095
 20
61.037966
 11
263.777472
 21
61.747343
  0
LINE
  5
32B
100
AcDbEntity
  8
M47
 62
     2
100
AcDbLine
 10
263.0669
 20
61.037868
 11
263.77757
 21
61.748538
  0
LINE
  5
32C
100
AcDbEntity
  8
M47
 62
     2
100
AcDbLine
 10
263.065706
 20
61.037772
 11
263.777666
 21
61.749732
  0
LINE
  5
32D
100
AcDbEntity
  8
M47
 62
     2
100
AcDbLine
 10
263.064515
 20
61.037678
 11
263.77776
 21
61.750923
  0
LINE
  5
32E
100
AcDbEntity
  8
M47
 62
     2
100
AcDbLine
 10
263.063325
 20
61.037586
 11
263.777852
 21
61.752112
  0
LINE
  5
32F
100
AcDbEntity
  8
M47
 62
     2
100
AcDbLine
 10
263.062138
 20
61.037496
 11
263.777942
 21
61.7533
  0
LINE
  5
330
100
AcDbEntity
  8
M47
 62
     2
100
AcDbLine
 10
263.060953
 20
61.037408
 11
263.77803
 21
61.754485
  0
LINE
  5
331
100
AcDbEntity
  8
M47
 62
     2
100
AcDbLine
 10
263.059769
 20
61.037322
 11
263.778116
 21
61.755668
  0
LINE
  5
332
100
AcDbEntity
  8
M47
 62
     2
100
AcDbLine
 10
263.058588
 20
61.037238
 11
263.7782
 21
61.75685
  0
LINE
  5
333
100
AcDbEntity
  8
M47
 62
     2
100
AcDbLine
 10
263.057408
 20
61.037156
 11
263.778282
 21
61.758029
  0
LINE
  5
334
100
AcDbEntity
  8
M47
 62
     2
100
AcDbLine
 10
263.056231
 20
61.037076
 11
263.778362
 21
61.759207
  0
LINE
  5
335
100
AcDbEntity
  8
M47
 62
     2
100
AcDbLine
 10
263.055055
 20
61.036998
 11
263.77844
 21
61.760383
  0
LINE
  5
336
100
AcDbEntity
  8
M47
 62
     2
100
AcDbLine
 10
263.053881
 20
61.036921
 11
263.778516
 21
61.761557
  0
LINE
  5
337
100
AcDbEntity
  8
M47
 62
     2
100
AcDbLine
 10
263.052709
 20
61.036847
 11
263.778591
 21
61.762728
  0
LINE
  5
338
100
AcDbEntity
  8
M47
 62
     2
100
AcDbLine
 10
263.051539
 20
61.036774
 11
263.778663
 21
61.763898
  0
LINE
  5
339
100
AcDbEntity
  8
M47
 62
     2
100
AcDbLine
 10
263.050371
 20
61.036704
 11
263.778734
 21
61.765066
  0
LINE
  5
33A
100
AcDbEntity
  8
M47
 62
     2
100
AcDbLine
 10
263.049205
 20
61.036635
 11
263.778803
 21
61.766233
  0
LINE
  5
33B
100
AcDbEntity
  8
M47
 62
     2
100
AcDbLine
 10
263.048041
 20
61.036568
 11
263.77887
 21
61.767397
  0
LINE
  5
33C
100
AcDbEntity
  8
M47
 62
     2
100
AcDbLine
 10
263.046878
 20
61.036503
 11
263.778935
 21
61.768559
  0
LINE
  5
33D
100
AcDbEntity
  8
M47
 62
     2
100
AcDbLine
 10
263.045718
 20
61.03644
 11
263.778998
 21
61.76972
  0
LINE
  5
33E
100
AcDbEntity
  8
M47
 62
     2
100
AcDbLine
 10
263.044559
 20
61.036378
 11
263.779059
 21
61.770879
  0
LINE
  5
33F
100
AcDbEntity
  8
M47
 62
     2
100
AcDbLine
 10
263.043402
 20
61.036319
 11
263.779119
 21
61.772036
  0
LINE
  5
340
100
AcDbEntity
  8
M47
 62
     2
100
AcDbLine
 10
263.042247
 20
61.036261
 11
263.779177
 21
61.773191
  0
LINE
  5
341
100
AcDbEntity
  8
M47
 62
     2
100
AcDbLine
 10
263.041094
 20
61.036205
 11
263.779232
 21
61.774344
  0
LINE
  5
342
100
AcDbEntity
  8
M47
 62
     2
100
AcDbLine
 10
263.039942
 20
61.036151
 11
263.779286
 21
61.775496
  0
LINE
  5
343
100
AcDbEntity
  8
M47
 62
     2
100
AcDbLine
 10
263.038792
 20
61.036099
 11
263.779339
 21
61.776645
  0
LINE
  5
344
100
AcDbEntity
  8
M47
 62
     2
100
AcDbLine
 10
263.037644
 20
61.036048
 11
263.779389
 21
61.777793
  0
LINE
  5
345
100
AcDbEntity
  8
M47
 62
     2
100
AcDbLine
 10
263.036498
 20
61.036
 11
263.779438
 21
61.778939
  0
LINE
  5
346
100
AcDbEntity
  8
M47
 62
     2
100
AcDbLine
 10
263.035354
 20
61.035953
 11
263.779485
 21
61.780084
  0
LINE
  5
347
100
AcDbEntity
  8
M47
 62
     2
100
AcDbLine
 10
263.034211
 20
61.035908
 11
263.77953
 21
61.781226
  0
LINE
  5
348
100
AcDbEntity
  8
M47
 62
     2
100
AcDbLine
 10
263.03307
 20
61.035864
 11
263.779574
 21
61.782367
  0
LINE
  5
349
100
AcDbEntity
  8
M47
 62
     2
100
AcDbLine
 10
263.031931
 20
61.035822
 11
263.779615
 21
61.783506
  0
LINE
  5
34A
100
AcDbEntity
  8
M47
 62
     2
100
AcDbLine
 10
263.030794
 20
61.035783
 11
263.779655
 21
61.784644
  0
LINE
  5
34B
100
AcDbEntity
  8
M47
 62
     2
100
AcDbLine
 10
263.029658
 20
61.035744
 11
263.779693
 21
61.785779
  0
LINE
  5
34C
100
AcDbEntity
  8
M47
 62
     2
100
AcDbLine
 10
263.028524
 20
61.035708
 11
263.77973
 21
61.786913
  0
LINE
  5
34D
100
AcDbEntity
  8
M47
 62
     2
100
AcDbLine
 10
263.027392
 20
61.035673
 11
263.779765
 21
61.788046
  0
LINE
  5
34E
100
AcDbEntity
  8
M47
 62
     2
100
AcDbLine
 10
263.026262
 20
61.03564
 11
263.779798
 21
61.789176
  0
LINE
  5
34F
100
AcDbEntity
  8
M47
 62
     2
100
AcDbLine
 10
263.025133
 20
61.035608
 11
263.779829
 21
61.790305
  0
LINE
  5
350
100
AcDbEntity
  8
M47
 62
     2
100
AcDbLine
 10
263.024006
 20
61.035579
 11
263.779859
 21
61.791432
  0
LINE
  5
351
100
AcDbEntity
  8
M47
 62
     2
100
AcDbLine
 10
263.02288
 20
61.035551
 11
263.779887
 21
61.792558
  0
LINE
  5
352
100
AcDbEntity
  8
M47
 62
     2
100
AcDbLine
 10
263.021756
 20
61.035524
 11
263.779913
 21
61.793681
  0
LINE
  5
353
100
AcDbEntity
  8
M47
 62
     2
100
AcDbLine
 10
263.020634
 20
61.0355
 11
263.779938
 21
61.794804
  0
LINE
  5
354
100
AcDbEntity
  8
M47
 62
     2
100
AcDbLine
 10
263.019514
 20
61.035477
 11
263.779961
 21
61.795924
  0
LINE
  5
355
100
AcDbEntity
  8
M47
 62
     2
100
AcDbLine
 10
263.018395
 20
61.035455
 11
263.779983
 21
61.797043
  0
LINE
  5
356
100
AcDbEntity
  8
M47
 62
     2
100
AcDbLine
 10
263.017278
 20
61.035435
 11
263.780002
 21
61.79816
  0
LINE
  5
357
100
AcDbEntity
  8
M47
 62
     2
100
AcDbLine
 10
263.016162
 20
61.035417
 11
263.78002
 21
61.799276
  0
LINE
  5
358
100
AcDbEntity
  8
M47
 62
     2
100
AcDbLine
 10
263.015048
 20
61.035401
 11
263.780037
 21
61.80039
  0
LINE
  5
359
100
AcDbEntity
  8
M47
 62
     2
100
AcDbLine
 10
263.013936
 20
61.035386
 11
263.780052
 21
61.801502
  0
LINE
  5
35A
100
AcDbEntity
  8
M47
 62
     2
100
AcDbLine
 10
263.012825
 20
61.035373
 11
263.780065
 21
61.802613
  0
LINE
  5
35B
100
AcDbEntity
  8
M47
 62
     2
100
AcDbLine
 10
263.011716
 20
61.035361
 11
263.780077
 21
61.803722
  0
LINE
  5
35C
100
AcDbEntity
  8
M47
 62
     2
100
AcDbLine
 10
263.010609
 20
61.035351
 11
263.780087
 21
61.804829
  0
LINE
  5
35D
100
AcDbEntity
  8
M47
 62
     2
100
AcDbLine
 10
263.009503
 20
61.035342
 11
263.780095
 21
61.805935
  0
LINE
  5
35E
100
AcDbEntity
  8
M47
 62
     2
100
AcDbLine
 10
263.008398
 20
61.035336
 11
263.780102
 21
61.807039
  0
LINE
  5
35F
100
AcDbEntity
  8
M47
 62
     2
100
AcDbLine
 10
263.007296
 20
61.03533
 11
263.780107
 21
61.808142
  0
LINE
  5
360
100
AcDbEntity
  8
M47
 62
     2
100
AcDbLine
 10
263.006194
 20
61.035327
 11
263.780111
 21
61.809243
  0
LINE
  5
361
100
AcDbEntity
  8
M47
 62
     2
100
AcDbLine
 10
263.005095
 20
61.035324
 11
263.780113
 21
61.810343
  0
LINE
  5
362
100
AcDbEntity
  8
M47
 62
     2
100
AcDbLine
 10
263.003997
 20
61.035324
 11
263.780114
 21
61.811441
  0
LINE
  5
363
100
AcDbEntity
  8
M47
 62
     2
100
AcDbLine
 10
263.0029
 20
61.035325
 11
263.780113
 21
61.812537
  0
LINE
  5
364
100
AcDbEntity
  8
M47
 62
     2
100
AcDbLine
 10
263.001805
 20
61.035327
 11
263.780111
 21
61.813632
  0
LINE
  5
365
100
AcDbEntity
  8
M47
 62
     2
100
AcDbLine
 10
263.000712
 20
61.035331
 11
263.780107
 21
61.814726
  0
LINE
  5
366
100
AcDbEntity
  8
M47
 62
     2
100
AcDbLine
 10
262.99962
 20
61.035337
 11
263.780101
 21
61.815818
  0
LINE
  5
367
100
AcDbEntity
  8
M47
 62
     2
100
AcDbLine
 10
262.99853
 20
61.035344
 11
263.780094
 21
61.816908
  0
LINE
  5
368
100
AcDbEntity
  8
M47
 62
     2
100
AcDbLine
 10
262.997441
 20
61.035352
 11
263.780085
 21
61.817997
  0
LINE
  5
369
100
AcDbEntity
  8
M47
 62
     2
100
AcDbLine
 10
262.996354
 20
61.035363
 11
263.780075
 21
61.819084
  0
LINE
  5
36A
100
AcDbEntity
  8
M47
 62
     2
100
AcDbLine
 10
262.995268
 20
61.035374
 11
263.780064
 21
61.82017
  0
LINE
  5
36B
100
AcDbEntity
  8
M47
 62
     2
100
AcDbLine
 10
262.994183
 20
61.035387
 11
263.78005
 21
61.821254
  0
LINE
  5
36C
100
AcDbEntity
  8
M47
 62
     2
100
AcDbLine
 10
262.993101
 20
61.035402
 11
263.780036
 21
61.822337
  0
LINE
  5
36D
100
AcDbEntity
  8
M47
 62
     2
100
AcDbLine
 10
262.992019
 20
61.035418
 11
263.78002
 21
61.823418
  0
LINE
  5
36E
100
AcDbEntity
  8
M47
 62
     2
100
AcDbLine
 10
262.990939
 20
61.035436
 11
263.780002
 21
61.824498
  0
LINE
  5
36F
100
AcDbEntity
  8
M47
 62
     2
100
AcDbLine
 10
262.989861
 20
61.035455
 11
263.779983
 21
61.825577
  0
LINE
  5
370
100
AcDbEntity
  8
M47
 62
     2
100
AcDbLine
 10
262.988784
 20
61.035475
 11
263.779963
 21
61.826654
  0
LINE
  5
371
100
AcDbEntity
  8
M47
 62
     2
100
AcDbLine
 10
262.987709
 20
61.035497
 11
263.779941
 21
61.827729
  0
LINE
  5
372
100
AcDbEntity
  8
M47
 62
     2
100
AcDbLine
 10
262.986635
 20
61.035521
 11
263.779917
 21
61.828803
  0
LINE
  5
373
100
AcDbEntity
  8
M47
 62
     2
100
AcDbLine
 10
262.985562
 20
61.035546
 11
263.779892
 21
61.829875
  0
LINE
  5
374
100
AcDbEntity
  8
M47
 62
     2
100
AcDbLine
 10
262.984491
 20
61.035572
 11
263.779866
 21
61.830947
  0
LINE
  5
375
100
AcDbEntity
  8
M47
 62
     2
100
AcDbLine
 10
262.983422
 20
61.0356
 11
263.779838
 21
61.832016
  0
LINE
  5
376
100
AcDbEntity
  8
M47
 62
     2
100
AcDbLine
 10
262.982353
 20
61.035629
 11
263.779809
 21
61.833084
  0
LINE
  5
377
100
AcDbEntity
  8
M47
 62
     2
100
AcDbLine
 10
262.981287
 20
61.03566
 11
263.779778
 21
61.834151
  0
LINE
  5
378
100
AcDbEntity
  8
M47
 62
     2
100
AcDbLine
 10
262.980221
 20
61.035692
 11
263.779746
 21
61.835216
  0
LINE
  5
379
100
AcDbEntity
  8
M47
 62
     2
100
AcDbLine
 10
262.979157
 20
61.035725
 11
263.779713
 21
61.83628
  0
LINE
  5
37A
100
AcDbEntity
  8
M47
 62
     2
100
AcDbLine
 10
262.978095
 20
61.03576
 11
263.779678
 21
61.837343
  0
LINE
  5
37B
100
AcDbEntity
  8
M47
 62
     2
100
AcDbLine
 10
262.977034
 20
61.035796
 11
263.779641
 21
61.838404
  0
LINE
  5
37C
100
AcDbEntity
  8
M47
 62
     2
100
AcDbLine
 10
262.975974
 20
61.035834
 11
263.779604
 21
61.839464
  0
LINE
  5
37D
100
AcDbEntity
  8
M47
 62
     2
100
AcDbLine
 10
262.974916
 20
61.035873
 11
263.779564
 21
61.840522
  0
LINE
  5
37E
100
AcDbEntity
  8
M47
 62
     2
100
AcDbLine
 10
262.973859
 20
61.035914
 11
263.779524
 21
61.841579
  0
LINE
  5
37F
100
AcDbEntity
  8
M47
 62
     2
100
AcDbLine
 10
262.972803
 20
61.035956
 11
263.779482
 21
61.842634
  0
LINE
  5
380
100
AcDbEntity
  8
M47
 62
     2
100
AcDbLine
 10
262.971749
 20
61.035999
 11
263.779439
 21
61.843689
  0
LINE
  5
381
100
AcDbEntity
  8
M47
 62
     2
100
AcDbLine
 10
262.970696
 20
61.036044
 11
263.779394
 21
61.844741
  0
LINE
  5
382
100
AcDbEntity
  8
M47
 62
     2
100
AcDbLine
 10
262.969645
 20
61.03609
 11
263.779348
 21
61.845793
  0
LINE
  5
383
100
AcDbEntity
  8
M47
 62
     2
100
AcDbLine
 10
262.968595
 20
61.036137
 11
263.779301
 21
61.846843
  0
LINE
  5
384
100
AcDbEntity
  8
M47
 62
     2
100
AcDbLine
 10
262.967546
 20
61.036186
 11
263.779252
 21
61.847891
  0
LINE
  5
385
100
AcDbEntity
  8
M47
 62
     2
100
AcDbLine
 10
262.966499
 20
61.036236
 11
263.779202
 21
61.848939
  0
LINE
  5
386
100
AcDbEntity
  8
M47
 62
     2
100
AcDbLine
 10
262.965453
 20
61.036287
 11
263.77915
 21
61.849985
  0
LINE
  5
387
100
AcDbEntity
  8
M47
 62
     2
100
AcDbLine
 10
262.964408
 20
61.03634
 11
263.779098
 21
61.851029
  0
LINE
  5
388
100
AcDbEntity
  8
M47
 62
     2
100
AcDbLine
 10
262.963365
 20
61.036394
 11
263.779043
 21
61.852073
  0
LINE
  5
389
100
AcDbEntity
  8
M47
 62
     2
100
AcDbLine
 10
262.962323
 20
61.03645
 11
263.778988
 21
61.853115
  0
LINE
  5
38A
100
AcDbEntity
  8
M47
 62
     2
100
AcDbLine
 10
262.961283
 20
61.036507
 11
263.778931
 21
61.854155
  0
LINE
  5
38B
100
AcDbEntity
  8
M47
 62
     2
100
AcDbLine
 10
262.960243
 20
61.036565
 11
263.778873
 21
61.855194
  0
LINE
  5
38C
100
AcDbEntity
  8
M47
 62
     2
100
AcDbLine
 10
262.959205
 20
61.036624
 11
263.778813
 21
61.856232
  0
LINE
  5
38D
100
AcDbEntity
  8
M47
 62
     2
100
AcDbLine
 10
262.958169
 20
61.036685
 11
263.778753
 21
61.857269
  0
LINE
  5
38E
100
AcDbEntity
  8
M47
 62
     2
100
AcDbLine
 10
262.957133
 20
61.036747
 11
263.778691
 21
61.858304
  0
LINE
  5
38F
100
AcDbEntity
  8
M47
 62
     2
100
AcDbLine
 10
262.956099
 20
61.036811
 11
263.778627
 21
61.859338
  0
LINE
  5
390
100
AcDbEntity
  8
M47
 62
     2
100
AcDbLine
 10
262.955067
 20
61.036875
 11
263.778562
 21
61.860371
  0
LINE
  5
391
100
AcDbEntity
  8
M47
 62
     2
100
AcDbLine
 10
262.954035
 20
61.036941
 11
263.778496
 21
61.861403
  0
LINE
  5
392
100
AcDbEntity
  8
M47
 62
     2
100
AcDbLine
 10
262.953005
 20
61.037009
 11
263.778429
 21
61.862433
  0
LINE
  5
393
100
AcDbEntity
  8
M47
 62
     2
100
AcDbLine
 10
262.951976
 20
61.037077
 11
263.778361
 21
61.863461
  0
LINE
  5
394
100
AcDbEntity
  8
M47
 62
     2
100
AcDbLine
 10
262.950949
 20
61.037147
 11
263.778291
 21
61.864489
  0
LINE
  5
395
100
AcDbEntity
  8
M47
 62
     2
100
AcDbLine
 10
262.949922
 20
61.037218
 11
263.778219
 21
61.865515
  0
LINE
  5
396
100
AcDbEntity
  8
M47
 62
     2
100
AcDbLine
 10
262.948897
 20
61.037291
 11
263.778147
 21
61.86654
  0
LINE
  5
397
100
AcDbEntity
  8
M47
 62
     2
100
AcDbLine
 10
262.947874
 20
61.037364
 11
263.778073
 21
61.867564
  0
LINE
  5
398
100
AcDbEntity
  8
M47
 62
     2
100
AcDbLine
 10
262.946851
 20
61.037439
 11
263.777998
 21
61.868586
  0
LINE
  5
399
100
AcDbEntity
  8
M47
 62
     2
100
AcDbLine
 10
262.94583
 20
61.037516
 11
263.777922
 21
61.869608
  0
LINE
  5
39A
100
AcDbEntity
  8
M47
 62
     2
100
AcDbLine
 10
262.94481
 20
61.037593
 11
263.777845
 21
61.870628
  0
LINE
  5
39B
100
AcDbEntity
  8
M47
 62
     2
100
AcDbLine
 10
262.943791
 20
61.037672
 11
263.777766
 21
61.871646
  0
LINE
  5
39C
100
AcDbEntity
  8
M47
 62
     2
100
AcDbLine
 10
262.942774
 20
61.037752
 11
263.777686
 21
61.872664
  0
LINE
  5
39D
100
AcDbEntity
  8
M47
 62
     2
100
AcDbLine
 10
262.941758
 20
61.037833
 11
263.777605
 21
61.87368
  0
LINE
  5
39E
100
AcDbEntity
  8
M47
 62
     2
100
AcDbLine
 10
262.940743
 20
61.037916
 11
263.777522
 21
61.874695
  0
LINE
  5
39F
100
AcDbEntity
  8
M47
 62
     2
100
AcDbLine
 10
262.939729
 20
61.037999
 11
263.777438
 21
61.875709
  0
LINE
  5
3A0
100
AcDbEntity
  8
M47
 62
     2
100
AcDbLine
 10
262.938717
 20
61.038084
 11
263.777353
 21
61.876721
  0
LINE
  5
3A1
100
AcDbEntity
  8
M47
 62
     2
100
AcDbLine
 10
262.937706
 20
61.03817
 11
263.777267
 21
61.877732
  0
LINE
  5
3A2
100
AcDbEntity
  8
M47
 62
     2
100
AcDbLine
 10
262.936695
 20
61.038258
 11
263.77718
 21
61.878742
  0
LINE
  5
3A3
100
AcDbEntity
  8
M47
 62
     2
100
AcDbLine
 10
262.935687
 20
61.038347
 11
263.777091
 21
61.879751
  0
LINE
  5
3A4
100
AcDbEntity
  8
M47
 62
     2
100
AcDbLine
 10
262.934679
 20
61.038436
 11
263.777001
 21
61.880759
  0
LINE
  5
3A5
100
AcDbEntity
  8
M47
 62
     2
100
AcDbLine
 10
262.933673
 20
61.038527
 11
263.77691
 21
61.881765
  0
LINE
  5
3A6
100
AcDbEntity
  8
M47
 62
     2
100
AcDbLine
 10
262.932668
 20
61.03862
 11
263.776818
 21
61.88277
  0
LINE
  5
3A7
100
AcDbEntity
  8
M47
 62
     2
100
AcDbLine
 10
262.931664
 20
61.038713
 11
263.776724
 21
61.883774
  0
LINE
  5
3A8
100
AcDbEntity
  8
M47
 62
     2
100
AcDbLine
 10
262.930661
 20
61.038808
 11
263.77663
 21
61.884777
  0
LINE
  5
3A9
100
AcDbEntity
  8
M47
 62
     2
100
AcDbLine
 10
262.929659
 20
61.038904
 11
263.776534
 21
61.885778
  0
LINE
  5
3AA
100
AcDbEntity
  8
M47
 62
     2
100
AcDbLine
 10
262.928659
 20
61.039001
 11
263.776437
 21
61.886779
  0
LINE
  5
3AB
100
AcDbEntity
  8
M47
 62
     2
100
AcDbLine
 10
262.92766
 20
61.039099
 11
263.776339
 21
61.887778
  0
LINE
  5
3AC
100
AcDbEntity
  8
M47
 62
     2
100
AcDbLine
 10
262.926662
 20
61.039199
 11
263.776239
 21
61.888776
  0
LINE
  5
3AD
100
AcDbEntity
  8
M47
 62
     2
100
AcDbLine
 10
262.925665
 20
61.039299
 11
263.776138
 21
61.889773
  0
LINE
  5
3AE
100
AcDbEntity
  8
M47
 62
     2
100
AcDbLine
 10
262.92467
 20
61.039401
 11
263.776037
 21
61.890768
  0
LINE
  5
3AF
100
AcDbEntity
  8
M47
 62
     2
100
AcDbLine
 10
262.923675
 20
61.039504
 11
263.775934
 21
61.891763
  0
LINE
  5
3B0
100
AcDbEntity
  8
M47
 62
     2
100
AcDbLine
 10
262.922682
 20
61.039608
 11
263.775829
 21
61.892756
  0
LINE
  5
3B1
100
AcDbEntity
  8
M47
 62
     2
100
AcDbLine
 10
262.92169
 20
61.039714
 11
263.775724
 21
61.893748
  0
LINE
  5
3B2
100
AcDbEntity
  8
M47
 62
     2
100
AcDbLine
 10
262.920699
 20
61.03982
 11
263.775618
 21
61.894739
  0
LINE
  5
3B3
100
AcDbEntity
  8
M47
 62
     2
100
AcDbLine
 10
262.919709
 20
61.039928
 11
263.77551
 21
61.895729
  0
LINE
  5
3B4
100
AcDbEntity
  8
M47
 62
     2
100
AcDbLine
 10
262.91872
 20
61.040037
 11
263.775401
 21
61.896717
  0
LINE
  5
3B5
100
AcDbEntity
  8
M47
 62
     2
100
AcDbLine
 10
262.917733
 20
61.040146
 11
263.775291
 21
61.897705
  0
LINE
  5
3B6
100
AcDbEntity
  8
M47
 62
     2
100
AcDbLine
 10
262.916747
 20
61.040258
 11
263.77518
 21
61.898691
  0
LINE
  5
3B7
100
AcDbEntity
  8
M47
 62
     2
100
AcDbLine
 10
262.915761
 20
61.04037
 11
263.775068
 21
61.899676
  0
LINE
  5
3B8
100
AcDbEntity
  8
M47
 62
     2
100
AcDbLine
 10
262.914777
 20
61.040483
 11
263.774954
 21
61.90066
  0
LINE
  5
3B9
100
AcDbEntity
  8
M47
 62
     2
100
AcDbLine
 10
262.913795
 20
61.040598
 11
263.77484
 21
61.901643
  0
LINE
  5
3BA
100
AcDbEntity
  8
M47
 62
     2
100
AcDbLine
 10
262.912813
 20
61.040714
 11
263.774724
 21
61.902625
  0
LINE
  5
3BB
100
AcDbEntity
  8
M47
 62
     2
100
AcDbLine
 10
262.911832
 20
61.04083
 11
263.774607
 21
61.903606
  0
LINE
  5
3BC
100
AcDbEntity
  8
M47
 62
     2
100
AcDbLine
 10
262.910853
 20
61.040948
 11
263.774489
 21
61.904585
  0
LINE
  5
3BD
100
AcDbEntity
  8
M47
 62
     2
100
AcDbLine
 10
262.909874
 20
61.041067
 11
263.77437
 21
61.905563
  0
LINE
  5
3BE
100
AcDbEntity
  8
M47
 62
     2
100
AcDbLine
 10
262.908897
 20
61.041188
 11
263.77425
 21
61.906541
  0
LINE
  5
3BF
100
AcDbEntity
  8
M47
 62
     2
100
AcDbLine
 10
262.907921
 20
61.041309
 11
263.774129
 21
61.907517
  0
LINE
  5
3C0
100
AcDbEntity
  8
M47
 62
     2
100
AcDbLine
 10
262.906946
 20
61.041431
 11
263.774006
 21
61.908492
  0
LINE
  5
3C1
100
AcDbEntity
  8
M47
 62
     2
100
AcDbLine
 10
262.905972
 20
61.041555
 11
263.773883
 21
61.909466
  0
LINE
  5
3C2
100
AcDbEntity
  8
M47
 62
     2
100
AcDbLine
 10
262.904999
 20
61.041679
 11
263.773758
 21
61.910438
  0
LINE
  5
3C3
100
AcDbEntity
  8
M47
 62
     2
100
AcDbLine
 10
262.904028
 20
61.041805
 11
263.773633
 21
61.91141
  0
LINE
  5
3C4
100
AcDbEntity
  8
M47
 62
     2
100
AcDbLine
 10
262.903057
 20
61.041932
 11
263.773506
 21
61.912381
  0
LINE
  5
3C5
100
AcDbEntity
  8
M47
 62
     2
100
AcDbLine
 10
262.902088
 20
61.04206
 11
263.773378
 21
61.91335
  0
LINE
  5
3C6
100
AcDbEntity
  8
M47
 62
     2
100
AcDbLine
 10
262.901119
 20
61.042189
 11
263.773249
 21
61.914319
  0
LINE
  5
3C7
100
AcDbEntity
  8
M47
 62
     2
100
AcDbLine
 10
262.900152
 20
61.042319
 11
263.773118
 21
61.915286
  0
LINE
  5
3C8
100
AcDbEntity
  8
M47
 62
     2
100
AcDbLine
 10
262.899186
 20
61.04245
 11
263.772987
 21
61.916252
  0
LINE
  5
3C9
100
AcDbEntity
  8
M47
 62
     2
100
AcDbLine
 10
262.898221
 20
61.042583
 11
263.772855
 21
61.917217
  0
LINE
  5
3CA
100
AcDbEntity
  8
M47
 62
     2
100
AcDbLine
 10
262.897257
 20
61.042716
 11
263.772722
 21
61.918181
  0
LINE
  5
3CB
100
AcDbEntity
  8
M47
 62
     2
100
AcDbLine
 10
262.896294
 20
61.042851
 11
263.772587
 21
61.919144
  0
LINE
  5
3CC
100
AcDbEntity
  8
M47
 62
     2
100
AcDbLine
 10
262.895332
 20
61.042986
 11
263.772451
 21
61.920106
  0
LINE
  5
3CD
100
AcDbEntity
  8
M47
 62
     2
100
AcDbLine
 10
262.894371
 20
61.043123
 11
263.772315
 21
61.921067
  0
LINE
  5
3CE
100
AcDbEntity
  8
M47
 62
     2
100
AcDbLine
 10
262.893411
 20
61.043261
 11
263.772177
 21
61.922026
  0
LINE
  5
3CF
100
AcDbEntity
  8
M47
 62
     2
100
AcDbLine
 10
262.892453
 20
61.043399
 11
263.772038
 21
61.922985
  0
LINE
  5
3D0
100
AcDbEntity
  8
M47
 62
     2
100
AcDbLine
 10
262.891495
 20
61.043539
 11
263.771898
 21
61.923943
  0
LINE
  5
3D1
100
AcDbEntity
  8
M47
 62
     2
100
AcDbLine
 10
262.890539
 20
61.04368
 11
263.771758
 21
61.924899
  0
LINE
  5
3D2
100
AcDbEntity
  8
M47
 62
     2
100
AcDbLine
 10
262.889583
 20
61.043822
 11
263.771616
 21
61.925855
  0
LINE
  5
3D3
100
AcDbEntity
  8
M47
 62
     2
100
AcDbLine
 10
262.888629
 20
61.043965
 11
263.771473
 21
61.926809
  0
LINE
  5
3D4
100
AcDbEntity
  8
M47
 62
     2
100
AcDbLine
 10
262.887675
 20
61.044109
 11
263.771328
 21
61.927762
  0
LINE
  5
3D5
100
AcDbEntity
  8
M47
 62
     2
100
AcDbLine
 10
262.886723
 20
61.044254
 11
263.771183
 21
61.928715
  0
LINE
  5
3D6
100
AcDbEntity
  8
M47
 62
     2
100
AcDbLine
 10
262.885772
 20
61.044401
 11
263.771037
 21
61.929666
  0
LINE
  5
3D7
100
AcDbEntity
  8
M47
 62
     2
100
AcDbLine
 10
262.884822
 20
61.044548
 11
263.77089
 21
61.930616
  0
LINE
  5
3D8
100
AcDbEntity
  8
M47
 62
     2
100
AcDbLine
 10
262.883872
 20
61.044696
 11
263.770742
 21
61.931565
  0
LINE
  5
3D9
100
AcDbEntity
  8
M47
 62
     2
100
AcDbLine
 10
262.882924
 20
61.044845
 11
263.770592
 21
61.932513
  0
LINE
  5
3DA
100
AcDbEntity
  8
M47
 62
     2
100
AcDbLine
 10
262.881977
 20
61.044996
 11
263.770442
 21
61.93346
  0
LINE
  5
3DB
100
AcDbEntity
  8
M47
 62
     2
100
AcDbLine
 10
262.881031
 20
61.045147
 11
263.770291
 21
61.934407
  0
LINE
  5
3DC
100
AcDbEntity
  8
M47
 62
     2
100
AcDbLine
 10
262.880086
 20
61.0453
 11
263.770138
 21
61.935352
  0
LINE
  5
3DD
100
AcDbEntity
  8
M47
 62
     2
100
AcDbLine
 10
262.879142
 20
61.045453
 11
263.769985
 21
61.936296
  0
LINE
  5
3DE
100
AcDbEntity
  8
M47
 62
     2
100
AcDbLine
 10
262.878199
 20
61.045607
 11
263.76983
 21
61.937239
  0
LINE
  5
3DF
100
AcDbEntity
  8
M47
 62
     2
100
AcDbLine
 10
262.877257
 20
61.045763
 11
263.769675
 21
61.93818
  0
LINE
  5
3E0
100
AcDbEntity
  8
M47
 62
     2
100
AcDbLine
 10
262.876316
 20
61.045919
 11
263.769518
 21
61.939121
  0
LINE
  5
3E1
100
AcDbEntity
  8
M47
 62
     2
100
AcDbLine
 10
262.875376
 20
61.046077
 11
263.769361
 21
61.940061
  0
LINE
  5
3E2
100
AcDbEntity
  8
M47
 62
     2
100
AcDbLine
 10
262.874438
 20
61.046235
 11
263.769202
 21
61.941
  0
LINE
  5
3E3
100
AcDbEntity
  8
M47
 62
     2
100
AcDbLine
 10
262.8735
 20
61.046395
 11
263.769043
 21
61.941938
  0
LINE
  5
3E4
100
AcDbEntity
  8
M47
 62
     2
100
AcDbLine
 10
262.872563
 20
61.046556
 11
263.768882
 21
61.942875
  0
LINE
  5
3E5
100
AcDbEntity
  8
M47
 62
     2
100
AcDbLine
 10
262.871627
 20
61.046717
 11
263.768721
 21
61.943811
  0
LINE
  5
3E6
100
AcDbEntity
  8
M47
 62
     2
100
AcDbLine
 10
262.870692
 20
61.04688
 11
263.768558
 21
61.944746
  0
LINE
  5
3E7
100
AcDbEntity
  8
M47
 62
     2
100
AcDbLine
 10
262.869758
 20
61.047043
 11
263.768394
 21
61.945679
  0
LINE
  5
3E8
100
AcDbEntity
  8
M47
 62
     2
100
AcDbLine
 10
262.868825
 20
61.047208
 11
263.76823
 21
61.946612
  0
LINE
  5
3E9
100
AcDbEntity
  8
M47
 62
     2
100
AcDbLine
 10
262.867894
 20
61.047373
 11
263.768064
 21
61.947544
  0
LINE
  5
3EA
100
AcDbEntity
  8
M47
 62
     2
100
AcDbLine
 10
262.866963
 20
61.04754
 11
263.767898
 21
61.948475
  0
LINE
  5
3EB
100
AcDbEntity
  8
M47
 62
     2
100
AcDbLine
 10
262.866033
 20
61.047708
 11
263.76773
 21
61.949405
  0
LINE
  5
3EC
100
AcDbEntity
  8
M47
 62
     2
100
AcDbLine
 10
262.865104
 20
61.047876
 11
263.767562
 21
61.950334
  0
LINE
  5
3ED
100
AcDbEntity
  8
M47
 62
     2
100
AcDbLine
 10
262.864176
 20
61.048046
 11
263.767392
 21
61.951262
  0
LINE
  5
3EE
100
AcDbEntity
  8
M47
 62
     2
100
AcDbLine
 10
262.863249
 20
61.048216
 11
263.767222
 21
61.952189
  0
LINE
  5
3EF
100
AcDbEntity
  8
M47
 62
     2
100
AcDbLine
 10
262.862323
 20
61.048388
 11
263.76705
 21
61.953115
  0
LINE
  5
3F0
100
AcDbEntity
  8
M47
 62
     2
100
AcDbLine
 10
262.861398
 20
61.04856
 11
263.766878
 21
61.954039
  0
LINE
  5
3F1
100
AcDbEntity
  8
M47
 62
     2
100
AcDbLine
 10
262.860474
 20
61.048734
 11
263.766704
 21
61.954963
  0
LINE
  5
3F2
100
AcDbEntity
  8
M47
 62
     2
100
AcDbLine
 10
262.859551
 20
61.048908
 11
263.76653
 21
61.955886
  0
LINE
  5
3F3
100
AcDbEntity
  8
M47
 62
     2
100
AcDbLine
 10
262.858629
 20
61.049083
 11
263.766354
 21
61.956808
  0
LINE
  5
3F4
100
AcDbEntity
  8
M47
 62
     2
100
AcDbLine
 10
262.857708
 20
61.04926
 11
263.766178
 21
61.95773
  0
LINE
  5
3F5
100
AcDbEntity
  8
M47
 62
     2
100
AcDbLine
 10
262.856788
 20
61.049437
 11
263.766001
 21
61.95865
  0
LINE
  5
3F6
100
AcDbEntity
  8
M47
 62
     2
100
AcDbLine
 10
262.855869
 20
61.049615
 11
263.765822
 21
61.959569
  0
LINE
  5
3F7
100
AcDbEntity
  8
M47
 62
     2
100
AcDbLine
 10
262.854951
 20
61.049795
 11
263.765643
 21
61.960487
  0
LINE
  5
3F8
100
AcDbEntity
  8
M47
 62
     2
100
AcDbLine
 10
262.854034
 20
61.049975
 11
263.765463
 21
61.961404
  0
LINE
  5
3F9
100
AcDbEntity
  8
M47
 62
     2
100
AcDbLine
 10
262.853117
 20
61.050156
 11
263.765282
 21
61.96232
  0
LINE
  5
3FA
100
AcDbEntity
  8
M47
 62
     2
100
AcDbLine
 10
262.852202
 20
61.050338
 11
263.765099
 21
61.963236
  0
LINE
  5
3FB
100
AcDbEntity
  8
M47
 62
     2
100
AcDbLine
 10
262.851288
 20
61.050521
 11
263.764916
 21
61.96415
  0
LINE
  5
3FC
100
AcDbEntity
  8
M47
 62
     2
100
AcDbLine
 10
262.850374
 20
61.050705
 11
263.764732
 21
61.965063
  0
LINE
  5
3FD
100
AcDbEntity
  8
M47
 62
     2
100
AcDbLine
 10
262.849462
 20
61.05089
 11
263.764547
 21
61.965976
  0
LINE
  5
3FE
100
AcDbEntity
  8
M47
 62
     2
100
AcDbLine
 10
262.84855
 20
61.051076
 11
263.764361
 21
61.966887
  0
LINE
  5
3FF
100
AcDbEntity
  8
M47
 62
     2
100
AcDbLine
 10
262.84764
 20
61.051263
 11
263.764174
 21
61.967798
  0
LINE
  5
400
100
AcDbEntity
  8
M47
 62
     2
100
AcDbLine
 10
262.84673
 20
61.051451
 11
263.763987
 21
61.968707
  0
LINE
  5
401
100
AcDbEntity
  8
M47
 62
     2
100
AcDbLine
 10
262.845822
 20
61.05164
 11
263.763798
 21
61.969616
  0
LINE
  5
402
100
AcDbEntity
  8
M47
 62
     2
100
AcDbLine
 10
262.844914
 20
61.05183
 11
263.763608
 21
61.970524
  0
LINE
  5
403
100
AcDbEntity
  8
M47
 62
     2
100
AcDbLine
 10
262.844007
 20
61.05202
 11
263.763417
 21
61.971431
  0
LINE
  5
404
100
AcDbEntity
  8
M47
 62
     2
100
AcDbLine
 10
262.843101
 20
61.052212
 11
263.763226
 21
61.972336
  0
LINE
  5
405
100
AcDbEntity
  8
M47
 62
     2
100
AcDbLine
 10
262.842196
 20
61.052404
 11
263.763033
 21
61.973241
  0
LINE
  5
406
100
AcDbEntity
  8
M47
 62
     2
100
AcDbLine
 10
262.841292
 20
61.052598
 11
263.76284
 21
61.974145
  0
LINE
  5
407
100
AcDbEntity
  8
M47
 62
     2
100
AcDbLine
 10
262.840389
 20
61.052792
 11
263.762646
 21
61.975048
  0
LINE
  5
408
100
AcDbEntity
  8
M47
 62
     2
100
AcDbLine
 10
262.839487
 20
61.052987
 11
263.76245
 21
61.975951
  0
LINE
  5
409
100
AcDbEntity
  8
M47
 62
     2
100
AcDbLine
 10
262.838586
 20
61.053184
 11
263.762254
 21
61.976852
  0
LINE
  5
40A
100
AcDbEntity
  8
M47
 62
     2
100
AcDbLine
 10
262.837686
 20
61.053381
 11
263.762057
 21
61.977752
  0
LINE
  5
40B
100
AcDbEntity
  8
M47
 62
     2
100
AcDbLine
 10
262.836786
 20
61.053579
 11
263.761859
 21
61.978652
  0
LINE
  5
40C
100
AcDbEntity
  8
M47
 62
     2
100
AcDbLine
 10
262.835888
 20
61.053778
 11
263.76166
 21
61.97955
  0
LINE
  5
40D
100
AcDbEntity
  8
M47
 62
     2
100
AcDbLine
 10
262.83499
 20
61.053978
 11
263.76146
 21
61.980448
  0
LINE
  5
40E
100
AcDbEntity
  8
M47
 62
     2
100
AcDbLine
 10
262.834094
 20
61.054178
 11
263.761259
 21
61.981344
  0
LINE
  5
40F
100
AcDbEntity
  8
M47
 62
     2
100
AcDbLine
 10
262.833198
 20
61.05438
 11
263.761058
 21
61.98224
  0
LINE
  5
410
100
AcDbEntity
  8
M47
 62
     2
100
AcDbLine
 10
262.832303
 20
61.054583
 11
263.760855
 21
61.983135
  0
LINE
  5
411
100
AcDbEntity
  8
M47
 62
     2
100
AcDbLine
 10
262.831409
 20
61.054786
 11
263.760652
 21
61.984029
  0
LINE
  5
412
100
AcDbEntity
  8
M47
 62
     2
100
AcDbLine
 10
262.830516
 20
61.054991
 11
263.760447
 21
61.984922
  0
LINE
  5
413
100
AcDbEntity
  8
M47
 62
     2
100
AcDbLine
 10
262.829624
 20
61.055196
 11
263.760242
 21
61.985814
  0
LINE
  5
414
100
AcDbEntity
  8
M47
 62
     2
100
AcDbLine
 10
262.828733
 20
61.055402
 11
263.760036
 21
61.986705
  0
LINE
  5
415
100
AcDbEntity
  8
M47
 62
     2
100
AcDbLine
 10
262.827842
 20
61.055609
 11
263.759828
 21
61.987595
  0
LINE
  5
416
100
AcDbEntity
  8
M47
 62
     2
100
AcDbLine
 10
262.826953
 20
61.055817
 11
263.75962
 21
61.988485
  0
LINE
  5
417
100
AcDbEntity
  8
M47
 62
     2
100
AcDbLine
 10
262.826064
 20
61.056026
 11
263.759412
 21
61.989373
  0
LINE
  5
418
100
AcDbEntity
  8
M47
 62
     2
100
AcDbLine
 10
262.825177
 20
61.056236
 11
263.759202
 21
61.990261
  0
LINE
  5
419
100
AcDbEntity
  8
M47
 62
     2
100
AcDbLine
 10
262.82429
 20
61.056447
 11
263.758991
 21
61.991148
  0
LINE
  5
41A
100
AcDbEntity
  8
M47
 62
     2
100
AcDbLine
 10
262.823404
 20
61.056658
 11
263.758779
 21
61.992033
  0
LINE
  5
41B
100
AcDbEntity
  8
M47
 62
     2
100
AcDbLine
 10
262.822519
 20
61.056871
 11
263.758567
 21
61.992918
  0
LINE
  5
41C
100
AcDbEntity
  8
M47
 62
     2
100
AcDbLine
 10
262.821635
 20
61.057084
 11
263.758354
 21
61.993803
  0
LINE
  5
41D
100
AcDbEntity
  8
M47
 62
     2
100
AcDbLine
 10
262.820752
 20
61.057298
 11
263.758139
 21
61.994686
  0
LINE
  5
41E
100
AcDbEntity
  8
M47
 62
     2
100
AcDbLine
 10
262.81987
 20
61.057513
 11
263.757924
 21
61.995568
  0
LINE
  5
41F
100
AcDbEntity
  8
M47
 62
     2
100
AcDbLine
 10
262.818988
 20
61.057729
 11
263.757708
 21
61.996449
  0
LINE
  5
420
100
AcDbEntity
  8
M47
 62
     2
100
AcDbLine
 10
262.818108
 20
61.057946
 11
263.757491
 21
61.99733
  0
LINE
  5
421
100
AcDbEntity
  8
M47
 62
     2
100
AcDbLine
 10
262.817228
 20
61.058164
 11
263.757274
 21
61.99821
  0
LINE
  5
422
100
AcDbEntity
  8
M47
 62
     2
100
AcDbLine
 10
262.816349
 20
61.058383
 11
263.757055
 21
61.999089
  0
LINE
  5
423
100
AcDbEntity
  8
M47
 62
     2
100
AcDbLine
 10
262.815471
 20
61.058602
 11
263.756836
 21
61.999967
  0
LINE
  5
424
100
AcDbEntity
  8
M47
 62
     2
100
AcDbLine
 10
262.814594
 20
61.058822
 11
263.756615
 21
62.000844
  0
LINE
  5
425
100
AcDbEntity
  8
M47
 62
     2
100
AcDbLine
 10
262.813718
 20
61.059044
 11
263.756394
 21
62.00172
  0
LINE
  5
426
100
AcDbEntity
  8
M47
 62
     2
100
AcDbLine
 10
262.812843
 20
61.059266
 11
263.756172
 21
62.002595
  0
LINE
  5
427
100
AcDbEntity
  8
M47
 62
     2
100
AcDbLine
 10
262.811968
 20
61.059489
 11
263.755949
 21
62.00347
  0
LINE
  5
428
100
AcDbEntity
  8
M47
 62
     2
100
AcDbLine
 10
262.811094
 20
61.059712
 11
263.755725
 21
62.004343
  0
LINE
  5
429
100
AcDbEntity
  8
M47
 62
     2
100
AcDbLine
 10
262.810222
 20
61.059937
 11
263.755501
 21
62.005216
  0
LINE
  5
42A
100
AcDbEntity
  8
M47
 62
     2
100
AcDbLine
 10
262.80935
 20
61.060163
 11
263.755275
 21
62.006088
  0
LINE
  5
42B
100
AcDbEntity
  8
M47
 62
     2
100
AcDbLine
 10
262.808479
 20
61.060389
 11
263.755049
 21
62.006959
  0
LINE
  5
42C
100
AcDbEntity
  8
M47
 62
     2
100
AcDbLine
 10
262.807609
 20
61.060616
 11
263.754821
 21
62.007829
  0
LINE
  5
42D
100
AcDbEntity
  8
M47
 62
     2
100
AcDbLine
 10
262.806739
 20
61.060844
 11
263.754593
 21
62.008698
  0
LINE
  5
42E
100
AcDbEntity
  8
M47
 62
     2
100
AcDbLine
 10
262.805871
 20
61.061073
 11
263.754364
 21
62.009567
  0
LINE
  5
42F
100
AcDbEntity
  8
M47
 62
     2
100
AcDbLine
 10
262.805003
 20
61.061303
 11
263.754135
 21
62.010435
  0
LINE
  5
430
100
AcDbEntity
  8
M47
 62
     2
100
AcDbLine
 10
262.804136
 20
61.061534
 11
263.753904
 21
62.011301
  0
LINE
  5
431
100
AcDbEntity
  8
M47
 62
     2
100
AcDbLine
 10
262.80327
 20
61.061765
 11
263.753672
 21
62.012167
  0
LINE
  5
432
100
AcDbEntity
  8
M47
 62
     2
100
AcDbLine
 10
262.802405
 20
61.061998
 11
263.75344
 21
62.013032
  0
LINE
  5
433
100
AcDbEntity
  8
M47
 62
     2
100
AcDbLine
 10
262.801541
 20
61.062231
 11
263.753207
 21
62.013897
  0
LINE
  5
434
100
AcDbEntity
  8
M47
 62
     2
100
AcDbLine
 10
262.800678
 20
61.062465
 11
263.752973
 21
62.01476
  0
LINE
  5
435
100
AcDbEntity
  8
M47
 62
     2
100
AcDbLine
 10
262.799815
 20
61.0627
 11
263.752738
 21
62.015623
  0
LINE
  5
436
100
AcDbEntity
  8
M47
 62
     2
100
AcDbLine
 10
262.798953
 20
61.062935
 11
263.752502
 21
62.016484
  0
LINE
  5
437
100
AcDbEntity
  8
M47
 62
     2
100
AcDbLine
 10
262.798092
 20
61.063172
 11
263.752266
 21
62.017345
  0
LINE
  5
438
100
AcDbEntity
  8
M47
 62
     2
100
AcDbLine
 10
262.797232
 20
61.063409
 11
263.752028
 21
62.018205
  0
LINE
  5
439
100
AcDbEntity
  8
M47
 62
     2
100
AcDbLine
 10
262.796373
 20
61.063647
 11
263.75179
 21
62.019065
  0
LINE
  5
43A
100
AcDbEntity
  8
M47
 62
     2
100
AcDbLine
 10
262.795515
 20
61.063887
 11
263.751551
 21
62.019923
  0
LINE
  5
43B
100
AcDbEntity
  8
M47
 62
     2
100
AcDbLine
 10
262.794657
 20
61.064126
 11
263.751311
 21
62.020781
  0
LINE
  5
43C
100
AcDbEntity
  8
M47
 62
     2
100
AcDbLine
 10
262.7938
 20
61.064367
 11
263.751071
 21
62.021637
  0
LINE
  5
43D
100
AcDbEntity
  8
M47
 62
     2
100
AcDbLine
 10
262.792945
 20
61.064609
 11
263.750829
 21
62.022493
  0
LINE
  5
43E
100
AcDbEntity
  8
M47
 62
     2
100
AcDbLine
 10
262.792089
 20
61.064851
 11
263.750587
 21
62.023348
  0
LINE
  5
43F
100
AcDbEntity
  8
M47
 62
     2
100
AcDbLine
 10
262.791235
 20
61.065094
 11
263.750344
 21
62.024203
  0
LINE
  5
440
100
AcDbEntity
  8
M47
 62
     2
100
AcDbLine
 10
262.790382
 20
61.065338
 11
263.7501
 21
62.025056
  0
LINE
  5
441
100
AcDbEntity
  8
M47
 62
     2
100
AcDbLine
 10
262.789529
 20
61.065583
 11
263.749855
 21
62.025909
  0
LINE
  5
442
100
AcDbEntity
  8
M47
 62
     2
100
AcDbLine
 10
262.788677
 20
61.065829
 11
263.749609
 21
62.02676
  0
LINE
  5
443
100
AcDbEntity
  8
M47
 62
     2
100
AcDbLine
 10
262.787826
 20
61.066075
 11
263.749363
 21
62.027611
  0
LINE
  5
444
100
AcDbEntity
  8
M47
 62
     2
100
AcDbLine
 10
262.786976
 20
61.066322
 11
263.749115
 21
62.028462
  0
LINE
  5
445
100
AcDbEntity
  8
M47
 62
     2
100
AcDbLine
 10
262.786127
 20
61.06657
 11
263.748867
 21
62.029311
  0
LINE
  5
446
100
AcDbEntity
  8
M47
 62
     2
100
AcDbLine
 10
262.785278
 20
61.066819
 11
263.748619
 21
62.030159
  0
LINE
  5
447
100
AcDbEntity
  8
M47
 62
     2
100
AcDbLine
 10
262.784431
 20
61.067069
 11
263.748369
 21
62.031007
  0
LINE
  5
448
100
AcDbEntity
  8
M47
 62
     2
100
AcDbLine
 10
262.783584
 20
61.067319
 11
263.748118
 21
62.031854
  0
LINE
  5
449
100
AcDbEntity
  8
M47
 62
     2
100
AcDbLine
 10
262.782738
 20
61.067571
 11
263.747867
 21
62.0327
  0
LINE
  5
44A
100
AcDbEntity
  8
M47
 62
     2
100
AcDbLine
 10
262.781892
 20
61.067823
 11
263.747615
 21
62.033545
  0
LINE
  5
44B
100
AcDbEntity
  8
M47
 62
     2
100
AcDbLine
 10
262.781048
 20
61.068076
 11
263.747362
 21
62.03439
  0
LINE
  5
44C
100
AcDbEntity
  8
M47
 62
     2
100
AcDbLine
 10
262.780204
 20
61.06833
 11
263.747108
 21
62.035234
  0
LINE
  5
44D
100
AcDbEntity
  8
M47
 62
     2
100
AcDbLine
 10
262.779361
 20
61.068584
 11
263.746854
 21
62.036077
  0
LINE
  5
44E
100
AcDbEntity
  8
M47
 62
     2
100
AcDbLine
 10
262.778519
 20
61.068839
 11
263.746598
 21
62.036919
  0
LINE
  5
44F
100
AcDbEntity
  8
M47
 62
     2
100
AcDbLine
 10
262.777678
 20
61.069096
 11
263.746342
 21
62.03776
  0
LINE
  5
450
100
AcDbEntity
  8
M47
 62
     2
100
AcDbLine
 10
262.776837
 20
61.069352
 11
263.746085
 21
62.0386
  0
LINE
  5
451
100
AcDbEntity
  8
M47
 62
     2
100
AcDbLine
 10
262.775998
 20
61.06961
 11
263.745828
 21
62.03944
  0
LINE
  5
452
100
AcDbEntity
  8
M47
 62
     2
100
AcDbLine
 10
262.775159
 20
61.069869
 11
263.745569
 21
62.040279
  0
LINE
  5
453
100
AcDbEntity
  8
M47
 62
     2
100
AcDbLine
 10
262.774321
 20
61.070128
 11
263.74531
 21
62.041117
  0
LINE
  5
454
100
AcDbEntity
  8
M47
 62
     2
100
AcDbLine
 10
262.773483
 20
61.070388
 11
263.74505
 21
62.041954
  0
LINE
  5
455
100
AcDbEntity
  8
M47
 62
     2
100
AcDbLine
 10
262.772647
 20
61.070649
 11
263.744789
 21
62.042791
  0
LINE
  5
456
100
AcDbEntity
  8
M47
 62
     2
100
AcDbLine
 10
262.771811
 20
61.070911
 11
263.744527
 21
62.043627
  0
LINE
  5
457
100
AcDbEntity
  8
M47
 62
     2
100
AcDbLine
 10
262.770976
 20
61.071173
 11
263.744264
 21
62.044462
  0
LINE
  5
458
100
AcDbEntity
  8
M47
 62
     2
100
AcDbLine
 10
262.770142
 20
61.071437
 11
263.744001
 21
62.045296
  0
LINE
  5
459
100
AcDbEntity
  8
M47
 62
     2
100
AcDbLine
 10
262.769309
 20
61.071701
 11
263.743737
 21
62.046129
  0
LINE
  5
45A
100
AcDbEntity
  8
M47
 62
     2
100
AcDbLine
 10
262.768476
 20
61.071965
 11
263.743472
 21
62.046962
  0
LINE
  5
45B
100
AcDbEntity
  8
M47
 62
     2
100
AcDbLine
 10
262.767644
 20
61.072231
 11
263.743207
 21
62.047794
  0
LINE
  5
45C
100
AcDbEntity
  8
M47
 62
     2
100
AcDbLine
 10
262.766813
 20
61.072497
 11
263.74294
 21
62.048625
  0
LINE
  5
45D
100
AcDbEntity
  8
M47
 62
     2
100
AcDbLine
 10
262.765983
 20
61.072765
 11
263.742673
 21
62.049455
  0
LINE
  5
45E
100
AcDbEntity
  8
M47
 62
     2
100
AcDbLine
 10
262.765153
 20
61.073033
 11
263.742405
 21
62.050284
  0
LINE
  5
45F
100
AcDbEntity
  8
M47
 62
     2
100
AcDbLine
 10
262.764325
 20
61.073301
 11
263.742136
 21
62.051113
  0
LINE
  5
460
100
AcDbEntity
  8
M47
 62
     2
100
AcDbLine
 10
262.763497
 20
61.073571
 11
263.741867
 21
62.051941
  0
LINE
  5
461
100
AcDbEntity
  8
M47
 62
     2
100
AcDbLine
 10
262.76267
 20
61.073841
 11
263.741597
 21
62.052768
  0
LINE
  5
462
100
AcDbEntity
  8
M47
 62
     2
100
AcDbLine
 10
262.761843
 20
61.074112
 11
263.741326
 21
62.053594
  0
LINE
  5
463
100
AcDbEntity
  8
M47
 62
     2
100
AcDbLine
 10
262.761018
 20
61.074384
 11
263.741054
 21
62.05442
  0
LINE
  5
464
100
AcDbEntity
  8
M47
 62
     2
100
AcDbLine
 10
262.760193
 20
61.074657
 11
263.740781
 21
62.055245
  0
LINE
  5
465
100
AcDbEntity
  8
M47
 62
     2
100
AcDbLine
 10
262.759369
 20
61.07493
 11
263.740508
 21
62.056069
  0
LINE
  5
466
100
AcDbEntity
  8
M47
 62
     2
100
AcDbLine
 10
262.758545
 20
61.075204
 11
263.740234
 21
62.056892
  0
LINE
  5
467
100
AcDbEntity
  8
M47
 62
     2
100
AcDbLine
 10
262.757723
 20
61.075479
 11
263.739959
 21
62.057715
  0
LINE
  5
468
100
AcDbEntity
  8
M47
 62
     2
100
AcDbLine
 10
262.756901
 20
61.075755
 11
263.739683
 21
62.058537
  0
LINE
  5
469
100
AcDbEntity
  8
M47
 62
     2
100
AcDbLine
 10
262.75608
 20
61.076031
 11
263.739407
 21
62.059358
  0
LINE
  5
46A
100
AcDbEntity
  8
M47
 62
     2
100
AcDbLine
 10
262.75526
 20
61.076308
 11
263.739129
 21
62.060178
  0
LINE
  5
46B
100
AcDbEntity
  8
M47
 62
     2
100
AcDbLine
 10
262.75444
 20
61.076586
 11
263.738851
 21
62.060997
  0
LINE
  5
46C
100
AcDbEntity
  8
M47
 62
     2
100
AcDbLine
 10
262.753622
 20
61.076865
 11
263.738573
 21
62.061816
  0
LINE
  5
46D
100
AcDbEntity
  8
M47
 62
     2
100
AcDbLine
 10
262.752804
 20
61.077144
 11
263.738293
 21
62.062634
  0
LINE
  5
46E
100
AcDbEntity
  8
M47
 62
     2
100
AcDbLine
 10
262.751987
 20
61.077425
 11
263.738013
 21
62.063451
  0
LINE
  5
46F
100
AcDbEntity
  8
M47
 62
     2
100
AcDbLine
 10
262.75117
 20
61.077706
 11
263.737732
 21
62.064268
  0
LINE
  5
470
100
AcDbEntity
  8
M47
 62
     2
100
AcDbLine
 10
262.750354
 20
61.077987
 11
263.73745
 21
62.065083
  0
LINE
  5
471
100
AcDbEntity
  8
M47
 62
     2
100
AcDbLine
 10
262.74954
 20
61.07827
 11
263.737168
 21
62.065898
  0
LINE
  5
472
100
AcDbEntity
  8
M47
 62
     2
100
AcDbLine
 10
262.748725
 20
61.078553
 11
263.736885
 21
62.066712
  0
LINE
  5
473
100
AcDbEntity
  8
M47
 62
     2
100
AcDbLine
 10
262.747912
 20
61.078837
 11
263.736601
 21
62.067526
  0
LINE
  5
474
100
AcDbEntity
  8
M47
 62
     2
100
AcDbLine
 10
262.747099
 20
61.079122
 11
263.736316
 21
62.068338
  0
LINE
  5
475
100
AcDbEntity
  8
M47
 62
     2
100
AcDbLine
 10
262.746287
 20
61.079407
 11
263.73603
 21
62.06915
  0
LINE
  5
476
100
AcDbEntity
  8
M47
 62
     2
100
AcDbLine
 10
262.745476
 20
61.079694
 11
263.735744
 21
62.069962
  0
LINE
  5
477
100
AcDbEntity
  8
M47
 62
     2
100
AcDbLine
 10
262.744666
 20
61.079981
 11
263.735457
 21
62.070772
  0
LINE
  5
478
100
AcDbEntity
  8
M47
 62
     2
100
AcDbLine
 10
262.743856
 20
61.080268
 11
263.735169
 21
62.071582
  0
LINE
  5
479
100
AcDbEntity
  8
M47
 62
     2
100
AcDbLine
 10
262.743047
 20
61.080557
 11
263.734881
 21
62.072391
  0
LINE
  5
47A
100
AcDbEntity
  8
M47
 62
     2
100
AcDbLine
 10
262.742239
 20
61.080846
 11
263.734592
 21
62.073199
  0
LINE
  5
47B
100
AcDbEntity
  8
M47
 62
     2
100
AcDbLine
 10
262.741431
 20
61.081136
 11
263.734302
 21
62.074006
  0
LINE
  5
47C
100
AcDbEntity
  8
M47
 62
     2
100
AcDbLine
 10
262.740625
 20
61.081427
 11
263.734011
 21
62.074813
  0
LINE
  5
47D
100
AcDbEntity
  8
M47
 62
     2
100
AcDbLine
 10
262.739819
 20
61.081718
 11
263.733719
 21
62.075619
  0
LINE
  5
47E
100
AcDbEntity
  8
M47
 62
     2
100
AcDbLine
 10
262.739014
 20
61.082011
 11
263.733427
 21
62.076424
  0
LINE
  5
47F
100
AcDbEntity
  8
M47
 62
     2
100
AcDbLine
 10
262.738209
 20
61.082303
 11
263.733134
 21
62.077229
  0
LINE
  5
480
100
AcDbEntity
  8
M47
 62
     2
100
AcDbLine
 10
262.737405
 20
61.082597
 11
263.732841
 21
62.078032
  0
LINE
  5
481
100
AcDbEntity
  8
M47
 62
     2
100
AcDbLine
 10
262.736602
 20
61.082892
 11
263.732546
 21
62.078835
  0
LINE
  5
482
100
AcDbEntity
  8
M47
 62
     2
100
AcDbLine
 10
262.7358
 20
61.083187
 11
263.732251
 21
62.079638
  0
LINE
  5
483
100
AcDbEntity
  8
M47
 62
     2
100
AcDbLine
 10
262.734998
 20
61.083483
 11
263.731955
 21
62.080439
  0
LINE
  5
484
100
AcDbEntity
  8
M47
 62
     2
100
AcDbLine
 10
262.734198
 20
61.083779
 11
263.731659
 21
62.08124
  0
LINE
  5
485
100
AcDbEntity
  8
M47
 62
     2
100
AcDbLine
 10
262.733397
 20
61.084076
 11
263.731361
 21
62.08204
  0
LINE
  5
486
100
AcDbEntity
  8
M47
 62
     2
100
AcDbLine
 10
262.732598
 20
61.084375
 11
263.731063
 21
62.08284
  0
LINE
  5
487
100
AcDbEntity
  8
M47
 62
     2
100
AcDbLine
 10
262.731799
 20
61.084673
 11
263.730764
 21
62.083638
  0
LINE
  5
488
100
AcDbEntity
  8
M47
 62
     2
100
AcDbLine
 10
262.731002
 20
61.084973
 11
263.730465
 21
62.084436
  0
LINE
  5
489
100
AcDbEntity
  8
M47
 62
     2
100
AcDbLine
 10
262.730204
 20
61.085273
 11
263.730165
 21
62.085233
  0
LINE
  5
48A
100
AcDbEntity
  8
M47
 62
     2
100
AcDbLine
 10
262.729408
 20
61.085574
 11
263.729864
 21
62.08603
  0
LINE
  5
48B
100
AcDbEntity
  8
M47
 62
     2
100
AcDbLine
 10
262.728612
 20
61.085876
 11
263.729562
 21
62.086826
  0
LINE
  5
48C
100
AcDbEntity
  8
M47
 62
     2
100
AcDbLine
 10
262.727817
 20
61.086178
 11
263.72926
 21
62.087621
  0
LINE
  5
48D
100
AcDbEntity
  8
M47
 62
     2
100
AcDbLine
 10
262.727023
 20
61.086481
 11
263.728956
 21
62.088415
  0
LINE
  5
48E
100
AcDbEntity
  8
M47
 62
     2
100
AcDbLine
 10
262.726229
 20
61.086785
 11
263.728653
 21
62.089208
  0
LINE
  5
48F
100
AcDbEntity
  8
M47
 62
     2
100
AcDbLine
 10
262.725436
 20
61.08709
 11
263.728348
 21
62.090001
  0
LINE
  5
490
100
AcDbEntity
  8
M47
 62
     2
100
AcDbLine
 10
262.724644
 20
61.087395
 11
263.728043
 21
62.090793
  0
LINE
  5
491
100
AcDbEntity
  8
M47
 62
     2
100
AcDbLine
 10
262.723853
 20
61.087701
 11
263.727737
 21
62.091585
  0
LINE
  5
492
100
AcDbEntity
  8
M47
 62
     2
100
AcDbLine
 10
262.723062
 20
61.088008
 11
263.72743
 21
62.092375
  0
LINE
  5
493
100
AcDbEntity
  8
M47
 62
     2
100
AcDbLine
 10
262.722272
 20
61.088315
 11
263.727122
 21
62.093165
  0
LINE
  5
494
100
AcDbEntity
  8
M47
 62
     2
100
AcDbLine
 10
262.721483
 20
61.088623
 11
263.726814
 21
62.093955
  0
LINE
  5
495
100
AcDbEntity
  8
M47
 62
     2
100
AcDbLine
 10
262.720694
 20
61.088932
 11
263.726505
 21
62.094743
  0
LINE
  5
496
100
AcDbEntity
  8
M47
 62
     2
100
AcDbLine
 10
262.719907
 20
61.089242
 11
263.726196
 21
62.095531
  0
LINE
  5
497
100
AcDbEntity
  8
M47
 62
     2
100
AcDbLine
 10
262.719119
 20
61.089552
 11
263.725886
 21
62.096318
  0
LINE
  5
498
100
AcDbEntity
  8
M47
 62
     2
100
AcDbLine
 10
262.718333
 20
61.089863
 11
263.725575
 21
62.097105
  0
LINE
  5
499
100
AcDbEntity
  8
M47
 62
     2
100
AcDbLine
 10
262.717547
 20
61.090175
 11
263.725263
 21
62.09789
  0
LINE
  5
49A
100
AcDbEntity
  8
M47
 62
     2
100
AcDbLine
 10
262.716762
 20
61.090487
 11
263.72495
 21
62.098675
  0
LINE
  5
49B
100
AcDbEntity
  8
M47
 62
     2
100
AcDbLine
 10
262.715978
 20
61.090801
 11
263.724637
 21
62.09946
  0
LINE
  5
49C
100
AcDbEntity
  8
M47
 62
     2
100
AcDbLine
 10
262.715195
 20
61.091114
 11
263.724323
 21
62.100243
  0
LINE
  5
49D
100
AcDbEntity
  8
M47
 62
     2
100
AcDbLine
 10
262.714412
 20
61.091429
 11
263.724009
 21
62.101026
  0
LINE
  5
49E
100
AcDbEntity
  8
M47
 62
     2
100
AcDbLine
 10
262.713629
 20
61.091744
 11
263.723694
 21
62.101808
  0
LINE
  5
49F
100
AcDbEntity
  8
M47
 62
     2
100
AcDbLine
 10
262.712848
 20
61.09206
 11
263.723378
 21
62.10259
  0
LINE
  5
4A0
100
AcDbEntity
  8
M47
 62
     2
100
AcDbLine
 10
262.712067
 20
61.092377
 11
263.723061
 21
62.103371
  0
LINE
  5
4A1
100
AcDbEntity
  8
M47
 62
     2
100
AcDbLine
 10
262.711287
 20
61.092694
 11
263.722744
 21
62.104151
  0
LINE
  5
4A2
100
AcDbEntity
  8
M47
 62
     2
100
AcDbLine
 10
262.710508
 20
61.093012
 11
263.722425
 21
62.10493
  0
LINE
  5
4A3
100
AcDbEntity
  8
M47
 62
     2
100
AcDbLine
 10
262.709729
 20
61.093331
 11
263.722107
 21
62.105709
  0
LINE
  5
4A4
100
AcDbEntity
  8
M47
 62
     2
100
AcDbLine
 10
262.708951
 20
61.09365
 11
263.721787
 21
62.106487
  0
LINE
  5
4A5
100
AcDbEntity
  8
M47
 62
     2
100
AcDbLine
 10
262.708174
 20
61.093971
 11
263.721467
 21
62.107264
  0
LINE
  5
4A6
100
AcDbEntity
  8
M47
 62
     2
100
AcDbLine
 10
262.707397
 20
61.094291
 11
263.721146
 21
62.10804
  0
LINE
  5
4A7
100
AcDbEntity
  8
M47
 62
     2
100
AcDbLine
 10
262.706621
 20
61.094613
 11
263.720825
 21
62.108816
  0
LINE
  5
4A8
100
AcDbEntity
  8
M47
 62
     2
100
AcDbLine
 10
262.705846
 20
61.094935
 11
263.720502
 21
62.109591
  0
LINE
  5
4A9
100
AcDbEntity
  8
M47
 62
     2
100
AcDbLine
 10
262.705072
 20
61.095258
 11
263.720179
 21
62.110366
  0
LINE
  5
4AA
100
AcDbEntity
  8
M47
 62
     2
100
AcDbLine
 10
262.704298
 20
61.095582
 11
263.719856
 21
62.11114
  0
LINE
  5
4AB
100
AcDbEntity
  8
M47
 62
     2
100
AcDbLine
 10
262.703525
 20
61.095906
 11
263.719532
 21
62.111913
  0
LINE
  5
4AC
100
AcDbEntity
  8
M47
 62
     2
100
AcDbLine
 10
262.702753
 20
61.096231
 11
263.719206
 21
62.112685
  0
LINE
  5
4AD
100
AcDbEntity
  8
M47
 62
     2
100
AcDbLine
 10
262.701981
 20
61.096557
 11
263.718881
 21
62.113457
  0
LINE
  5
4AE
100
AcDbEntity
  8
M47
 62
     2
100
AcDbLine
 10
262.70121
 20
61.096883
 11
263.718554
 21
62.114228
  0
LINE
  5
4AF
100
AcDbEntity
  8
M47
 62
     2
100
AcDbLine
 10
262.700439
 20
61.09721
 11
263.718227
 21
62.114998
  0
LINE
  5
4B0
100
AcDbEntity
  8
M47
 62
     2
100
AcDbLine
 10
262.69967
 20
61.097538
 11
263.717899
 21
62.115768
  0
LINE
  5
4B1
100
AcDbEntity
  8
M47
 62
     2
100
AcDbLine
 10
262.698901
 20
61.097867
 11
263.717571
 21
62.116537
  0
LINE
  5
4B2
100
AcDbEntity
  8
M47
 62
     2
100
AcDbLine
 10
262.698133
 20
61.098196
 11
263.717242
 21
62.117305
  0
LINE
  5
4B3
100
AcDbEntity
  8
M47
 62
     2
100
AcDbLine
 10
262.697365
 20
61.098526
 11
263.716912
 21
62.118073
  0
LINE
  5
4B4
100
AcDbEntity
  8
M47
 62
     2
100
AcDbLine
 10
262.696598
 20
61.098856
 11
263.716582
 21
62.11884
  0
LINE
  5
4B5
100
AcDbEntity
  8
M47
 62
     2
100
AcDbLine
 10
262.695832
 20
61.099187
 11
263.71625
 21
62.119606
  0
LINE
  5
4B6
100
AcDbEntity
  8
M47
 62
     2
100
AcDbLine
 10
262.695066
 20
61.099519
 11
263.715918
 21
62.120371
  0
LINE
  5
4B7
100
AcDbEntity
  8
M47
 62
     2
100
AcDbLine
 10
262.694301
 20
61.099852
 11
263.715586
 21
62.121136
  0
LINE
  5
4B8
100
AcDbEntity
  8
M47
 62
     2
100
AcDbLine
 10
262.693537
 20
61.100185
 11
263.715253
 21
62.1219
  0
LINE
  5
4B9
100
AcDbEntity
  8
M47
 62
     2
100
AcDbLine
 10
262.692774
 20
61.100519
 11
263.714919
 21
62.122664
  0
LINE
  5
4BA
100
AcDbEntity
  8
M47
 62
     2
100
AcDbLine
 10
262.692011
 20
61.100854
 11
263.714584
 21
62.123427
  0
LINE
  5
4BB
100
AcDbEntity
  8
M47
 62
     2
100
AcDbLine
 10
262.691249
 20
61.101189
 11
263.714249
 21
62.124189
  0
LINE
  5
4BC
100
AcDbEntity
  8
M47
 62
     2
100
AcDbLine
 10
262.690487
 20
61.101525
 11
263.713913
 21
62.12495
  0
LINE
  5
4BD
100
AcDbEntity
  8
M47
 62
     2
100
AcDbLine
 10
262.689727
 20
61.101862
 11
263.713576
 21
62.125711
  0
LINE
  5
4BE
100
AcDbEntity
  8
M47
 62
     2
100
AcDbLine
 10
262.688966
 20
61.102199
 11
263.713239
 21
62.126471
  0
LINE
  5
4BF
100
AcDbEntity
  8
M47
 62
     2
100
AcDbLine
 10
262.688207
 20
61.102537
 11
263.712901
 21
62.127231
  0
LINE
  5
4C0
100
AcDbEntity
  8
M47
 62
     2
100
AcDbLine
 10
262.687448
 20
61.102876
 11
263.712562
 21
62.127989
  0
LINE
  5
4C1
100
AcDbEntity
  8
M47
 62
     2
100
AcDbLine
 10
262.68669
 20
61.103215
 11
263.712223
 21
62.128748
  0
LINE
  5
4C2
100
AcDbEntity
  8
M47
 62
     2
100
AcDbLine
 10
262.685933
 20
61.103555
 11
263.711883
 21
62.129505
  0
LINE
  5
4C3
100
AcDbEntity
  8
M47
 62
     2
100
AcDbLine
 10
262.685176
 20
61.103896
 11
263.711542
 21
62.130262
  0
LINE
  5
4C4
100
AcDbEntity
  8
M47
 62
     2
100
AcDbLine
 10
262.68442
 20
61.104237
 11
263.711201
 21
62.131018
  0
LINE
  5
4C5
100
AcDbEntity
  8
M47
 62
     2
100
AcDbLine
 10
262.683665
 20
61.104579
 11
263.710859
 21
62.131773
  0
LINE
  5
4C6
100
AcDbEntity
  8
M47
 62
     2
100
AcDbLine
 10
262.68291
 20
61.104922
 11
263.710516
 21
62.132528
  0
LINE
  5
4C7
100
AcDbEntity
  8
M47
 62
     2
100
AcDbLine
 10
262.682156
 20
61.105265
 11
263.710173
 21
62.133282
  0
LINE
  5
4C8
100
AcDbEntity
  8
M47
 62
     2
100
AcDbLine
 10
262.681402
 20
61.105609
 11
263.709829
 21
62.134035
  0
LINE
  5
4C9
100
AcDbEntity
  8
M47
 62
     2
100
AcDbLine
 10
262.68065
 20
61.105954
 11
263.709484
 21
62.134788
  0
LINE
  5
4CA
100
AcDbEntity
  8
M47
 62
     2
100
AcDbLine
 10
262.679898
 20
61.106299
 11
263.709139
 21
62.13554
  0
LINE
  5
4CB
100
AcDbEntity
  8
M47
 62
     2
100
AcDbLine
 10
262.679146
 20
61.106645
 11
263.708793
 21
62.136292
  0
LINE
  5
4CC
100
AcDbEntity
  8
M47
 62
     2
100
AcDbLine
 10
262.678395
 20
61.106992
 11
263.708446
 21
62.137042
  0
LINE
  5
4CD
100
AcDbEntity
  8
M47
 62
     2
100
AcDbLine
 10
262.677645
 20
61.107339
 11
263.708099
 21
62.137792
  0
LINE
  5
4CE
100
AcDbEntity
  8
M47
 62
     2
100
AcDbLine
 10
262.676896
 20
61.107687
 11
263.70775
 21
62.138542
  0
LINE
  5
4CF
100
AcDbEntity
  8
M47
 62
     2
100
AcDbLine
 10
262.676147
 20
61.108036
 11
263.707402
 21
62.139291
  0
LINE
  5
4D0
100
AcDbEntity
  8
M47
 62
     2
100
AcDbLine
 10
262.675399
 20
61.108385
 11
263.707052
 21
62.140039
  0
LINE
  5
4D1
100
AcDbEntity
  8
M47
 62
     2
100
AcDbLine
 10
262.674652
 20
61.108735
 11
263.706702
 21
62.140786
  0
LINE
  5
4D2
100
AcDbEntity
  8
M47
 62
     2
100
AcDbLine
 10
262.673905
 20
61.109086
 11
263.706352
 21
62.141533
  0
LINE
  5
4D3
100
AcDbEntity
  8
M47
 62
     2
100
AcDbLine
 10
262.673159
 20
61.109437
 11
263.706
 21
62.142279
  0
LINE
  5
4D4
100
AcDbEntity
  8
M47
 62
     2
100
AcDbLine
 10
262.672413
 20
61.109789
 11
263.705649
 21
62.143024
  0
LINE
  5
4D5
100
AcDbEntity
  8
M47
 62
     2
100
AcDbLine
 10
262.671669
 20
61.110142
 11
263.705296
 21
62.143769
  0
LINE
  5
4D6
100
AcDbEntity
  8
M47
 62
     2
100
AcDbLine
 10
262.670924
 20
61.110495
 11
263.704943
 21
62.144513
  0
LINE
  5
4D7
100
AcDbEntity
  8
M47
 62
     2
100
AcDbLine
 10
262.670181
 20
61.110849
 11
263.704589
 21
62.145257
  0
LINE
  5
4D8
100
AcDbEntity
  8
M47
 62
     2
100
AcDbLine
 10
262.669438
 20
61.111204
 11
263.704234
 21
62.146
  0
LINE
  5
4D9
100
AcDbEntity
  8
M47
 62
     2
100
AcDbLine
 10
262.668696
 20
61.111559
 11
263.703879
 21
62.146742
  0
LINE
  5
4DA
100
AcDbEntity
  8
M47
 62
     2
100
AcDbLine
 10
262.667954
 20
61.111915
 11
263.703523
 21
62.147483
  0
LINE
  5
4DB
100
AcDbEntity
  8
M47
 62
     2
100
AcDbLine
 10
262.667214
 20
61.112271
 11
263.703166
 21
62.148224
  0
LINE
  5
4DC
100
AcDbEntity
  8
M47
 62
     2
100
AcDbLine
 10
262.666473
 20
61.112629
 11
263.702809
 21
62.148964
  0
LINE
  5
4DD
100
AcDbEntity
  8
M47
 62
     2
100
AcDbLine
 10
262.665734
 20
61.112987
 11
263.702451
 21
62.149704
  0
LINE
  5
4DE
100
AcDbEntity
  8
M47
 62
     2
100
AcDbLine
 10
262.664995
 20
61.113345
 11
263.702093
 21
62.150443
  0
LINE
  5
4DF
100
AcDbEntity
  8
M47
 62
     2
100
AcDbLine
 10
262.664257
 20
61.113704
 11
263.701733
 21
62.151181
  0
LINE
  5
4E0
100
AcDbEntity
  8
M47
 62
     2
100
AcDbLine
 10
262.663519
 20
61.114064
 11
263.701374
 21
62.151919
  0
LINE
  5
4E1
100
AcDbEntity
  8
M47
 62
     2
100
AcDbLine
 10
262.662782
 20
61.114425
 11
263.701013
 21
62.152656
  0
LINE
  5
4E2
100
AcDbEntity
  8
M47
 62
     2
100
AcDbLine
 10
262.662046
 20
61.114786
 11
263.700652
 21
62.153392
  0
LINE
  5
4E3
100
AcDbEntity
  8
M47
 62
     2
100
AcDbLine
 10
262.66131
 20
61.115147
 11
263.70029
 21
62.154128
  0
LINE
  5
4E4
100
AcDbEntity
  8
M47
 62
     2
100
AcDbLine
 10
262.660575
 20
61.11551
 11
263.699928
 21
62.154863
  0
LINE
  5
4E5
100
AcDbEntity
  8
M47
 62
     2
100
AcDbLine
 10
262.659841
 20
61.115873
 11
263.699565
 21
62.155597
  0
LINE
  5
4E6
100
AcDbEntity
  8
M47
 62
     2
100
AcDbLine
 10
262.659107
 20
61.116237
 11
263.699201
 21
62.156331
  0
LINE
  5
4E7
100
AcDbEntity
  8
M47
 62
     2
100
AcDbLine
 10
262.658374
 20
61.116601
 11
263.698837
 21
62.157064
  0
LINE
  5
4E8
100
AcDbEntity
  8
M47
 62
     2
100
AcDbLine
 10
262.657641
 20
61.116966
 11
263.698472
 21
62.157796
  0
LINE
  5
4E9
100
AcDbEntity
  8
M47
 62
     2
100
AcDbLine
 10
262.65691
 20
61.117332
 11
263.698106
 21
62.158528
  0
LINE
  5
4EA
100
AcDbEntity
  8
M47
 62
     2
100
AcDbLine
 10
262.656178
 20
61.117698
 11
263.69774
 21
62.159259
  0
LINE
  5
4EB
100
AcDbEntity
  8
M47
 62
     2
100
AcDbLine
 10
262.655448
 20
61.118065
 11
263.697373
 21
62.15999
  0
LINE
  5
4EC
100
AcDbEntity
  8
M47
 62
     2
100
AcDbLine
 10
262.654718
 20
61.118432
 11
263.697005
 21
62.16072
  0
LINE
  5
4ED
100
AcDbEntity
  8
M47
 62
     2
100
AcDbLine
 10
262.653989
 20
61.118801
 11
263.696637
 21
62.161449
  0
LINE
  5
4EE
100
AcDbEntity
  8
M47
 62
     2
100
AcDbLine
 10
262.65326
 20
61.119169
 11
263.696268
 21
62.162177
  0
LINE
  5
4EF
100
AcDbEntity
  8
M47
 62
     2
100
AcDbLine
 10
262.652532
 20
61.119539
 11
263.695899
 21
62.162905
  0
LINE
  5
4F0
100
AcDbEntity
  8
M47
 62
     2
100
AcDbLine
 10
262.651805
 20
61.119909
 11
263.695529
 21
62.163633
  0
LINE
  5
4F1
100
AcDbEntity
  8
M47
 62
     2
100
AcDbLine
 10
262.651078
 20
61.12028
 11
263.695158
 21
62.164359
  0
LINE
  5
4F2
100
AcDbEntity
  8
M47
 62
     2
100
AcDbLine
 10
262.650352
 20
61.120651
 11
263.694787
 21
62.165085
  0
LINE
  5
4F3
100
AcDbEntity
  8
M47
 62
     2
100
AcDbLine
 10
262.649627
 20
61.121023
 11
263.694415
 21
62.165811
  0
LINE
  5
4F4
100
AcDbEntity
  8
M47
 62
     2
100
AcDbLine
 10
262.648902
 20
61.121396
 11
263.694042
 21
62.166536
  0
LINE
  5
4F5
100
AcDbEntity
  8
M47
 62
     2
100
AcDbLine
 10
262.648178
 20
61.121769
 11
263.693669
 21
62.16726
  0
LINE
  5
4F6
100
AcDbEntity
  8
M47
 62
     2
100
AcDbLine
 10
262.647455
 20
61.122143
 11
263.693295
 21
62.167983
  0
LINE
  5
4F7
100
AcDbEntity
  8
M47
 62
     2
100
AcDbLine
 10
262.646732
 20
61.122518
 11
263.69292
 21
62.168706
  0
LINE
  5
4F8
100
AcDbEntity
  8
M47
 62
     2
100
AcDbLine
 10
262.646009
 20
61.122893
 11
263.692545
 21
62.169428
  0
LINE
  5
4F9
100
AcDbEntity
  8
M47
 62
     2
100
AcDbLine
 10
262.645288
 20
61.123269
 11
263.692169
 21
62.17015
  0
LINE
  5
4FA
100
AcDbEntity
  8
M47
 62
     2
100
AcDbLine
 10
262.644567
 20
61.123645
 11
263.691793
 21
62.170871
  0
LINE
  5
4FB
100
AcDbEntity
  8
M47
 62
     2
100
AcDbLine
 10
262.643847
 20
61.124022
 11
263.691416
 21
62.171591
  0
LINE
  5
4FC
100
AcDbEntity
  8
M47
 62
     2
100
AcDbLine
 10
262.643127
 20
61.1244
 11
263.691038
 21
62.172311
  0
LINE
  5
4FD
100
AcDbEntity
  8
M47
 62
     2
100
AcDbLine
 10
262.642408
 20
61.124778
 11
263.690659
 21
62.17303
  0
LINE
  5
4FE
100
AcDbEntity
  8
M47
 62
     2
100
AcDbLine
 10
262.641689
 20
61.125157
 11
263.69028
 21
62.173748
  0
LINE
  5
4FF
100
AcDbEntity
  8
M47
 62
     2
100
AcDbLine
 10
262.640972
 20
61.125537
 11
263.689901
 21
62.174466
  0
LINE
  5
500
100
AcDbEntity
  8
M47
 62
     2
100
AcDbLine
 10
262.640254
 20
61.125917
 11
263.689521
 21
62.175183
  0
LINE
  5
501
100
AcDbEntity
  8
M47
 62
     2
100
AcDbLine
 10
262.639538
 20
61.126298
 11
263.68914
 21
62.1759
  0
LINE
  5
502
100
AcDbEntity
  8
M47
 62
     2
100
AcDbLine
 10
262.638822
 20
61.12668
 11
263.688758
 21
62.176616
  0
LINE
  5
503
100
AcDbEntity
  8
M47
 62
     2
100
AcDbLine
 10
262.638107
 20
61.127062
 11
263.688376
 21
62.177331
  0
LINE
  5
504
100
AcDbEntity
  8
M47
 62
     2
100
AcDbLine
 10
262.637392
 20
61.127444
 11
263.687993
 21
62.178046
  0
LINE
  5
505
100
AcDbEntity
  8
M47
 62
     2
100
AcDbLine
 10
262.636678
 20
61.127828
 11
263.68761
 21
62.17876
  0
LINE
  5
506
100
AcDbEntity
  8
M47
 62
     2
100
AcDbLine
 10
262.635964
 20
61.128212
 11
263.687226
 21
62.179473
  0
LINE
  5
507
100
AcDbEntity
  8
M47
 62
     2
100
AcDbLine
 10
262.635252
 20
61.128596
 11
263.686841
 21
62.180186
  0
LINE
  5
508
100
AcDbEntity
  8
M47
 62
     2
100
AcDbLine
 10
262.634539
 20
61.128982
 11
263.686456
 21
62.180898
  0
LINE
  5
509
100
AcDbEntity
  8
M47
 62
     2
100
AcDbLine
 10
262.633828
 20
61.129368
 11
263.68607
 21
62.18161
  0
LINE
  5
50A
100
AcDbEntity
  8
M47
 62
     2
100
AcDbLine
 10
262.633117
 20
61.129754
 11
263.685684
 21
62.182321
  0
LINE
  5
50B
100
AcDbEntity
  8
M47
 62
     2
100
AcDbLine
 10
262.632407
 20
61.130141
 11
263.685297
 21
62.183031
  0
LINE
  5
50C
100
AcDbEntity
  8
M47
 62
     2
100
AcDbLine
 10
262.631697
 20
61.130529
 11
263.684909
 21
62.183741
  0
LINE
  5
50D
100
AcDbEntity
  8
M47
 62
     2
100
AcDbLine
 10
262.630988
 20
61.130917
 11
263.68452
 21
62.18445
  0
LINE
  5
50E
100
AcDbEntity
  8
M47
 62
     2
100
AcDbLine
 10
262.630279
 20
61.131306
 11
263.684131
 21
62.185158
  0
LINE
  5
50F
100
AcDbEntity
  8
M47
 62
     2
100
AcDbLine
 10
262.629572
 20
61.131696
 11
263.683742
 21
62.185866
  0
LINE
  5
510
100
AcDbEntity
  8
M47
 62
     2
100
AcDbLine
 10
262.628864
 20
61.132086
 11
263.683352
 21
62.186573
  0
LINE
  5
511
100
AcDbEntity
  8
M47
 62
     2
100
AcDbLine
 10
262.628158
 20
61.132477
 11
263.682961
 21
62.18728
  0
LINE
  5
512
100
AcDbEntity
  8
M47
 62
     2
100
AcDbLine
 10
262.627452
 20
61.132868
 11
263.682569
 21
62.187986
  0
LINE
  5
513
100
AcDbEntity
  8
M47
 62
     2
100
AcDbLine
 10
262.626746
 20
61.13326
 11
263.682177
 21
62.188691
  0
LINE
  5
514
100
AcDbEntity
  8
M47
 62
     2
100
AcDbLine
 10
262.626042
 20
61.133653
 11
263.681785
 21
62.189396
  0
LINE
  5
515
100
AcDbEntity
  8
M47
 62
     2
100
AcDbLine
 10
262.625338
 20
61.134046
 11
263.681391
 21
62.1901
  0
LINE
  5
516
100
AcDbEntity
  8
M47
 62
     2
100
AcDbLine
 10
262.624634
 20
61.13444
 11
263.680997
 21
62.190804
  0
LINE
  5
517
100
AcDbEntity
  8
M47
 62
     2
100
AcDbLine
 10
262.623931
 20
61.134835
 11
263.680603
 21
62.191506
  0
LINE
  5
518
100
AcDbEntity
  8
M47
 62
     2
100
AcDbLine
 10
262.623229
 20
61.13523
 11
263.680208
 21
62.192209
  0
LINE
  5
519
100
AcDbEntity
  8
M47
 62
     2
100
AcDbLine
 10
262.622527
 20
61.135626
 11
263.679812
 21
62.19291
  0
LINE
  5
51A
100
AcDbEntity
  8
M47
 62
     2
100
AcDbLine
 10
262.621826
 20
61.136022
 11
263.679415
 21
62.193611
  0
LINE
  5
51B
100
AcDbEntity
  8
M47
 62
     2
100
AcDbLine
 10
262.621126
 20
61.136419
 11
263.679018
 21
62.194312
  0
LINE
  5
51C
100
AcDbEntity
  8
M47
 62
     2
100
AcDbLine
 10
262.620426
 20
61.136817
 11
263.678621
 21
62.195012
  0
LINE
  5
51D
100
AcDbEntity
  8
M47
 62
     2
100
AcDbLine
 10
262.619727
 20
61.137215
 11
263.678223
 21
62.195711
  0
LINE
  5
51E
100
AcDbEntity
  8
M47
 62
     2
100
AcDbLine
 10
262.619028
 20
61.137614
 11
263.677824
 21
62.19641
  0
LINE
  5
51F
100
AcDbEntity
  8
M47
 62
     2
100
AcDbLine
 10
262.61833
 20
61.138013
 11
263.677424
 21
62.197108
  0
LINE
  5
520
100
AcDbEntity
  8
M47
 62
     2
100
AcDbLine
 10
262.617633
 20
61.138413
 11
263.677024
 21
62.197805
  0
LINE
  5
521
100
AcDbEntity
  8
M47
 62
     2
100
AcDbLine
 10
262.616936
 20
61.138814
 11
263.676624
 21
62.198502
  0
LINE
  5
522
100
AcDbEntity
  8
M47
 62
     2
100
AcDbLine
 10
262.61624
 20
61.139215
 11
263.676222
 21
62.199198
  0
LINE
  5
523
100
AcDbEntity
  8
M47
 62
     2
100
AcDbLine
 10
262.615544
 20
61.139617
 11
263.675821
 21
62.199893
  0
LINE
  5
524
100
AcDbEntity
  8
M47
 62
     2
100
AcDbLine
 10
262.614849
 20
61.14002
 11
263.675418
 21
62.200588
  0
LINE
  5
525
100
AcDbEntity
  8
M47
 62
     2
100
AcDbLine
 10
262.614155
 20
61.140423
 11
263.675015
 21
62.201283
  0
LINE
  5
526
100
AcDbEntity
  8
M47
 62
     2
100
AcDbLine
 10
262.613461
 20
61.140827
 11
263.674611
 21
62.201976
  0
LINE
  5
527
100
AcDbEntity
  8
M47
 62
     2
100
AcDbLine
 10
262.612768
 20
61.141231
 11
263.674207
 21
62.202669
  0
LINE
  5
528
100
AcDbEntity
  8
M47
 62
     2
100
AcDbLine
 10
262.612076
 20
61.141636
 11
263.673802
 21
62.203362
  0
LINE
  5
529
100
AcDbEntity
  8
M47
 62
     2
100
AcDbLine
 10
262.611384
 20
61.142041
 11
263.673396
 21
62.204054
  0
LINE
  5
52A
100
AcDbEntity
  8
M47
 62
     2
100
AcDbLine
 10
262.610693
 20
61.142447
 11
263.67299
 21
62.204745
  0
LINE
  5
52B
100
AcDbEntity
  8
M47
 62
     2
100
AcDbLine
 10
262.610002
 20
61.142854
 11
263.672584
 21
62.205436
  0
LINE
  5
52C
100
AcDbEntity
  8
M47
 62
     2
100
AcDbLine
 10
262.609312
 20
61.143261
 11
263.672176
 21
62.206126
  0
LINE
  5
52D
100
AcDbEntity
  8
M47
 62
     2
100
AcDbLine
 10
262.608622
 20
61.143669
 11
263.671768
 21
62.206815
  0
LINE
  5
52E
100
AcDbEntity
  8
M47
 62
     2
100
AcDbLine
 10
262.607933
 20
61.144078
 11
263.67136
 21
62.207504
  0
LINE
  5
52F
100
AcDbEntity
  8
M47
 62
     2
100
AcDbLine
 10
262.607245
 20
61.144487
 11
263.670951
 21
62.208193
  0
LINE
  5
530
100
AcDbEntity
  8
M47
 62
     2
100
AcDbLine
 10
262.606557
 20
61.144897
 11
263.670541
 21
62.20888
  0
LINE
  5
531
100
AcDbEntity
  8
M47
 62
     2
100
AcDbLine
 10
262.60587
 20
61.145307
 11
263.670131
 21
62.209567
  0
LINE
  5
532
100
AcDbEntity
  8
M47
 62
     2
100
AcDbLine
 10
262.605184
 20
61.145718
 11
263.66972
 21
62.210254
  0
LINE
  5
533
100
AcDbEntity
  8
M47
 62
     2
100
AcDbLine
 10
262.604498
 20
61.14613
 11
263.669308
 21
62.21094
  0
LINE
  5
534
100
AcDbEntity
  8
M47
 62
     2
100
AcDbLine
 10
262.603813
 20
61.146542
 11
263.668896
 21
62.211625
  0
LINE
  5
535
100
AcDbEntity
  8
M47
 62
     2
100
AcDbLine
 10
262.603128
 20
61.146955
 11
263.668483
 21
62.21231
  0
LINE
  5
536
100
AcDbEntity
  8
M47
 62
     2
100
AcDbLine
 10
262.602444
 20
61.147368
 11
263.66807
 21
62.212994
  0
LINE
  5
537
100
AcDbEntity
  8
M47
 62
     2
100
AcDbLine
 10
262.60176
 20
61.147782
 11
263.667656
 21
62.213677
  0
LINE
  5
538
100
AcDbEntity
  8
M47
 62
     2
100
AcDbLine
 10
262.601078
 20
61.148197
 11
263.667241
 21
62.21436
  0
LINE
  5
539
100
AcDbEntity
  8
M47
 62
     2
100
AcDbLine
 10
262.600395
 20
61.148612
 11
263.666826
 21
62.215042
  0
LINE
  5
53A
100
AcDbEntity
  8
M47
 62
     2
100
AcDbLine
 10
262.599714
 20
61.149027
 11
263.66641
 21
62.215724
  0
LINE
  5
53B
100
AcDbEntity
  8
M47
 62
     2
100
AcDbLine
 10
262.599033
 20
61.149444
 11
263.665994
 21
62.216405
  0
LINE
  5
53C
100
AcDbEntity
  8
M47
 62
     2
100
AcDbLine
 10
262.598352
 20
61.149861
 11
263.665577
 21
62.217086
  0
LINE
  5
53D
100
AcDbEntity
  8
M47
 62
     2
100
AcDbLine
 10
262.597672
 20
61.150278
 11
263.665159
 21
62.217766
  0
LINE
  5
53E
100
AcDbEntity
  8
M47
 62
     2
100
AcDbLine
 10
262.596993
 20
61.150696
 11
263.664741
 21
62.218445
  0
LINE
  5
53F
100
AcDbEntity
  8
M47
 62
     2
100
AcDbLine
 10
262.596314
 20
61.151115
 11
263.664323
 21
62.219123
  0
LINE
  5
540
100
AcDbEntity
  8
M47
 62
     2
100
AcDbLine
 10
262.595636
 20
61.151534
 11
263.663903
 21
62.219802
  0
LINE
  5
541
100
AcDbEntity
  8
M47
 62
     2
100
AcDbLine
 10
262.594959
 20
61.151954
 11
263.663483
 21
62.220479
  0
LINE
  5
542
100
AcDbEntity
  8
M47
 62
     2
100
AcDbLine
 10
262.594282
 20
61.152375
 11
263.663063
 21
62.221156
  0
LINE
  5
543
100
AcDbEntity
  8
M47
 62
     2
100
AcDbLine
 10
262.593605
 20
61.152796
 11
263.662642
 21
62.221832
  0
LINE
  5
544
100
AcDbEntity
  8
M47
 62
     2
100
AcDbLine
 10
262.59293
 20
61.153218
 11
263.66222
 21
62.222508
  0
LINE
  5
545
100
AcDbEntity
  8
M47
 62
     2
100
AcDbLine
 10
262.592255
 20
61.15364
 11
263.661798
 21
62.223183
  0
LINE
  5
546
100
AcDbEntity
  8
M47
 62
     2
100
AcDbLine
 10
262.59158
 20
61.154063
 11
263.661375
 21
62.223858
  0
LINE
  5
547
100
AcDbEntity
  8
M47
 62
     2
100
AcDbLine
 10
262.590906
 20
61.154486
 11
263.660951
 21
62.224532
  0
LINE
  5
548
100
AcDbEntity
  8
M47
 62
     2
100
AcDbLine
 10
262.590233
 20
61.154911
 11
263.660527
 21
62.225205
  0
LINE
  5
549
100
AcDbEntity
  8
M47
 62
     2
100
AcDbLine
 10
262.58956
 20
61.155335
 11
263.660103
 21
62.225878
  0
LINE
  5
54A
100
AcDbEntity
  8
M47
 62
     2
100
AcDbLine
 10
262.588888
 20
61.15576
 11
263.659677
 21
62.22655
  0
LINE
  5
54B
100
AcDbEntity
  8
M47
 62
     2
100
AcDbLine
 10
262.588216
 20
61.156186
 11
263.659251
 21
62.227221
  0
LINE
  5
54C
100
AcDbEntity
  8
M47
 62
     2
100
AcDbLine
 10
262.587545
 20
61.156613
 11
263.658825
 21
62.227892
  0
LINE
  5
54D
100
AcDbEntity
  8
M47
 62
     2
100
AcDbLine
 10
262.586875
 20
61.15704
 11
263.658398
 21
62.228563
  0
LINE
  5
54E
100
AcDbEntity
  8
M47
 62
     2
100
AcDbLine
 10
262.586205
 20
61.157467
 11
263.65797
 21
62.229233
  0
LINE
  5
54F
100
AcDbEntity
  8
M47
 62
     2
100
AcDbLine
 10
262.585536
 20
61.157896
 11
263.657542
 21
62.229902
  0
LINE
  5
550
100
AcDbEntity
  8
M47
 62
     2
100
AcDbLine
 10
262.584867
 20
61.158324
 11
263.657113
 21
62.230571
  0
LINE
  5
551
100
AcDbEntity
  8
M47
 62
     2
100
AcDbLine
 10
262.584199
 20
61.158754
 11
263.656684
 21
62.231239
  0
LINE
  5
552
100
AcDbEntity
  8
M47
 62
     2
100
AcDbLine
 10
262.583532
 20
61.159184
 11
263.656254
 21
62.231906
  0
LINE
  5
553
100
AcDbEntity
  8
M47
 62
     2
100
AcDbLine
 10
262.582865
 20
61.159614
 11
263.655823
 21
62.232573
  0
LINE
  5
554
100
AcDbEntity
  8
M47
 62
     2
100
AcDbLine
 10
262.582199
 20
61.160045
 11
263.655392
 21
62.233239
  0
LINE
  5
555
100
AcDbEntity
  8
M47
 62
     2
100
AcDbLine
 10
262.581533
 20
61.160477
 11
263.654961
 21
62.233905
  0
LINE
  5
556
100
AcDbEntity
  8
M47
 62
     2
100
AcDbLine
 10
262.580868
 20
61.16091
 11
263.654528
 21
62.23457
  0
LINE
  5
557
100
AcDbEntity
  8
M47
 62
     2
100
AcDbLine
 10
262.580203
 20
61.161342
 11
263.654095
 21
62.235235
  0
LINE
  5
558
100
AcDbEntity
  8
M47
 62
     2
100
AcDbLine
 10
262.579539
 20
61.161776
 11
263.653662
 21
62.235898
  0
LINE
  5
559
100
AcDbEntity
  8
M47
 62
     2
100
AcDbLine
 10
262.578876
 20
61.16221
 11
263.653228
 21
62.236562
  0
LINE
  5
55A
100
AcDbEntity
  8
M47
 62
     2
100
AcDbLine
 10
262.578213
 20
61.162645
 11
263.652793
 21
62.237225
  0
LINE
  5
55B
100
AcDbEntity
  8
M47
 62
     2
100
AcDbLine
 10
262.577551
 20
61.16308
 11
263.652358
 21
62.237887
  0
LINE
  5
55C
100
AcDbEntity
  8
M47
 62
     2
100
AcDbLine
 10
262.576889
 20
61.163516
 11
263.651922
 21
62.238548
  0
LINE
  5
55D
100
AcDbEntity
  8
M47
 62
     2
100
AcDbLine
 10
262.576228
 20
61.163952
 11
263.651486
 21
62.239209
  0
LINE
  5
55E
100
AcDbEntity
  8
M47
 62
     2
100
AcDbLine
 10
262.575568
 20
61.164389
 11
263.651049
 21
62.23987
  0
LINE
  5
55F
100
AcDbEntity
  8
M47
 62
     2
100
AcDbLine
 10
262.574908
 20
61.164827
 11
263.650611
 21
62.24053
  0
LINE
  5
560
100
AcDbEntity
  8
M47
 62
     2
100
AcDbLine
 10
262.574249
 20
61.165265
 11
263.650173
 21
62.241189
  0
LINE
  5
561
100
AcDbEntity
  8
M47
 62
     2
100
AcDbLine
 10
262.57359
 20
61.165704
 11
263.649734
 21
62.241848
  0
LINE
  5
562
100
AcDbEntity
  8
M47
 62
     2
100
AcDbLine
 10
262.572932
 20
61.166143
 11
263.649295
 21
62.242506
  0
LINE
  5
563
100
AcDbEntity
  8
M47
 62
     2
100
AcDbLine
 10
262.572275
 20
61.166583
 11
263.648855
 21
62.243163
  0
LINE
  5
564
100
AcDbEntity
  8
M47
 62
     2
100
AcDbLine
 10
262.571618
 20
61.167023
 11
263.648414
 21
62.24382
  0
LINE
  5
565
100
AcDbEntity
  8
M47
 62
     2
100
AcDbLine
 10
262.570961
 20
61.167464
 11
263.647973
 21
62.244476
  0
LINE
  5
566
100
AcDbEntity
  8
M47
 62
     2
100
AcDbLine
 10
262.570305
 20
61.167906
 11
263.647532
 21
62.245132
  0
LINE
  5
567
100
AcDbEntity
  8
M47
 62
     2
100
AcDbLine
 10
262.56965
 20
61.168348
 11
263.647089
 21
62.245787
  0
LINE
  5
568
100
AcDbEntity
  8
M47
 62
     2
100
AcDbLine
 10
262.568996
 20
61.168791
 11
263.646647
 21
62.246442
  0
LINE
  5
569
100
AcDbEntity
  8
M47
 62
     2
100
AcDbLine
 10
262.568342
 20
61.169235
 11
263.646203
 21
62.247096
  0
LINE
  5
56A
100
AcDbEntity
  8
M47
 62
     2
100
AcDbLine
 10
262.567688
 20
61.169679
 11
263.645759
 21
62.24775
  0
LINE
  5
56B
100
AcDbEntity
  8
M47
 62
     2
100
AcDbLine
 10
262.567035
 20
61.170123
 11
263.645315
 21
62.248402
  0
LINE
  5
56C
100
AcDbEntity
  8
M47
 62
     2
100
AcDbLine
 10
262.566383
 20
61.170568
 11
263.644869
 21
62.249055
  0
LINE
  5
56D
100
AcDbEntity
  8
M47
 62
     2
100
AcDbLine
 10
262.565731
 20
61.171014
 11
263.644424
 21
62.249706
  0
LINE
  5
56E
100
AcDbEntity
  8
M47
 62
     2
100
AcDbLine
 10
262.56508
 20
61.17146
 11
263.643977
 21
62.250358
  0
LINE
  5
56F
100
AcDbEntity
  8
M47
 62
     2
100
AcDbLine
 10
262.56443
 20
61.171907
 11
263.643531
 21
62.251008
  0
LINE
  5
570
100
AcDbEntity
  8
M47
 62
     2
100
AcDbLine
 10
262.56378
 20
61.172355
 11
263.643083
 21
62.251658
  0
LINE
  5
571
100
AcDbEntity
  8
M47
 62
     2
100
AcDbLine
 10
262.56313
 20
61.172803
 11
263.642635
 21
62.252308
  0
LINE
  5
572
100
AcDbEntity
  8
M47
 62
     2
100
AcDbLine
 10
262.562481
 20
61.173251
 11
263.642187
 21
62.252956
  0
LINE
  5
573
100
AcDbEntity
  8
M47
 62
     2
100
AcDbLine
 10
262.561833
 20
61.1737
 11
263.641737
 21
62.253605
  0
LINE
  5
574
100
AcDbEntity
  8
M47
 62
     2
100
AcDbLine
 10
262.561185
 20
61.17415
 11
263.641288
 21
62.254252
  0
LINE
  5
575
100
AcDbEntity
  8
M47
 62
     2
100
AcDbLine
 10
262.560538
 20
61.1746
 11
263.640837
 21
62.254899
  0
LINE
  5
576
100
AcDbEntity
  8
M47
 62
     2
100
AcDbLine
 10
262.559892
 20
61.175051
 11
263.640386
 21
62.255546
  0
LINE
  5
577
100
AcDbEntity
  8
M47
 62
     2
100
AcDbLine
 10
262.559246
 20
61.175503
 11
263.639935
 21
62.256192
  0
LINE
  5
578
100
AcDbEntity
  8
M47
 62
     2
100
AcDbLine
 10
262.5586
 20
61.175955
 11
263.639483
 21
62.256837
  0
LINE
  5
579
100
AcDbEntity
  8
M47
 62
     2
100
AcDbLine
 10
262.557956
 20
61.176407
 11
263.63903
 21
62.257482
  0
LINE
  5
57A
100
AcDbEntity
  8
M47
 62
     2
100
AcDbLine
 10
262.557311
 20
61.176861
 11
263.638577
 21
62.258126
  0
LINE
  5
57B
100
AcDbEntity
  8
M47
 62
     2
100
AcDbLine
 10
262.556668
 20
61.177314
 11
263.638123
 21
62.25877
  0
LINE
  5
57C
100
AcDbEntity
  8
M47
 62
     2
100
AcDbLine
 10
262.556025
 20
61.177769
 11
263.637669
 21
62.259413
  0
LINE
  5
57D
100
AcDbEntity
  8
M47
 62
     2
100
AcDbLine
 10
262.555382
 20
61.178224
 11
263.637214
 21
62.260056
  0
LINE
  5
57E
100
AcDbEntity
  8
M47
 62
     2
100
AcDbLine
 10
262.55474
 20
61.178679
 11
263.636759
 21
62.260698
  0
LINE
  5
57F
100
AcDbEntity
  8
M47
 62
     2
100
AcDbLine
 10
262.554099
 20
61.179135
 11
263.636303
 21
62.261339
  0
LINE
  5
580
100
AcDbEntity
  8
M47
 62
     2
100
AcDbLine
 10
262.553458
 20
61.179592
 11
263.635846
 21
62.26198
  0
LINE
  5
581
100
AcDbEntity
  8
M47
 62
     2
100
AcDbLine
 10
262.552818
 20
61.180049
 11
263.635389
 21
62.26262
  0
LINE
  5
582
100
AcDbEntity
  8
M47
 62
     2
100
AcDbLine
 10
262.552178
 20
61.180507
 11
263.634931
 21
62.26326
  0
LINE
  5
583
100
AcDbEntity
  8
M47
 62
     2
100
AcDbLine
 10
262.551539
 20
61.180965
 11
263.634473
 21
62.263899
  0
LINE
  5
584
100
AcDbEntity
  8
M47
 62
     2
100
AcDbLine
 10
262.550901
 20
61.181424
 11
263.634014
 21
62.264537
  0
LINE
  5
585
100
AcDbEntity
  8
M47
 62
     2
100
AcDbLine
 10
262.550263
 20
61.181884
 11
263.633554
 21
62.265175
  0
LINE
  5
586
100
AcDbEntity
  8
M47
 62
     2
100
AcDbLine
 10
262.549625
 20
61.182344
 11
263.633094
 21
62.265813
  0
LINE
  5
587
100
AcDbEntity
  8
M47
 62
     2
100
AcDbLine
 10
262.548988
 20
61.182804
 11
263.632633
 21
62.266449
  0
LINE
  5
588
100
AcDbEntity
  8
M47
 62
     2
100
AcDbLine
 10
262.548352
 20
61.183265
 11
263.632172
 21
62.267086
  0
LINE
  5
589
100
AcDbEntity
  8
M47
 62
     2
100
AcDbLine
 10
262.547717
 20
61.183727
 11
263.63171
 21
62.267721
  0
LINE
  5
58A
100
AcDbEntity
  8
M47
 62
     2
100
AcDbLine
 10
262.547081
 20
61.18419
 11
263.631248
 21
62.268356
  0
LINE
  5
58B
100
AcDbEntity
  8
M47
 62
     2
100
AcDbLine
 10
262.546447
 20
61.184652
 11
263.630785
 21
62.268991
  0
LINE
  5
58C
100
AcDbEntity
  8
M47
 62
     2
100
AcDbLine
 10
262.545813
 20
61.185116
 11
263.630322
 21
62.269625
  0
LINE
  5
58D
100
AcDbEntity
  8
M47
 62
     2
100
AcDbLine
 10
262.54518
 20
61.18558
 11
263.629858
 21
62.270258
  0
LINE
  5
58E
100
AcDbEntity
  8
M47
 62
     2
100
AcDbLine
 10
262.544547
 20
61.186045
 11
263.629393
 21
62.270891
  0
LINE
  5
58F
100
AcDbEntity
  8
M47
 62
     2
100
AcDbLine
 10
262.543915
 20
61.18651
 11
263.628928
 21
62.271523
  0
LINE
  5
590
100
AcDbEntity
  8
M47
 62
     2
100
AcDbLine
 10
262.543283
 20
61.186976
 11
263.628462
 21
62.272155
  0
LINE
  5
591
100
AcDbEntity
  8
M47
 62
     2
100
AcDbLine
 10
262.542652
 20
61.187442
 11
263.627996
 21
62.272786
  0
LINE
  5
592
100
AcDbEntity
  8
M47
 62
     2
100
AcDbLine
 10
262.542021
 20
61.187909
 11
263.627529
 21
62.273417
  0
LINE
  5
593
100
AcDbEntity
  8
M47
 62
     2
100
AcDbLine
 10
262.541391
 20
61.188376
 11
263.627062
 21
62.274047
  0
LINE
  5
594
100
AcDbEntity
  8
M47
 62
     2
100
AcDbLine
 10
262.540762
 20
61.188844
 11
263.626594
 21
62.274676
  0
LINE
  5
595
100
AcDbEntity
  8
M47
 62
     2
100
AcDbLine
 10
262.540133
 20
61.189313
 11
263.626125
 21
62.275305
  0
LINE
  5
596
100
AcDbEntity
  8
M47
 62
     2
100
AcDbLine
 10
262.539505
 20
61.189782
 11
263.625656
 21
62.275933
  0
LINE
  5
597
100
AcDbEntity
  8
M47
 62
     2
100
AcDbLine
 10
262.538877
 20
61.190252
 11
263.625186
 21
62.276561
  0
LINE
  5
598
100
AcDbEntity
  8
M47
 62
     2
100
AcDbLine
 10
262.53825
 20
61.190722
 11
263.624716
 21
62.277188
  0
LINE
  5
599
100
AcDbEntity
  8
M47
 62
     2
100
AcDbLine
 10
262.537623
 20
61.191193
 11
263.624245
 21
62.277815
  0
LINE
  5
59A
100
AcDbEntity
  8
M47
 62
     2
100
AcDbLine
 10
262.536997
 20
61.191664
 11
263.623774
 21
62.278441
  0
LINE
  5
59B
100
AcDbEntity
  8
M47
 62
     2
100
AcDbLine
 10
262.536372
 20
61.192136
 11
263.623302
 21
62.279066
  0
LINE
  5
59C
100
AcDbEntity
  8
M47
 62
     2
100
AcDbLine
 10
262.535747
 20
61.192609
 11
263.622829
 21
62.279691
  0
LINE
  5
59D
100
AcDbEntity
  8
M47
 62
     2
100
AcDbLine
 10
262.535123
 20
61.193082
 11
263.622356
 21
62.280315
  0
LINE
  5
59E
100
AcDbEntity
  8
M47
 62
     2
100
AcDbLine
 10
262.534499
 20
61.193556
 11
263.621882
 21
62.280939
  0
LINE
  5
59F
100
AcDbEntity
  8
M47
 62
     2
100
AcDbLine
 10
262.533876
 20
61.19403
 11
263.621408
 21
62.281562
  0
LINE
  5
5A0
100
AcDbEntity
  8
M47
 62
     2
100
AcDbLine
 10
262.533253
 20
61.194505
 11
263.620933
 21
62.282185
  0
LINE
  5
5A1
100
AcDbEntity
  8
M47
 62
     2
100
AcDbLine
 10
262.532631
 20
61.19498
 11
263.620458
 21
62.282807
  0
LINE
  5
5A2
100
AcDbEntity
  8
M47
 62
     2
100
AcDbLine
 10
262.532009
 20
61.195456
 11
263.619982
 21
62.283428
  0
LINE
  5
5A3
100
AcDbEntity
  8
M47
 62
     2
100
AcDbLine
 10
262.531388
 20
61.195932
 11
263.619505
 21
62.284049
  0
LINE
  5
5A4
100
AcDbEntity
  8
M47
 62
     2
100
AcDbLine
 10
262.530768
 20
61.196409
 11
263.619028
 21
62.28467
  0
LINE
  5
5A5
100
AcDbEntity
  8
M47
 62
     2
100
AcDbLine
 10
262.530148
 20
61.196887
 11
263.618551
 21
62.285289
  0
LINE
  5
5A6
100
AcDbEntity
  8
M47
 62
     2
100
AcDbLine
 10
262.529529
 20
61.197365
 11
263.618073
 21
62.285909
  0
LINE
  5
5A7
100
AcDbEntity
  8
M47
 62
     2
100
AcDbLine
 10
262.52891
 20
61.197844
 11
263.617594
 21
62.286527
  0
LINE
  5
5A8
100
AcDbEntity
  8
M47
 62
     2
100
AcDbLine
 10
262.528292
 20
61.198323
 11
263.617115
 21
62.287146
  0
LINE
  5
5A9
100
AcDbEntity
  8
M47
 62
     2
100
AcDbLine
 10
262.527675
 20
61.198803
 11
263.616635
 21
62.287763
  0
LINE
  5
5AA
100
AcDbEntity
  8
M47
 62
     2
100
AcDbLine
 10
262.527058
 20
61.199284
 11
263.616154
 21
62.28838
  0
LINE
  5
5AB
100
AcDbEntity
  8
M47
 62
     2
100
AcDbLine
 10
262.526441
 20
61.199764
 11
263.615673
 21
62.288997
  0
LINE
  5
5AC
100
AcDbEntity
  8
M47
 62
     2
100
AcDbLine
 10
262.525825
 20
61.200246
 11
263.615192
 21
62.289612
  0
LINE
  5
5AD
100
AcDbEntity
  8
M47
 62
     2
100
AcDbLine
 10
262.52521
 20
61.200728
 11
263.61471
 21
62.290228
  0
LINE
  5
5AE
100
AcDbEntity
  8
M47
 62
     2
100
AcDbLine
 10
262.524595
 20
61.201211
 11
263.614227
 21
62.290843
  0
LINE
  5
5AF
100
AcDbEntity
  8
M47
 62
     2
100
AcDbLine
 10
262.523981
 20
61.201694
 11
263.613744
 21
62.291457
  0
LINE
  5
5B0
100
AcDbEntity
  8
M47
 62
     2
100
AcDbLine
 10
262.523367
 20
61.202178
 11
263.61326
 21
62.29207
  0
LINE
  5
5B1
100
AcDbEntity
  8
M47
 62
     2
100
AcDbLine
 10
262.522754
 20
61.202662
 11
263.612776
 21
62.292683
  0
LINE
  5
5B2
100
AcDbEntity
  8
M47
 62
     2
100
AcDbLine
 10
262.522142
 20
61.203147
 11
263.612291
 21
62.293296
  0
LINE
  5
5B3
100
AcDbEntity
  8
M47
 62
     2
100
AcDbLine
 10
262.52153
 20
61.203633
 11
263.611805
 21
62.293908
  0
LINE
  5
5B4
100
AcDbEntity
  8
M47
 62
     2
100
AcDbLine
 10
262.520918
 20
61.204119
 11
263.611319
 21
62.294519
  0
LINE
  5
5B5
100
AcDbEntity
  8
M47
 62
     2
100
AcDbLine
 10
262.520308
 20
61.204605
 11
263.610833
 21
62.29513
  0
LINE
  5
5B6
100
AcDbEntity
  8
M47
 62
     2
100
AcDbLine
 10
262.519697
 20
61.205092
 11
263.610345
 21
62.29574
  0
LINE
  5
5B7
100
AcDbEntity
  8
M47
 62
     2
100
AcDbLine
 10
262.519088
 20
61.20558
 11
263.609858
 21
62.29635
  0
LINE
  5
5B8
100
AcDbEntity
  8
M47
 62
     2
100
AcDbLine
 10
262.518478
 20
61.206068
 11
263.609369
 21
62.296959
  0
LINE
  5
5B9
100
AcDbEntity
  8
M47
 62
     2
100
AcDbLine
 10
262.51787
 20
61.206557
 11
263.608881
 21
62.297568
  0
LINE
  5
5BA
100
AcDbEntity
  8
M47
 62
     2
100
AcDbLine
 10
262.517262
 20
61.207047
 11
263.608391
 21
62.298176
  0
LINE
  5
5BB
100
AcDbEntity
  8
M47
 62
     2
100
AcDbLine
 10
262.516654
 20
61.207536
 11
263.607901
 21
62.298783
  0
LINE
  5
5BC
100
AcDbEntity
  8
M47
 62
     2
100
AcDbLine
 10
262.516047
 20
61.208027
 11
263.607411
 21
62.29939
  0
LINE
  5
5BD
100
AcDbEntity
  8
M47
 62
     2
100
AcDbLine
 10
262.515441
 20
61.208518
 11
263.60692
 21
62.299997
  0
LINE
  5
5BE
100
AcDbEntity
  8
M47
 62
     2
100
AcDbLine
 10
262.514835
 20
61.20901
 11
263.606428
 21
62.300603
  0
LINE
  5
5BF
100
AcDbEntity
  8
M47
 62
     2
100
AcDbLine
 10
262.51423
 20
61.209502
 11
263.605936
 21
62.301208
  0
LINE
  5
5C0
100
AcDbEntity
  8
M47
 62
     2
100
AcDbLine
 10
262.513625
 20
61.209995
 11
263.605443
 21
62.301813
  0
LINE
  5
5C1
100
AcDbEntity
  8
M47
 62
     2
100
AcDbLine
 10
262.513021
 20
61.210488
 11
263.60495
 21
62.302417
  0
LINE
  5
5C2
100
AcDbEntity
  8
M47
 62
     2
100
AcDbLine
 10
262.512417
 20
61.210982
 11
263.604456
 21
62.30302
  0
LINE
  5
5C3
100
AcDbEntity
  8
M47
 62
     2
100
AcDbLine
 10
262.511814
 20
61.211476
 11
263.603962
 21
62.303623
  0
LINE
  5
5C4
100
AcDbEntity
  8
M47
 62
     2
100
AcDbLine
 10
262.511212
 20
61.211971
 11
263.603467
 21
62.304226
  0
LINE
  5
5C5
100
AcDbEntity
  8
M47
 62
     2
100
AcDbLine
 10
262.51061
 20
61.212467
 11
263.602971
 21
62.304828
  0
LINE
  5
5C6
100
AcDbEntity
  8
M47
 62
     2
100
AcDbLine
 10
262.510009
 20
61.212963
 11
263.602475
 21
62.305429
  0
LINE
  5
5C7
100
AcDbEntity
  8
M47
 62
     2
100
AcDbLine
 10
262.509408
 20
61.213459
 11
263.601978
 21
62.30603
  0
LINE
  5
5C8
100
AcDbEntity
  8
M47
 62
     2
100
AcDbLine
 10
262.508808
 20
61.213956
 11
263.601481
 21
62.30663
  0
LINE
  5
5C9
100
AcDbEntity
  8
M47
 62
     2
100
AcDbLine
 10
262.508208
 20
61.214454
 11
263.600984
 21
62.30723
  0
LINE
  5
5CA
100
AcDbEntity
  8
M47
 62
     2
100
AcDbLine
 10
262.507609
 20
61.214952
 11
263.600485
 21
62.307829
  0
LINE
  5
5CB
100
AcDbEntity
  8
M47
 62
     2
100
AcDbLine
 10
262.50701
 20
61.215451
 11
263.599986
 21
62.308427
  0
LINE
  5
5CC
100
AcDbEntity
  8
M47
 62
     2
100
AcDbLine
 10
262.506412
 20
61.215951
 11
263.599487
 21
62.309025
  0
LINE
  5
5CD
100
AcDbEntity
  8
M47
 62
     2
100
AcDbLine
 10
262.505815
 20
61.216451
 11
263.598987
 21
62.309623
  0
LINE
  5
5CE
100
AcDbEntity
  8
M47
 62
     2
100
AcDbLine
 10
262.505218
 20
61.216951
 11
263.598487
 21
62.31022
  0
LINE
  5
5CF
100
AcDbEntity
  8
M47
 62
     2
100
AcDbLine
 10
262.504622
 20
61.217452
 11
263.597985
 21
62.310816
  0
LINE
  5
5D0
100
AcDbEntity
  8
M47
 62
     2
100
AcDbLine
 10
262.504026
 20
61.217954
 11
263.597484
 21
62.311412
  0
LINE
  5
5D1
100
AcDbEntity
  8
M47
 62
     2
100
AcDbLine
 10
262.50343
 20
61.218456
 11
263.596982
 21
62.312007
  0
LINE
  5
5D2
100
AcDbEntity
  8
M47
 62
     2
100
AcDbLine
 10
262.502836
 20
61.218959
 11
263.596479
 21
62.312602
  0
LINE
  5
5D3
100
AcDbEntity
  8
M47
 62
     2
100
AcDbLine
 10
262.502242
 20
61.219462
 11
263.595976
 21
62.313196
  0
LINE
  5
5D4
100
AcDbEntity
  8
M47
 62
     2
100
AcDbLine
 10
262.501648
 20
61.219966
 11
263.595472
 21
62.31379
  0
LINE
  5
5D5
100
AcDbEntity
  8
M47
 62
     2
100
AcDbLine
 10
262.501055
 20
61.22047
 11
263.594967
 21
62.314383
  0
LINE
  5
5D6
100
AcDbEntity
  8
M47
 62
     2
100
AcDbLine
 10
262.500463
 20
61.220975
 11
263.594462
 21
62.314975
  0
LINE
  5
5D7
100
AcDbEntity
  8
M47
 62
     2
100
AcDbLine
 10
262.499871
 20
61.221481
 11
263.593957
 21
62.315567
  0
LINE
  5
5D8
100
AcDbEntity
  8
M47
 62
     2
100
AcDbLine
 10
262.499279
 20
61.221987
 11
263.593451
 21
62.316158
  0
LINE
  5
5D9
100
AcDbEntity
  8
M47
 62
     2
100
AcDbLine
 10
262.498688
 20
61.222494
 11
263.592944
 21
62.316749
  0
LINE
  5
5DA
100
AcDbEntity
  8
M47
 62
     2
100
AcDbLine
 10
262.498098
 20
61.223001
 11
263.592437
 21
62.31734
  0
LINE
  5
5DB
100
AcDbEntity
  8
M47
 62
     2
100
AcDbLine
 10
262.497508
 20
61.223508
 11
263.591929
 21
62.317929
  0
LINE
  5
5DC
100
AcDbEntity
  8
M47
 62
     2
100
AcDbLine
 10
262.496919
 20
61.224017
 11
263.591421
 21
62.318518
  0
LINE
  5
5DD
100
AcDbEntity
  8
M47
 62
     2
100
AcDbLine
 10
262.496331
 20
61.224526
 11
263.590912
 21
62.319107
  0
LINE
  5
5DE
100
AcDbEntity
  8
M47
 62
     2
100
AcDbLine
 10
262.495743
 20
61.225035
 11
263.590403
 21
62.319695
  0
LINE
  5
5DF
100
AcDbEntity
  8
M47
 62
     2
100
AcDbLine
 10
262.495155
 20
61.225545
 11
263.589893
 21
62.320283
  0
LINE
  5
5E0
100
AcDbEntity
  8
M47
 62
     2
100
AcDbLine
 10
262.494568
 20
61.226055
 11
263.589382
 21
62.32087
  0
LINE
  5
5E1
100
AcDbEntity
  8
M47
 62
     2
100
AcDbLine
 10
262.493982
 20
61.226566
 11
263.588871
 21
62.321456
  0
LINE
  5
5E2
100
AcDbEntity
  8
M47
 62
     2
100
AcDbLine
 10
262.493396
 20
61.227078
 11
263.58836
 21
62.322042
  0
LINE
  5
5E3
100
AcDbEntity
  8
M47
 62
     2
100
AcDbLine
 10
262.492811
 20
61.22759
 11
263.587848
 21
62.322627
  0
LINE
  5
5E4
100
AcDbEntity
  8
M47
 62
     2
100
AcDbLine
 10
262.492226
 20
61.228103
 11
263.587335
 21
62.323212
  0
LINE
  5
5E5
100
AcDbEntity
  8
M47
 62
     2
100
AcDbLine
 10
262.491642
 20
61.228616
 11
263.586822
 21
62.323796
  0
LINE
  5
5E6
100
AcDbEntity
  8
M47
 62
     2
100
AcDbLine
 10
262.491058
 20
61.22913
 11
263.586308
 21
62.32438
  0
LINE
  5
5E7
100
AcDbEntity
  8
M47
 62
     2
100
AcDbLine
 10
262.490475
 20
61.229644
 11
263.585794
 21
62.324963
  0
LINE
  5
5E8
100
AcDbEntity
  8
M47
 62
     2
100
AcDbLine
 10
262.489893
 20
61.230159
 11
263.585279
 21
62.325545
  0
LINE
  5
5E9
100
AcDbEntity
  8
M47
 62
     2
100
AcDbLine
 10
262.489311
 20
61.230675
 11
263.584763
 21
62.326127
  0
LINE
  5
5EA
100
AcDbEntity
  8
M47
 62
     2
100
AcDbLine
 10
262.488729
 20
61.231191
 11
263.584247
 21
62.326709
  0
LINE
  5
5EB
100
AcDbEntity
  8
M47
 62
     2
100
AcDbLine
 10
262.488148
 20
61.231707
 11
263.583731
 21
62.327289
  0
LINE
  5
5EC
100
AcDbEntity
  8
M47
 62
     2
100
AcDbLine
 10
262.487568
 20
61.232224
 11
263.583213
 21
62.32787
  0
LINE
  5
5ED
100
AcDbEntity
  8
M47
 62
     2
100
AcDbLine
 10
262.486988
 20
61.232742
 11
263.582696
 21
62.32845
  0
LINE
  5
5EE
100
AcDbEntity
  8
M47
 62
     2
100
AcDbLine
 10
262.486409
 20
61.23326
 11
263.582178
 21
62.329029
  0
LINE
  5
5EF
100
AcDbEntity
  8
M47
 62
     2
100
AcDbLine
 10
262.48583
 20
61.233779
 11
263.581659
 21
62.329607
  0
LINE
  5
5F0
100
AcDbEntity
  8
M47
 62
     2
100
AcDbLine
 10
262.485252
 20
61.234298
 11
263.58114
 21
62.330186
  0
LINE
  5
5F1
100
AcDbEntity
  8
M47
 62
     2
100
AcDbLine
 10
262.484675
 20
61.234818
 11
263.58062
 21
62.330763
  0
LINE
  5
5F2
100
AcDbEntity
  8
M47
 62
     2
100
AcDbLine
 10
262.484098
 20
61.235338
 11
263.580099
 21
62.33134
  0
LINE
  5
5F3
100
AcDbEntity
  8
M47
 62
     2
100
AcDbLine
 10
262.483521
 20
61.235859
 11
263.579578
 21
62.331917
  0
LINE
  5
5F4
100
AcDbEntity
  8
M47
 62
     2
100
AcDbLine
 10
262.482945
 20
61.236381
 11
263.579057
 21
62.332492
  0
LINE
  5
5F5
100
AcDbEntity
  8
M47
 62
     2
100
AcDbLine
 10
262.48237
 20
61.236903
 11
263.578535
 21
62.333068
  0
LINE
  5
5F6
100
AcDbEntity
  8
M47
 62
     2
100
AcDbLine
 10
262.481795
 20
61.237426
 11
263.578012
 21
62.333643
  0
LINE
  5
5F7
100
AcDbEntity
  8
M47
 62
     2
100
AcDbLine
 10
262.481221
 20
61.237949
 11
263.577489
 21
62.334217
  0
LINE
  5
5F8
100
AcDbEntity
  8
M47
 62
     2
100
AcDbLine
 10
262.480647
 20
61.238473
 11
263.576965
 21
62.334791
  0
LINE
  5
5F9
100
AcDbEntity
  8
M47
 62
     2
100
AcDbLine
 10
262.480074
 20
61.238997
 11
263.576441
 21
62.335364
  0
LINE
  5
5FA
100
AcDbEntity
  8
M47
 62
     2
100
AcDbLine
 10
262.479501
 20
61.239522
 11
263.575916
 21
62.335936
  0
LINE
  5
5FB
100
AcDbEntity
  8
M47
 62
     2
100
AcDbLine
 10
262.478929
 20
61.240047
 11
263.575391
 21
62.336508
  0
LINE
  5
5FC
100
AcDbEntity
  8
M47
 62
     2
100
AcDbLine
 10
262.478358
 20
61.240573
 11
263.574865
 21
62.33708
  0
LINE
  5
5FD
100
AcDbEntity
  8
M47
 62
     2
100
AcDbLine
 10
262.477787
 20
61.241099
 11
263.574338
 21
62.337651
  0
LINE
  5
5FE
100
AcDbEntity
  8
M47
 62
     2
100
AcDbLine
 10
262.477216
 20
61.241626
 11
263.573811
 21
62.338221
  0
LINE
  5
5FF
100
AcDbEntity
  8
M47
 62
     2
100
AcDbLine
 10
262.476647
 20
61.242154
 11
263.573284
 21
62.338791
  0
LINE
  5
600
100
AcDbEntity
  8
M47
 62
     2
100
AcDbLine
 10
262.476077
 20
61.242682
 11
263.572756
 21
62.33936
  0
LINE
  5
601
100
AcDbEntity
  8
M47
 62
     2
100
AcDbLine
 10
262.475509
 20
61.243211
 11
263.572227
 21
62.339929
  0
LINE
  5
602
100
AcDbEntity
  8
M47
 62
     2
100
AcDbLine
 10
262.47494
 20
61.24374
 11
263.571698
 21
62.340497
  0
LINE
  5
603
100
AcDbEntity
  8
M47
 62
     2
100
AcDbLine
 10
262.474373
 20
61.24427
 11
263.571168
 21
62.341065
  0
LINE
  5
604
100
AcDbEntity
  8
M47
 62
     2
100
AcDbLine
 10
262.473806
 20
61.2448
 11
263.570638
 21
62.341632
  0
LINE
  5
605
100
AcDbEntity
  8
M47
 62
     2
100
AcDbLine
 10
262.473239
 20
61.245331
 11
263.570107
 21
62.342199
  0
LINE
  5
606
100
AcDbEntity
  8
M47
 62
     2
100
AcDbLine
 10
262.472673
 20
61.245862
 11
263.569575
 21
62.342765
  0
LINE
  5
607
100
AcDbEntity
  8
M47
 62
     2
100
AcDbLine
 10
262.472108
 20
61.246394
 11
263.569043
 21
62.34333
  0
LINE
  5
608
100
AcDbEntity
  8
M47
 62
     2
100
AcDbLine
 10
262.471543
 20
61.246927
 11
263.568511
 21
62.343895
  0
LINE
  5
609
100
AcDbEntity
  8
M47
 62
     2
100
AcDbLine
 10
262.470978
 20
61.24746
 11
263.567978
 21
62.344459
  0
LINE
  5
60A
100
AcDbEntity
  8
M47
 62
     2
100
AcDbLine
 10
262.470414
 20
61.247994
 11
263.567444
 21
62.345023
  0
LINE
  5
60B
100
AcDbEntity
  8
M47
 62
     2
100
AcDbLine
 10
262.469851
 20
61.248528
 11
263.56691
 21
62.345587
  0
LINE
  5
60C
100
AcDbEntity
  8
M47
 62
     2
100
AcDbLine
 10
262.469288
 20
61.249062
 11
263.566375
 21
62.346149
  0
LINE
  5
60D
100
AcDbEntity
  8
M47
 62
     2
100
AcDbLine
 10
262.468726
 20
61.249598
 11
263.56584
 21
62.346711
  0
LINE
  5
60E
100
AcDbEntity
  8
M47
 62
     2
100
AcDbLine
 10
262.468165
 20
61.250134
 11
263.565304
 21
62.347273
  0
LINE
  5
60F
100
AcDbEntity
  8
M47
 62
     2
100
AcDbLine
 10
262.467604
 20
61.25067
 11
263.564768
 21
62.347834
  0
LINE
  5
610
100
AcDbEntity
  8
M47
 62
     2
100
AcDbLine
 10
262.467043
 20
61.251207
 11
263.564231
 21
62.348395
  0
LINE
  5
611
100
AcDbEntity
  8
M47
 62
     2
100
AcDbLine
 10
262.466483
 20
61.251744
 11
263.563693
 21
62.348955
  0
LINE
  5
612
100
AcDbEntity
  8
M47
 62
     2
100
AcDbLine
 10
262.465924
 20
61.252282
 11
263.563155
 21
62.349514
  0
LINE
  5
613
100
AcDbEntity
  8
M47
 62
     2
100
AcDbLine
 10
262.465365
 20
61.252821
 11
263.562617
 21
62.350073
  0
LINE
  5
614
100
AcDbEntity
  8
M47
 62
     2
100
AcDbLine
 10
262.464807
 20
61.25336
 11
263.562078
 21
62.350631
  0
LINE
  5
615
100
AcDbEntity
  8
M47
 62
     2
100
AcDbLine
 10
262.464249
 20
61.2539
 11
263.561538
 21
62.351189
  0
LINE
  5
616
100
AcDbEntity
  8
M47
 62
     2
100
AcDbLine
 10
262.463692
 20
61.25444
 11
263.560998
 21
62.351746
  0
LINE
  5
617
100
AcDbEntity
  8
M47
 62
     2
100
AcDbLine
 10
262.463135
 20
61.254981
 11
263.560457
 21
62.352303
  0
LINE
  5
618
100
AcDbEntity
  8
M47
 62
     2
100
AcDbLine
 10
262.462579
 20
61.255522
 11
263.559916
 21
62.352859
  0
LINE
  5
619
100
AcDbEntity
  8
M47
 62
     2
100
AcDbLine
 10
262.462023
 20
61.256064
 11
263.559374
 21
62.353415
  0
LINE
  5
61A
100
AcDbEntity
  8
M47
 62
     2
100
AcDbLine
 10
262.461468
 20
61.256606
 11
263.558832
 21
62.35397
  0
LINE
  5
61B
100
AcDbEntity
  8
M47
 62
     2
100
AcDbLine
 10
262.460914
 20
61.257149
 11
263.558289
 21
62.354524
  0
LINE
  5
61C
100
AcDbEntity
  8
M47
 62
     2
100
AcDbLine
 10
262.46036
 20
61.257693
 11
263.557745
 21
62.355078
  0
LINE
  5
61D
100
AcDbEntity
  8
M47
 62
     2
100
AcDbLine
 10
262.459806
 20
61.258237
 11
263.557201
 21
62.355631
  0
LINE
  5
61E
100
AcDbEntity
  8
M47
 62
     2
100
AcDbLine
 10
262.459254
 20
61.258781
 11
263.556656
 21
62.356184
  0
LINE
  5
61F
100
AcDbEntity
  8
M47
 62
     2
100
AcDbLine
 10
262.458701
 20
61.259326
 11
263.556111
 21
62.356736
  0
LINE
  5
620
100
AcDbEntity
  8
M47
 62
     2
100
AcDbLine
 10
262.45815
 20
61.259872
 11
263.555566
 21
62.357288
  0
LINE
  5
621
100
AcDbEntity
  8
M47
 62
     2
100
AcDbLine
 10
262.457598
 20
61.260418
 11
263.555019
 21
62.357839
  0
LINE
  5
622
100
AcDbEntity
  8
M47
 62
     2
100
AcDbLine
 10
262.457048
 20
61.260965
 11
263.554473
 21
62.35839
  0
LINE
  5
623
100
AcDbEntity
  8
M47
 62
     2
100
AcDbLine
 10
262.456498
 20
61.261513
 11
263.553925
 21
62.35894
  0
LINE
  5
624
100
AcDbEntity
  8
M47
 62
     2
100
AcDbLine
 10
262.455948
 20
61.26206
 11
263.553377
 21
62.35949
  0
LINE
  5
625
100
AcDbEntity
  8
M47
 62
     2
100
AcDbLine
 10
262.455399
 20
61.262609
 11
263.552829
 21
62.360039
  0
LINE
  5
626
100
AcDbEntity
  8
M47
 62
     2
100
AcDbLine
 10
262.454851
 20
61.263158
 11
263.55228
 21
62.360587
  0
LINE
  5
627
100
AcDbEntity
  8
M47
 62
     2
100
AcDbLine
 10
262.454303
 20
61.263707
 11
263.55173
 21
62.361135
  0
LINE
  5
628
100
AcDbEntity
  8
M47
 62
     2
100
AcDbLine
 10
262.453755
 20
61.264257
 11
263.55118
 21
62.361682
  0
LINE
  5
629
100
AcDbEntity
  8
M47
 62
     2
100
AcDbLine
 10
262.453209
 20
61.264808
 11
263.55063
 21
62.362229
  0
LINE
  5
62A
100
AcDbEntity
  8
M47
 62
     2
100
AcDbLine
 10
262.452662
 20
61.265359
 11
263.550078
 21
62.362775
  0
LINE
  5
62B
100
AcDbEntity
  8
M47
 62
     2
100
AcDbLine
 10
262.452117
 20
61.265911
 11
263.549527
 21
62.363321
  0
LINE
  5
62C
100
AcDbEntity
  8
M47
 62
     2
100
AcDbLine
 10
262.451572
 20
61.266463
 11
263.548974
 21
62.363866
  0
LINE
  5
62D
100
AcDbEntity
  8
M47
 62
     2
100
AcDbLine
 10
262.451027
 20
61.267016
 11
263.548422
 21
62.364411
  0
LINE
  5
62E
100
AcDbEntity
  8
M47
 62
     2
100
AcDbLine
 10
262.450483
 20
61.26757
 11
263.547868
 21
62.364955
  0
LINE
  5
62F
100
AcDbEntity
  8
M47
 62
     2
100
AcDbLine
 10
262.449939
 20
61.268123
 11
263.547314
 21
62.365498
  0
LINE
  5
630
100
AcDbEntity
  8
M47
 62
     2
100
AcDbLine
 10
262.449396
 20
61.268678
 11
263.54676
 21
62.366041
  0
LINE
  5
631
100
AcDbEntity
  8
M47
 62
     2
100
AcDbLine
 10
262.448854
 20
61.269233
 11
263.546205
 21
62.366584
  0
LINE
  5
632
100
AcDbEntity
  8
M47
 62
     2
100
AcDbLine
 10
262.448312
 20
61.269789
 11
263.545649
 21
62.367126
  0
LINE
  5
633
100
AcDbEntity
  8
M47
 62
     2
100
AcDbLine
 10
262.447771
 20
61.270345
 11
263.545093
 21
62.367667
  0
LINE
  5
634
100
AcDbEntity
  8
M47
 62
     2
100
AcDbLine
 10
262.44723
 20
61.270901
 11
263.544536
 21
62.368208
  0
LINE
  5
635
100
AcDbEntity
  8
M47
 62
     2
100
AcDbLine
 10
262.44669
 20
61.271459
 11
263.543979
 21
62.368748
  0
LINE
  5
636
100
AcDbEntity
  8
M47
 62
     2
100
AcDbLine
 10
262.44615
 20
61.272016
 11
263.543421
 21
62.369287
  0
LINE
  5
637
100
AcDbEntity
  8
M47
 62
     2
100
AcDbLine
 10
262.445611
 20
61.272575
 11
263.542863
 21
62.369827
  0
LINE
  5
638
100
AcDbEntity
  8
M47
 62
     2
100
AcDbLine
 10
262.445073
 20
61.273133
 11
263.542304
 21
62.370365
  0
LINE
  5
639
100
AcDbEntity
  8
M47
 62
     2
100
AcDbLine
 10
262.444535
 20
61.273693
 11
263.541745
 21
62.370903
  0
LINE
  5
63A
100
AcDbEntity
  8
M47
 62
     2
100
AcDbLine
 10
262.443997
 20
61.274253
 11
263.541185
 21
62.371441
  0
LINE
  5
63B
100
AcDbEntity
  8
M47
 62
     2
100
AcDbLine
 10
262.44346
 20
61.274813
 11
263.540624
 21
62.371978
  0
LINE
  5
63C
100
AcDbEntity
  8
M47
 62
     2
100
AcDbLine
 10
262.442924
 20
61.275374
 11
263.540063
 21
62.372514
  0
LINE
  5
63D
100
AcDbEntity
  8
M47
 62
     2
100
AcDbLine
 10
262.442388
 20
61.275936
 11
263.539502
 21
62.37305
  0
LINE
  5
63E
100
AcDbEntity
  8
M47
 62
     2
100
AcDbLine
 10
262.441853
 20
61.276498
 11
263.538939
 21
62.373585
  0
LINE
  5
63F
100
AcDbEntity
  8
M47
 62
     2
100
AcDbLine
 10
262.441318
 20
61.277061
 11
263.538377
 21
62.37412
  0
LINE
  5
640
100
AcDbEntity
  8
M47
 62
     2
100
AcDbLine
 10
262.440784
 20
61.277624
 11
263.537814
 21
62.374654
  0
LINE
  5
641
100
AcDbEntity
  8
M47
 62
     2
100
AcDbLine
 10
262.44025
 20
61.278188
 11
263.53725
 21
62.375187
  0
LINE
  5
642
100
AcDbEntity
  8
M47
 62
     2
100
AcDbLine
 10
262.439717
 20
61.278752
 11
263.536685
 21
62.375721
  0
LINE
  5
643
100
AcDbEntity
  8
M47
 62
     2
100
AcDbLine
 10
262.439185
 20
61.279317
 11
263.53612
 21
62.376253
  0
LINE
  5
644
100
AcDbEntity
  8
M47
 62
     2
100
AcDbLine
 10
262.438653
 20
61.279883
 11
263.535555
 21
62.376785
  0
LINE
  5
645
100
AcDbEntity
  8
M47
 62
     2
100
AcDbLine
 10
262.438121
 20
61.280449
 11
263.534989
 21
62.377316
  0
LINE
  5
646
100
AcDbEntity
  8
M47
 62
     2
100
AcDbLine
 10
262.43759
 20
61.281015
 11
263.534422
 21
62.377847
  0
LINE
  5
647
100
AcDbEntity
  8
M47
 62
     2
100
AcDbLine
 10
262.43706
 20
61.281582
 11
263.533855
 21
62.378378
  0
LINE
  5
648
100
AcDbEntity
  8
M47
 62
     2
100
AcDbLine
 10
262.43653
 20
61.28215
 11
263.533288
 21
62.378907
  0
LINE
  5
649
100
AcDbEntity
  8
M47
 62
     2
100
AcDbLine
 10
262.436001
 20
61.282718
 11
263.532719
 21
62.379437
  0
LINE
  5
64A
100
AcDbEntity
  8
M47
 62
     2
100
AcDbLine
 10
262.435472
 20
61.283287
 11
263.532151
 21
62.379965
  0
LINE
  5
64B
100
AcDbEntity
  8
M47
 62
     2
100
AcDbLine
 10
262.434944
 20
61.283856
 11
263.531581
 21
62.380493
  0
LINE
  5
64C
100
AcDbEntity
  8
M47
 62
     2
100
AcDbLine
 10
262.434417
 20
61.284426
 11
263.531012
 21
62.381021
  0
LINE
  5
64D
100
AcDbEntity
  8
M47
 62
     2
100
AcDbLine
 10
262.43389
 20
61.284997
 11
263.530441
 21
62.381548
  0
LINE
  5
64E
100
AcDbEntity
  8
M47
 62
     2
100
AcDbLine
 10
262.433363
 20
61.285568
 11
263.52987
 21
62.382075
  0
LINE
  5
64F
100
AcDbEntity
  8
M47
 62
     2
100
AcDbLine
 10
262.432837
 20
61.286139
 11
263.529299
 21
62.3826
  0
LINE
  5
650
100
AcDbEntity
  8
M47
 62
     2
100
AcDbLine
 10
262.432312
 20
61.286711
 11
263.528727
 21
62.383126
  0
LINE
  5
651
100
AcDbEntity
  8
M47
 62
     2
100
AcDbLine
 10
262.431787
 20
61.287284
 11
263.528154
 21
62.383651
  0
LINE
  5
652
100
AcDbEntity
  8
M47
 62
     2
100
AcDbLine
 10
262.431263
 20
61.287857
 11
263.527581
 21
62.384175
  0
LINE
  5
653
100
AcDbEntity
  8
M47
 62
     2
100
AcDbLine
 10
262.430739
 20
61.288431
 11
263.527007
 21
62.384699
  0
LINE
  5
654
100
AcDbEntity
  8
M47
 62
     2
100
AcDbLine
 10
262.430216
 20
61.289005
 11
263.526433
 21
62.385222
  0
LINE
  5
655
100
AcDbEntity
  8
M47
 62
     2
100
AcDbLine
 10
262.429693
 20
61.28958
 11
263.525858
 21
62.385744
  0
LINE
  5
656
100
AcDbEntity
  8
M47
 62
     2
100
AcDbLine
 10
262.429171
 20
61.290155
 11
263.525283
 21
62.386267
  0
LINE
  5
657
100
AcDbEntity
  8
M47
 62
     2
100
AcDbLine
 10
262.42865
 20
61.290731
 11
263.524707
 21
62.386788
  0
LINE
  5
658
100
AcDbEntity
  8
M47
 62
     2
100
AcDbLine
 10
262.428129
 20
61.291307
 11
263.52413
 21
62.387309
  0
LINE
  5
659
100
AcDbEntity
  8
M47
 62
     2
100
AcDbLine
 10
262.427608
 20
61.291884
 11
263.523553
 21
62.387829
  0
LINE
  5
65A
100
AcDbEntity
  8
M47
 62
     2
100
AcDbLine
 10
262.427088
 20
61.292462
 11
263.522976
 21
62.388349
  0
LINE
  5
65B
100
AcDbEntity
  8
M47
 62
     2
100
AcDbLine
 10
262.426569
 20
61.29304
 11
263.522398
 21
62.388869
  0
LINE
  5
65C
100
AcDbEntity
  8
M47
 62
     2
100
AcDbLine
 10
262.42605
 20
61.293619
 11
263.521819
 21
62.389387
  0
LINE
  5
65D
100
AcDbEntity
  8
M47
 62
     2
100
AcDbLine
 10
262.425532
 20
61.294198
 11
263.52124
 21
62.389906
  0
LINE
  5
65E
100
AcDbEntity
  8
M47
 62
     2
100
AcDbLine
 10
262.425014
 20
61.294778
 11
263.52066
 21
62.390423
  0
LINE
  5
65F
100
AcDbEntity
  8
M47
 62
     2
100
AcDbLine
 10
262.424497
 20
61.295358
 11
263.52008
 21
62.39094
  0
LINE
  5
660
100
AcDbEntity
  8
M47
 62
     2
100
AcDbLine
 10
262.423981
 20
61.295939
 11
263.519499
 21
62.391457
  0
LINE
  5
661
100
AcDbEntity
  8
M47
 62
     2
100
AcDbLine
 10
262.423465
 20
61.29652
 11
263.518917
 21
62.391973
  0
LINE
  5
662
100
AcDbEntity
  8
M47
 62
     2
100
AcDbLine
 10
262.422949
 20
61.297102
 11
263.518335
 21
62.392488
  0
LINE
  5
663
100
AcDbEntity
  8
M47
 62
     2
100
AcDbLine
 10
262.422434
 20
61.297685
 11
263.517753
 21
62.393003
  0
LINE
  5
664
100
AcDbEntity
  8
M47
 62
     2
100
AcDbLine
 10
262.42192
 20
61.298268
 11
263.51717
 21
62.393518
  0
LINE
  5
665
100
AcDbEntity
  8
M47
 62
     2
100
AcDbLine
 10
262.421406
 20
61.298852
 11
263.516586
 21
62.394031
  0
LINE
  5
666
100
AcDbEntity
  8
M47
 62
     2
100
AcDbLine
 10
262.420893
 20
61.299436
 11
263.516002
 21
62.394545
  0
LINE
  5
667
100
AcDbEntity
  8
M47
 62
     2
100
AcDbLine
 10
262.42038
 20
61.30002
 11
263.515417
 21
62.395057
  0
LINE
  5
668
100
AcDbEntity
  8
M47
 62
     2
100
AcDbLine
 10
262.419868
 20
61.300606
 11
263.514832
 21
62.39557
  0
LINE
  5
669
100
AcDbEntity
  8
M47
 62
     2
100
AcDbLine
 10
262.419357
 20
61.301192
 11
263.514246
 21
62.396081
  0
LINE
  5
66A
100
AcDbEntity
  8
M47
 62
     2
100
AcDbLine
 10
262.418846
 20
61.301778
 11
263.51366
 21
62.396592
  0
LINE
  5
66B
100
AcDbEntity
  8
M47
 62
     2
100
AcDbLine
 10
262.418335
 20
61.302365
 11
263.513073
 21
62.397103
  0
LINE
  5
66C
100
AcDbEntity
  8
M47
 62
     2
100
AcDbLine
 10
262.417825
 20
61.302952
 11
263.512485
 21
62.397613
  0
LINE
  5
66D
100
AcDbEntity
  8
M47
 62
     2
100
AcDbLine
 10
262.417316
 20
61.30354
 11
263.511897
 21
62.398122
  0
LINE
  5
66E
100
AcDbEntity
  8
M47
 62
     2
100
AcDbLine
 10
262.416807
 20
61.304129
 11
263.511309
 21
62.398631
  0
LINE
  5
66F
100
AcDbEntity
  8
M47
 62
     2
100
AcDbLine
 10
262.416299
 20
61.304718
 11
263.51072
 21
62.399139
  0
LINE
  5
670
100
AcDbEntity
  8
M47
 62
     2
100
AcDbLine
 10
262.415791
 20
61.305308
 11
263.51013
 21
62.399647
  0
LINE
  5
671
100
AcDbEntity
  8
M47
 62
     2
100
AcDbLine
 10
262.415284
 20
61.305898
 11
263.50954
 21
62.400154
  0
LINE
  5
672
100
AcDbEntity
  8
M47
 62
     2
100
AcDbLine
 10
262.414777
 20
61.306489
 11
263.508949
 21
62.400661
  0
LINE
  5
673
100
AcDbEntity
  8
M47
 62
     2
100
AcDbLine
 10
262.414271
 20
61.30708
 11
263.508357
 21
62.401167
  0
LINE
  5
674
100
AcDbEntity
  8
M47
 62
     2
100
AcDbLine
 10
262.413766
 20
61.307672
 11
263.507765
 21
62.401672
  0
LINE
  5
675
100
AcDbEntity
  8
M47
 62
     2
100
AcDbLine
 10
262.413261
 20
61.308265
 11
263.507173
 21
62.402177
  0
LINE
  5
676
100
AcDbEntity
  8
M47
 62
     2
100
AcDbLine
 10
262.412756
 20
61.308858
 11
263.50658
 21
62.402681
  0
LINE
  5
677
100
AcDbEntity
  8
M47
 62
     2
100
AcDbLine
 10
262.412252
 20
61.309451
 11
263.505986
 21
62.403185
  0
LINE
  5
678
100
AcDbEntity
  8
M47
 62
     2
100
AcDbLine
 10
262.411749
 20
61.310046
 11
263.505392
 21
62.403689
  0
LINE
  5
679
100
AcDbEntity
  8
M47
 62
     2
100
AcDbLine
 10
262.411246
 20
61.31064
 11
263.504798
 21
62.404191
  0
LINE
  5
67A
100
AcDbEntity
  8
M47
 62
     2
100
AcDbLine
 10
262.410744
 20
61.311235
 11
263.504202
 21
62.404694
  0
LINE
  5
67B
100
AcDbEntity
  8
M47
 62
     2
100
AcDbLine
 10
262.410243
 20
61.311831
 11
263.503606
 21
62.405195
  0
LINE
  5
67C
100
AcDbEntity
  8
M47
 62
     2
100
AcDbLine
 10
262.409741
 20
61.312428
 11
263.50301
 21
62.405696
  0
LINE
  5
67D
100
AcDbEntity
  8
M47
 62
     2
100
AcDbLine
 10
262.409241
 20
61.313025
 11
263.502413
 21
62.406197
  0
LINE
  5
67E
100
AcDbEntity
  8
M47
 62
     2
100
AcDbLine
 10
262.408741
 20
61.313622
 11
263.501816
 21
62.406697
  0
LINE
  5
67F
100
AcDbEntity
  8
M47
 62
     2
100
AcDbLine
 10
262.408242
 20
61.31422
 11
263.501218
 21
62.407196
  0
LINE
  5
680
100
AcDbEntity
  8
M47
 62
     2
100
AcDbLine
 10
262.407743
 20
61.314819
 11
263.500619
 21
62.407695
  0
LINE
  5
681
100
AcDbEntity
  8
M47
 62
     2
100
AcDbLine
 10
262.407244
 20
61.315418
 11
263.50002
 21
62.408193
  0
LINE
  5
682
100
AcDbEntity
  8
M47
 62
     2
100
AcDbLine
 10
262.406747
 20
61.316017
 11
263.49942
 21
62.408691
  0
LINE
  5
683
100
AcDbEntity
  8
M47
 62
     2
100
AcDbLine
 10
262.40625
 20
61.316618
 11
263.49882
 21
62.409188
  0
LINE
  5
684
100
AcDbEntity
  8
M47
 62
     2
100
AcDbLine
 10
262.405753
 20
61.317218
 11
263.498219
 21
62.409685
  0
LINE
  5
685
100
AcDbEntity
  8
M47
 62
     2
100
AcDbLine
 10
262.405257
 20
61.31782
 11
263.497618
 21
62.410181
  0
LINE
  5
686
100
AcDbEntity
  8
M47
 62
     2
100
AcDbLine
 10
262.404761
 20
61.318422
 11
263.497016
 21
62.410676
  0
LINE
  5
687
100
AcDbEntity
  8
M47
 62
     2
100
AcDbLine
 10
262.404266
 20
61.319024
 11
263.496414
 21
62.411171
  0
LINE
  5
688
100
AcDbEntity
  8
M47
 62
     2
100
AcDbLine
 10
262.403772
 20
61.319627
 11
263.49581
 21
62.411666
  0
LINE
  5
689
100
AcDbEntity
  8
M47
 62
     2
100
AcDbLine
 10
262.403278
 20
61.320231
 11
263.495207
 21
62.41216
  0
LINE
  5
68A
100
AcDbEntity
  8
M47
 62
     2
100
AcDbLine
 10
262.402785
 20
61.320835
 11
263.494603
 21
62.412653
  0
LINE
  5
68B
100
AcDbEntity
  8
M47
 62
     2
100
AcDbLine
 10
262.402292
 20
61.32144
 11
263.493998
 21
62.413146
  0
LINE
  5
68C
100
AcDbEntity
  8
M47
 62
     2
100
AcDbLine
 10
262.4018
 20
61.322045
 11
263.493393
 21
62.413638
  0
LINE
  5
68D
100
AcDbEntity
  8
M47
 62
     2
100
AcDbLine
 10
262.401308
 20
61.322651
 11
263.492787
 21
62.414129
  0
LINE
  5
68E
100
AcDbEntity
  8
M47
 62
     2
100
AcDbLine
 10
262.400817
 20
61.323257
 11
263.492181
 21
62.41462
  0
LINE
  5
68F
100
AcDbEntity
  8
M47
 62
     2
100
AcDbLine
 10
262.400327
 20
61.323864
 11
263.491574
 21
62.415111
  0
LINE
  5
690
100
AcDbEntity
  8
M47
 62
     2
100
AcDbLine
 10
262.399837
 20
61.324472
 11
263.490966
 21
62.415601
  0
LINE
  5
691
100
AcDbEntity
  8
M47
 62
     2
100
AcDbLine
 10
262.399347
 20
61.32508
 11
263.490358
 21
62.41609
  0
LINE
  5
692
100
AcDbEntity
  8
M47
 62
     2
100
AcDbLine
 10
262.398859
 20
61.325688
 11
263.48975
 21
62.416579
  0
LINE
  5
693
100
AcDbEntity
  8
M47
 62
     2
100
AcDbLine
 10
262.39837
 20
61.326297
 11
263.48914
 21
62.417067
  0
LINE
  5
694
100
AcDbEntity
  8
M47
 62
     2
100
AcDbLine
 10
262.397883
 20
61.326907
 11
263.488531
 21
62.417555
  0
LINE
  5
695
100
AcDbEntity
  8
M47
 62
     2
100
AcDbLine
 10
262.397395
 20
61.327517
 11
263.48792
 21
62.418042
  0
LINE
  5
696
100
AcDbEntity
  8
M47
 62
     2
100
AcDbLine
 10
262.396909
 20
61.328128
 11
263.48731
 21
62.418529
  0
LINE
  5
697
100
AcDbEntity
  8
M47
 62
     2
100
AcDbLine
 10
262.396423
 20
61.32874
 11
263.486698
 21
62.419015
  0
LINE
  5
698
100
AcDbEntity
  8
M47
 62
     2
100
AcDbLine
 10
262.395937
 20
61.329352
 11
263.486086
 21
62.4195
  0
LINE
  5
699
100
AcDbEntity
  8
M47
 62
     2
100
AcDbLine
 10
262.395452
 20
61.329964
 11
263.485474
 21
62.419985
  0
LINE
  5
69A
100
AcDbEntity
  8
M47
 62
     2
100
AcDbLine
 10
262.394968
 20
61.330577
 11
263.484861
 21
62.42047
  0
LINE
  5
69B
100
AcDbEntity
  8
M47
 62
     2
100
AcDbLine
 10
262.394484
 20
61.331191
 11
263.484247
 21
62.420953
  0
LINE
  5
69C
100
AcDbEntity
  8
M47
 62
     2
100
AcDbLine
 10
262.394001
 20
61.331805
 11
263.483633
 21
62.421437
  0
LINE
  5
69D
100
AcDbEntity
  8
M47
 62
     2
100
AcDbLine
 10
262.393518
 20
61.33242
 11
263.483018
 21
62.421919
  0
LINE
  5
69E
100
AcDbEntity
  8
M47
 62
     2
100
AcDbLine
 10
262.393036
 20
61.333035
 11
263.482403
 21
62.422401
  0
LINE
  5
69F
100
AcDbEntity
  8
M47
 62
     2
100
AcDbLine
 10
262.392555
 20
61.333651
 11
263.481787
 21
62.422883
  0
LINE
  5
6A0
100
AcDbEntity
  8
M47
 62
     2
100
AcDbLine
 10
262.392074
 20
61.334267
 11
263.48117
 21
62.423364
  0
LINE
  5
6A1
100
AcDbEntity
  8
M47
 62
     2
100
AcDbLine
 10
262.391593
 20
61.334884
 11
263.480553
 21
62.423844
  0
LINE
  5
6A2
100
AcDbEntity
  8
M47
 62
     2
100
AcDbLine
 10
262.391113
 20
61.335502
 11
263.479936
 21
62.424324
  0
LINE
  5
6A3
100
AcDbEntity
  8
M47
 62
     2
100
AcDbLine
 10
262.390634
 20
61.33612
 11
263.479318
 21
62.424804
  0
LINE
  5
6A4
100
AcDbEntity
  8
M47
 62
     2
100
AcDbLine
 10
262.390155
 20
61.336739
 11
263.478699
 21
62.425282
  0
LINE
  5
6A5
100
AcDbEntity
  8
M47
 62
     2
100
AcDbLine
 10
262.389677
 20
61.337358
 11
263.47808
 21
62.42576
  0
LINE
  5
6A6
100
AcDbEntity
  8
M47
 62
     2
100
AcDbLine
 10
262.3892
 20
61.337978
 11
263.47746
 21
62.426238
  0
LINE
  5
6A7
100
AcDbEntity
  8
M47
 62
     2
100
AcDbLine
 10
262.388723
 20
61.338598
 11
263.47684
 21
62.426715
  0
LINE
  5
6A8
100
AcDbEntity
  8
M47
 62
     2
100
AcDbLine
 10
262.388246
 20
61.339219
 11
263.476219
 21
62.427192
  0
LINE
  5
6A9
100
AcDbEntity
  8
M47
 62
     2
100
AcDbLine
 10
262.38777
 20
61.339841
 11
263.475597
 21
62.427668
  0
LINE
  5
6AA
100
AcDbEntity
  8
M47
 62
     2
100
AcDbLine
 10
262.387295
 20
61.340463
 11
263.474975
 21
62.428143
  0
LINE
  5
6AB
100
AcDbEntity
  8
M47
 62
     2
100
AcDbLine
 10
262.38682
 20
61.341085
 11
263.474352
 21
62.428618
  0
LINE
  5
6AC
100
AcDbEntity
  8
M47
 62
     2
100
AcDbLine
 10
262.386346
 20
61.341709
 11
263.473729
 21
62.429092
  0
LINE
  5
6AD
100
AcDbEntity
  8
M47
 62
     2
100
AcDbLine
 10
262.385872
 20
61.342332
 11
263.473105
 21
62.429566
  0
LINE
  5
6AE
100
AcDbEntity
  8
M47
 62
     2
100
AcDbLine
 10
262.385399
 20
61.342957
 11
263.472481
 21
62.430039
  0
LINE
  5
6AF
100
AcDbEntity
  8
M47
 62
     2
100
AcDbLine
 10
262.384926
 20
61.343581
 11
263.471856
 21
62.430511
  0
LINE
  5
6B0
100
AcDbEntity
  8
M47
 62
     2
100
AcDbLine
 10
262.384454
 20
61.344207
 11
263.471231
 21
62.430983
  0
LINE
  5
6B1
100
AcDbEntity
  8
M47
 62
     2
100
AcDbLine
 10
262.383983
 20
61.344833
 11
263.470605
 21
62.431455
  0
LINE
  5
6B2
100
AcDbEntity
  8
M47
 62
     2
100
AcDbLine
 10
262.383512
 20
61.34546
 11
263.469978
 21
62.431926
  0
LINE
  5
6B3
100
AcDbEntity
  8
M47
 62
     2
100
AcDbLine
 10
262.383042
 20
61.346087
 11
263.469351
 21
62.432396
  0
LINE
  5
6B4
100
AcDbEntity
  8
M47
 62
     2
100
AcDbLine
 10
262.382572
 20
61.346714
 11
263.468723
 21
62.432866
  0
LINE
  5
6B5
100
AcDbEntity
  8
M47
 62
     2
100
AcDbLine
 10
262.382103
 20
61.347343
 11
263.468095
 21
62.433335
  0
LINE
  5
6B6
100
AcDbEntity
  8
M47
 62
     2
100
AcDbLine
 10
262.381634
 20
61.347972
 11
263.467466
 21
62.433803
  0
LINE
  5
6B7
100
AcDbEntity
  8
M47
 62
     2
100
AcDbLine
 10
262.381166
 20
61.348601
 11
263.466837
 21
62.434271
  0
LINE
  5
6B8
100
AcDbEntity
  8
M47
 62
     2
100
AcDbLine
 10
262.380699
 20
61.349231
 11
263.466207
 21
62.434739
  0
LINE
  5
6B9
100
AcDbEntity
  8
M47
 62
     2
100
AcDbLine
 10
262.380232
 20
61.349861
 11
263.465576
 21
62.435206
  0
LINE
  5
6BA
100
AcDbEntity
  8
M47
 62
     2
100
AcDbLine
 10
262.379766
 20
61.350493
 11
263.464945
 21
62.435672
  0
LINE
  5
6BB
100
AcDbEntity
  8
M47
 62
     2
100
AcDbLine
 10
262.3793
 20
61.351124
 11
263.464313
 21
62.436138
  0
LINE
  5
6BC
100
AcDbEntity
  8
M47
 62
     2
100
AcDbLine
 10
262.378835
 20
61.351757
 11
263.463681
 21
62.436603
  0
LINE
  5
6BD
100
AcDbEntity
  8
M47
 62
     2
100
AcDbLine
 10
262.37837
 20
61.352389
 11
263.463048
 21
62.437067
  0
LINE
  5
6BE
100
AcDbEntity
  8
M47
 62
     2
100
AcDbLine
 10
262.377906
 20
61.353023
 11
263.462415
 21
62.437532
  0
LINE
  5
6BF
100
AcDbEntity
  8
M47
 62
     2
100
AcDbLine
 10
262.377443
 20
61.353657
 11
263.461781
 21
62.437995
  0
LINE
  5
6C0
100
AcDbEntity
  8
M47
 62
     2
100
AcDbLine
 10
262.37698
 20
61.354291
 11
263.461147
 21
62.438458
  0
LINE
  5
6C1
100
AcDbEntity
  8
M47
 62
     2
100
AcDbLine
 10
262.376517
 20
61.354926
 11
263.460511
 21
62.43892
  0
LINE
  5
6C2
100
AcDbEntity
  8
M47
 62
     2
100
AcDbLine
 10
262.376056
 20
61.355562
 11
263.459876
 21
62.439382
  0
LINE
  5
6C3
100
AcDbEntity
  8
M47
 62
     2
100
AcDbLine
 10
262.375595
 20
61.356198
 11
263.45924
 21
62.439843
  0
LINE
  5
6C4
100
AcDbEntity
  8
M47
 62
     2
100
AcDbLine
 10
262.375134
 20
61.356835
 11
263.458603
 21
62.440304
  0
LINE
  5
6C5
100
AcDbEntity
  8
M47
 62
     2
100
AcDbLine
 10
262.374674
 20
61.357472
 11
263.457965
 21
62.440764
  0
LINE
  5
6C6
100
AcDbEntity
  8
M47
 62
     2
100
AcDbLine
 10
262.374214
 20
61.35811
 11
263.457327
 21
62.441223
  0
LINE
  5
6C7
100
AcDbEntity
  8
M47
 62
     2
100
AcDbLine
 10
262.373755
 20
61.358749
 11
263.456689
 21
62.441682
  0
LINE
  5
6C8
100
AcDbEntity
  8
M47
 62
     2
100
AcDbLine
 10
262.373297
 20
61.359388
 11
263.45605
 21
62.442141
  0
LINE
  5
6C9
100
AcDbEntity
  8
M47
 62
     2
100
AcDbLine
 10
262.372839
 20
61.360028
 11
263.45541
 21
62.442598
  0
LINE
  5
6CA
100
AcDbEntity
  8
M47
 62
     2
100
AcDbLine
 10
262.372382
 20
61.360668
 11
263.45477
 21
62.443056
  0
LINE
  5
6CB
100
AcDbEntity
  8
M47
 62
     2
100
AcDbLine
 10
262.371925
 20
61.361309
 11
263.454129
 21
62.443512
  0
LINE
  5
6CC
100
AcDbEntity
  8
M47
 62
     2
100
AcDbLine
 10
262.371469
 20
61.36195
 11
263.453488
 21
62.443968
  0
LINE
  5
6CD
100
AcDbEntity
  8
M47
 62
     2
100
AcDbLine
 10
262.371014
 20
61.362592
 11
263.452846
 21
62.444424
  0
LINE
  5
6CE
100
AcDbEntity
  8
M47
 62
     2
100
AcDbLine
 10
262.370559
 20
61.363234
 11
263.452203
 21
62.444879
  0
LINE
  5
6CF
100
AcDbEntity
  8
M47
 62
     2
100
AcDbLine
 10
262.370105
 20
61.363877
 11
263.45156
 21
62.445333
  0
LINE
  5
6D0
100
AcDbEntity
  8
M47
 62
     2
100
AcDbLine
 10
262.369651
 20
61.364521
 11
263.450917
 21
62.445787
  0
LINE
  5
6D1
100
AcDbEntity
  8
M47
 62
     2
100
AcDbLine
 10
262.369198
 20
61.365165
 11
263.450272
 21
62.44624
  0
LINE
  5
6D2
100
AcDbEntity
  8
M47
 62
     2
100
AcDbLine
 10
262.368745
 20
61.36581
 11
263.449628
 21
62.446693
  0
LINE
  5
6D3
100
AcDbEntity
  8
M47
 62
     2
100
AcDbLine
 10
262.368293
 20
61.366456
 11
263.448982
 21
62.447145
  0
LINE
  5
6D4
100
AcDbEntity
  8
M47
 62
     2
100
AcDbLine
 10
262.367842
 20
61.367101
 11
263.448336
 21
62.447596
  0
LINE
  5
6D5
100
AcDbEntity
  8
M47
 62
     2
100
AcDbLine
 10
262.367391
 20
61.367748
 11
263.44769
 21
62.448047
  0
LINE
  5
6D6
100
AcDbEntity
  8
M47
 62
     2
100
AcDbLine
 10
262.36694
 20
61.368395
 11
263.447043
 21
62.448497
  0
LINE
  5
6D7
100
AcDbEntity
  8
M47
 62
     2
100
AcDbLine
 10
262.366491
 20
61.369043
 11
263.446395
 21
62.448947
  0
LINE
  5
6D8
100
AcDbEntity
  8
M47
 62
     2
100
AcDbLine
 10
262.366041
 20
61.369691
 11
263.445747
 21
62.449396
  0
LINE
  5
6D9
100
AcDbEntity
  8
M47
 62
     2
100
AcDbLine
 10
262.365593
 20
61.37034
 11
263.445098
 21
62.449845
  0
LINE
  5
6DA
100
AcDbEntity
  8
M47
 62
     2
100
AcDbLine
 10
262.365145
 20
61.370989
 11
263.444448
 21
62.450293
  0
LINE
  5
6DB
100
AcDbEntity
  8
M47
 62
     2
100
AcDbLine
 10
262.364697
 20
61.371639
 11
263.443798
 21
62.45074
  0
LINE
  5
6DC
100
AcDbEntity
  8
M47
 62
     2
100
AcDbLine
 10
262.36425
 20
61.37229
 11
263.443148
 21
62.451187
  0
LINE
  5
6DD
100
AcDbEntity
  8
M47
 62
     2
100
AcDbLine
 10
262.363804
 20
61.372941
 11
263.442497
 21
62.451634
  0
LINE
  5
6DE
100
AcDbEntity
  8
M47
 62
     2
100
AcDbLine
 10
262.363359
 20
61.373593
 11
263.441845
 21
62.452079
  0
LINE
  5
6DF
100
AcDbEntity
  8
M47
 62
     2
100
AcDbLine
 10
262.362913
 20
61.374245
 11
263.441193
 21
62.452524
  0
LINE
  5
6E0
100
AcDbEntity
  8
M47
 62
     2
100
AcDbLine
 10
262.362469
 20
61.374898
 11
263.44054
 21
62.452969
  0
LINE
  5
6E1
100
AcDbEntity
  8
M47
 62
     2
100
AcDbLine
 10
262.362025
 20
61.375551
 11
263.439886
 21
62.453413
  0
LINE
  5
6E2
100
AcDbEntity
  8
M47
 62
     2
100
AcDbLine
 10
262.361581
 20
61.376205
 11
263.439232
 21
62.453856
  0
LINE
  5
6E3
100
AcDbEntity
  8
M47
 62
     2
100
AcDbLine
 10
262.361139
 20
61.37686
 11
263.438578
 21
62.454299
  0
LINE
  5
6E4
100
AcDbEntity
  8
M47
 62
     2
100
AcDbLine
 10
262.360696
 20
61.377515
 11
263.437923
 21
62.454741
  0
LINE
  5
6E5
100
AcDbEntity
  8
M47
 62
     2
100
AcDbLine
 10
262.360255
 20
61.378171
 11
263.437267
 21
62.455183
  0
LINE
  5
6E6
100
AcDbEntity
  8
M47
 62
     2
100
AcDbLine
 10
262.359814
 20
61.378827
 11
263.43661
 21
62.455624
  0
LINE
  5
6E7
100
AcDbEntity
  8
M47
 62
     2
100
AcDbLine
 10
262.359373
 20
61.379484
 11
263.435953
 21
62.456065
  0
LINE
  5
6E8
100
AcDbEntity
  8
M47
 62
     2
100
AcDbLine
 10
262.358933
 20
61.380142
 11
263.435296
 21
62.456504
  0
LINE
  5
6E9
100
AcDbEntity
  8
M47
 62
     2
100
AcDbLine
 10
262.358494
 20
61.3808
 11
263.434638
 21
62.456944
  0
LINE
  5
6EA
100
AcDbEntity
  8
M47
 62
     2
100
AcDbLine
 10
262.358055
 20
61.381459
 11
263.433979
 21
62.457383
  0
LINE
  5
6EB
100
AcDbEntity
  8
M47
 62
     2
100
AcDbLine
 10
262.357617
 20
61.382118
 11
263.43332
 21
62.457821
  0
LINE
  5
6EC
100
AcDbEntity
  8
M47
 62
     2
100
AcDbLine
 10
262.357179
 20
61.382778
 11
263.43266
 21
62.458258
  0
LINE
  5
6ED
100
AcDbEntity
  8
M47
 62
     2
100
AcDbLine
 10
262.356742
 20
61.383438
 11
263.432
 21
62.458695
  0
LINE
  5
6EE
100
AcDbEntity
  8
M47
 62
     2
100
AcDbLine
 10
262.356306
 20
61.384099
 11
263.431339
 21
62.459132
  0
LINE
  5
6EF
100
AcDbEntity
  8
M47
 62
     2
100
AcDbLine
 10
262.35587
 20
61.384761
 11
263.430677
 21
62.459568
  0
LINE
  5
6F0
100
AcDbEntity
  8
M47
 62
     2
100
AcDbLine
 10
262.355435
 20
61.385423
 11
263.430015
 21
62.460003
  0
LINE
  5
6F1
100
AcDbEntity
  8
M47
 62
     2
100
AcDbLine
 10
262.355
 20
61.386086
 11
263.429352
 21
62.460437
  0
LINE
  5
6F2
100
AcDbEntity
  8
M47
 62
     2
100
AcDbLine
 10
262.354566
 20
61.386749
 11
263.428689
 21
62.460872
  0
LINE
  5
6F3
100
AcDbEntity
  8
M47
 62
     2
100
AcDbLine
 10
262.354133
 20
61.387413
 11
263.428025
 21
62.461305
  0
LINE
  5
6F4
100
AcDbEntity
  8
M47
 62
     2
100
AcDbLine
 10
262.3537
 20
61.388077
 11
263.42736
 21
62.461738
  0
LINE
  5
6F5
100
AcDbEntity
  8
M47
 62
     2
100
AcDbLine
 10
262.353267
 20
61.388743
 11
263.426695
 21
62.46217
  0
LINE
  5
6F6
100
AcDbEntity
  8
M47
 62
     2
100
AcDbLine
 10
262.352836
 20
61.389408
 11
263.426029
 21
62.462602
  0
LINE
  5
6F7
100
AcDbEntity
  8
M47
 62
     2
100
AcDbLine
 10
262.352405
 20
61.390075
 11
263.425363
 21
62.463033
  0
LINE
  5
6F8
100
AcDbEntity
  8
M47
 62
     2
100
AcDbLine
 10
262.351974
 20
61.390741
 11
263.424696
 21
62.463464
  0
LINE
  5
6F9
100
AcDbEntity
  8
M47
 62
     2
100
AcDbLine
 10
262.351544
 20
61.391409
 11
263.424029
 21
62.463894
  0
LINE
  5
6FA
100
AcDbEntity
  8
M47
 62
     2
100
AcDbLine
 10
262.351115
 20
61.392077
 11
263.423361
 21
62.464323
  0
LINE
  5
6FB
100
AcDbEntity
  8
M47
 62
     2
100
AcDbLine
 10
262.350686
 20
61.392746
 11
263.422692
 21
62.464752
  0
LINE
  5
6FC
100
AcDbEntity
  8
M47
 62
     2
100
AcDbLine
 10
262.350258
 20
61.393415
 11
263.422023
 21
62.46518
  0
LINE
  5
6FD
100
AcDbEntity
  8
M47
 62
     2
100
AcDbLine
 10
262.34983
 20
61.394085
 11
263.421353
 21
62.465608
  0
LINE
  5
6FE
100
AcDbEntity
  8
M47
 62
     2
100
AcDbLine
 10
262.349403
 20
61.394755
 11
263.420683
 21
62.466035
  0
LINE
  5
6FF
100
AcDbEntity
  8
M47
 62
     2
100
AcDbLine
 10
262.348977
 20
61.395426
 11
263.420012
 21
62.466461
  0
LINE
  5
700
100
AcDbEntity
  8
M47
 62
     2
100
AcDbLine
 10
262.348551
 20
61.396098
 11
263.41934
 21
62.466887
  0
LINE
  5
701
100
AcDbEntity
  8
M47
 62
     2
100
AcDbLine
 10
262.348125
 20
61.39677
 11
263.418668
 21
62.467312
  0
LINE
  5
702
100
AcDbEntity
  8
M47
 62
     2
100
AcDbLine
 10
262.347701
 20
61.397442
 11
263.417995
 21
62.467737
  0
LINE
  5
703
100
AcDbEntity
  8
M47
 62
     2
100
AcDbLine
 10
262.347277
 20
61.398116
 11
263.417322
 21
62.468161
  0
LINE
  5
704
100
AcDbEntity
  8
M47
 62
     2
100
AcDbLine
 10
262.346853
 20
61.39879
 11
263.416648
 21
62.468585
  0
LINE
  5
705
100
AcDbEntity
  8
M47
 62
     2
100
AcDbLine
 10
262.34643
 20
61.399464
 11
263.415973
 21
62.469007
  0
LINE
  5
706
100
AcDbEntity
  8
M47
 62
     2
100
AcDbLine
 10
262.346008
 20
61.400139
 11
263.415298
 21
62.46943
  0
LINE
  5
707
100
AcDbEntity
  8
M47
 62
     2
100
AcDbLine
 10
262.345586
 20
61.400815
 11
263.414623
 21
62.469851
  0
LINE
  5
708
100
AcDbEntity
  8
M47
 62
     2
100
AcDbLine
 10
262.345165
 20
61.401491
 11
263.413946
 21
62.470273
  0
LINE
  5
709
100
AcDbEntity
  8
M47
 62
     2
100
AcDbLine
 10
262.344745
 20
61.402168
 11
263.413269
 21
62.470693
  0
LINE
  5
70A
100
AcDbEntity
  8
M47
 62
     2
100
AcDbLine
 10
262.344325
 20
61.402846
 11
263.412592
 21
62.471113
  0
LINE
  5
70B
100
AcDbEntity
  8
M47
 62
     2
100
AcDbLine
 10
262.343905
 20
61.403524
 11
263.411914
 21
62.471532
  0
LINE
  5
70C
100
AcDbEntity
  8
M47
 62
     2
100
AcDbLine
 10
262.343487
 20
61.404203
 11
263.411235
 21
62.471951
  0
LINE
  5
70D
100
AcDbEntity
  8
M47
 62
     2
100
AcDbLine
 10
262.343069
 20
61.404882
 11
263.410556
 21
62.472369
  0
LINE
  5
70E
100
AcDbEntity
  8
M47
 62
     2
100
AcDbLine
 10
262.342651
 20
61.405562
 11
263.409876
 21
62.472787
  0
LINE
  5
70F
100
AcDbEntity
  8
M47
 62
     2
100
AcDbLine
 10
262.342234
 20
61.406242
 11
263.409195
 21
62.473204
  0
LINE
  5
710
100
AcDbEntity
  8
M47
 62
     2
100
AcDbLine
 10
262.341818
 20
61.406923
 11
263.408514
 21
62.47362
  0
LINE
  5
711
100
AcDbEntity
  8
M47
 62
     2
100
AcDbLine
 10
262.341402
 20
61.407605
 11
263.407833
 21
62.474036
  0
LINE
  5
712
100
AcDbEntity
  8
M47
 62
     2
100
AcDbLine
 10
262.340987
 20
61.408287
 11
263.40715
 21
62.474451
  0
LINE
  5
713
100
AcDbEntity
  8
M47
 62
     2
100
AcDbLine
 10
262.340572
 20
61.40897
 11
263.406467
 21
62.474866
  0
LINE
  5
714
100
AcDbEntity
  8
M47
 62
     2
100
AcDbLine
 10
262.340158
 20
61.409654
 11
263.405784
 21
62.475279
  0
LINE
  5
715
100
AcDbEntity
  8
M47
 62
     2
100
AcDbLine
 10
262.339745
 20
61.410338
 11
263.4051
 21
62.475693
  0
LINE
  5
716
100
AcDbEntity
  8
M47
 62
     2
100
AcDbLine
 10
262.339332
 20
61.411022
 11
263.404415
 21
62.476106
  0
LINE
  5
717
100
AcDbEntity
  8
M47
 62
     2
100
AcDbLine
 10
262.33892
 20
61.411708
 11
263.40373
 21
62.476518
  0
LINE
  5
718
100
AcDbEntity
  8
M47
 62
     2
100
AcDbLine
 10
262.338508
 20
61.412394
 11
263.403044
 21
62.476929
  0
LINE
  5
719
100
AcDbEntity
  8
M47
 62
     2
100
AcDbLine
 10
262.338097
 20
61.41308
 11
263.402358
 21
62.47734
  0
LINE
  5
71A
100
AcDbEntity
  8
M47
 62
     2
100
AcDbLine
 10
262.337687
 20
61.413767
 11
263.401671
 21
62.477751
  0
LINE
  5
71B
100
AcDbEntity
  8
M47
 62
     2
100
AcDbLine
 10
262.337277
 20
61.414455
 11
263.400983
 21
62.47816
  0
LINE
  5
71C
100
AcDbEntity
  8
M47
 62
     2
100
AcDbLine
 10
262.336868
 20
61.415143
 11
263.400295
 21
62.47857
  0
LINE
  5
71D
100
AcDbEntity
  8
M47
 62
     2
100
AcDbLine
 10
262.33646
 20
61.415832
 11
263.399606
 21
62.478978
  0
LINE
  5
71E
100
AcDbEntity
  8
M47
 62
     2
100
AcDbLine
 10
262.336052
 20
61.416521
 11
263.398916
 21
62.479386
  0
LINE
  5
71F
100
AcDbEntity
  8
M47
 62
     2
100
AcDbLine
 10
262.335644
 20
61.417212
 11
263.398226
 21
62.479793
  0
LINE
  5
720
100
AcDbEntity
  8
M47
 62
     2
100
AcDbLine
 10
262.335238
 20
61.417902
 11
263.397535
 21
62.4802
  0
LINE
  5
721
100
AcDbEntity
  8
M47
 62
     2
100
AcDbLine
 10
262.334832
 20
61.418594
 11
263.396844
 21
62.480606
  0
LINE
  5
722
100
AcDbEntity
  8
M47
 62
     2
100
AcDbLine
 10
262.334426
 20
61.419285
 11
263.396152
 21
62.481012
  0
LINE
  5
723
100
AcDbEntity
  8
M47
 62
     2
100
AcDbLine
 10
262.334021
 20
61.419978
 11
263.39546
 21
62.481417
  0
LINE
  5
724
100
AcDbEntity
  8
M47
 62
     2
100
AcDbLine
 10
262.333617
 20
61.420671
 11
263.394767
 21
62.481821
  0
LINE
  5
725
100
AcDbEntity
  8
M47
 62
     2
100
AcDbLine
 10
262.333213
 20
61.421365
 11
263.394073
 21
62.482225
  0
LINE
  5
726
100
AcDbEntity
  8
M47
 62
     2
100
AcDbLine
 10
262.33281
 20
61.422059
 11
263.393379
 21
62.482628
  0
LINE
  5
727
100
AcDbEntity
  8
M47
 62
     2
100
AcDbLine
 10
262.332407
 20
61.422754
 11
263.392684
 21
62.48303
  0
LINE
  5
728
100
AcDbEntity
  8
M47
 62
     2
100
AcDbLine
 10
262.332006
 20
61.42345
 11
263.391988
 21
62.483432
  0
LINE
  5
729
100
AcDbEntity
  8
M47
 62
     2
100
AcDbLine
 10
262.331604
 20
61.424146
 11
263.391292
 21
62.483833
  0
LINE
  5
72A
100
AcDbEntity
  8
M47
 62
     2
100
AcDbLine
 10
262.331204
 20
61.424843
 11
263.390595
 21
62.484234
  0
LINE
  5
72B
100
AcDbEntity
  8
M47
 62
     2
100
AcDbLine
 10
262.330804
 20
61.42554
 11
263.389898
 21
62.484634
  0
LINE
  5
72C
100
AcDbEntity
  8
M47
 62
     2
100
AcDbLine
 10
262.330404
 20
61.426238
 11
263.3892
 21
62.485034
  0
LINE
  5
72D
100
AcDbEntity
  8
M47
 62
     2
100
AcDbLine
 10
262.330005
 20
61.426937
 11
263.388501
 21
62.485432
  0
LINE
  5
72E
100
AcDbEntity
  8
M47
 62
     2
100
AcDbLine
 10
262.329607
 20
61.427636
 11
263.387802
 21
62.485831
  0
LINE
  5
72F
100
AcDbEntity
  8
M47
 62
     2
100
AcDbLine
 10
262.32921
 20
61.428336
 11
263.387102
 21
62.486228
  0
LINE
  5
730
100
AcDbEntity
  8
M47
 62
     2
100
AcDbLine
 10
262.328813
 20
61.429036
 11
263.386402
 21
62.486625
  0
LINE
  5
731
100
AcDbEntity
  8
M47
 62
     2
100
AcDbLine
 10
262.328416
 20
61.429737
 11
263.385701
 21
62.487022
  0
LINE
  5
732
100
AcDbEntity
  8
M47
 62
     2
100
AcDbLine
 10
262.32802
 20
61.430439
 11
263.384999
 21
62.487417
  0
LINE
  5
733
100
AcDbEntity
  8
M47
 62
     2
100
AcDbLine
 10
262.327625
 20
61.431141
 11
263.384297
 21
62.487813
  0
LINE
  5
734
100
AcDbEntity
  8
M47
 62
     2
100
AcDbLine
 10
262.327231
 20
61.431844
 11
263.383594
 21
62.488207
  0
LINE
  5
735
100
AcDbEntity
  8
M47
 62
     2
100
AcDbLine
 10
262.326837
 20
61.432547
 11
263.38289
 21
62.488601
  0
LINE
  5
736
100
AcDbEntity
  8
M47
 62
     2
100
AcDbLine
 10
262.326443
 20
61.433251
 11
263.382186
 21
62.488994
  0
LINE
  5
737
100
AcDbEntity
  8
M47
 62
     2
100
AcDbLine
 10
262.326051
 20
61.433956
 11
263.381482
 21
62.489387
  0
LINE
  5
738
100
AcDbEntity
  8
M47
 62
     2
100
AcDbLine
 10
262.325659
 20
61.434662
 11
263.380776
 21
62.489779
  0
LINE
  5
739
100
AcDbEntity
  8
M47
 62
     2
100
AcDbLine
 10
262.325267
 20
61.435368
 11
263.38007
 21
62.490171
  0
LINE
  5
73A
100
AcDbEntity
  8
M47
 62
     2
100
AcDbLine
 10
262.324876
 20
61.436074
 11
263.379364
 21
62.490561
  0
LINE
  5
73B
100
AcDbEntity
  8
M47
 62
     2
100
AcDbLine
 10
262.324486
 20
61.436781
 11
263.378656
 21
62.490952
  0
LINE
  5
73C
100
AcDbEntity
  8
M47
 62
     2
100
AcDbLine
 10
262.324097
 20
61.437489
 11
263.377949
 21
62.491341
  0
LINE
  5
73D
100
AcDbEntity
  8
M47
 62
     2
100
AcDbLine
 10
262.323708
 20
61.438198
 11
263.37724
 21
62.49173
  0
LINE
  5
73E
100
AcDbEntity
  8
M47
 62
     2
100
AcDbLine
 10
262.323319
 20
61.438907
 11
263.376531
 21
62.492119
  0
LINE
  5
73F
100
AcDbEntity
  8
M47
 62
     2
100
AcDbLine
 10
262.322931
 20
61.439616
 11
263.375821
 21
62.492506
  0
LINE
  5
740
100
AcDbEntity
  8
M47
 62
     2
100
AcDbLine
 10
262.322544
 20
61.440327
 11
263.375111
 21
62.492893
  0
LINE
  5
741
100
AcDbEntity
  8
M47
 62
     2
100
AcDbLine
 10
262.322158
 20
61.441038
 11
263.3744
 21
62.49328
  0
LINE
  5
742
100
AcDbEntity
  8
M47
 62
     2
100
AcDbLine
 10
262.321772
 20
61.441749
 11
263.373689
 21
62.493666
  0
LINE
  5
743
100
AcDbEntity
  8
M47
 62
     2
100
AcDbLine
 10
262.321387
 20
61.442461
 11
263.372976
 21
62.494051
  0
LINE
  5
744
100
AcDbEntity
  8
M47
 62
     2
100
AcDbLine
 10
262.321002
 20
61.443174
 11
263.372264
 21
62.494436
  0
LINE
  5
745
100
AcDbEntity
  8
M47
 62
     2
100
AcDbLine
 10
262.320618
 20
61.443888
 11
263.37155
 21
62.49482
  0
LINE
  5
746
100
AcDbEntity
  8
M47
 62
     2
100
AcDbLine
 10
262.320235
 20
61.444602
 11
263.370836
 21
62.495203
  0
LINE
  5
747
100
AcDbEntity
  8
M47
 62
     2
100
AcDbLine
 10
262.319852
 20
61.445316
 11
263.370121
 21
62.495586
  0
LINE
  5
748
100
AcDbEntity
  8
M47
 62
     2
100
AcDbLine
 10
262.31947
 20
61.446032
 11
263.369406
 21
62.495968
  0
LINE
  5
749
100
AcDbEntity
  8
M47
 62
     2
100
AcDbLine
 10
262.319088
 20
61.446748
 11
263.36869
 21
62.496349
  0
LINE
  5
74A
100
AcDbEntity
  8
M47
 62
     2
100
AcDbLine
 10
262.318707
 20
61.447464
 11
263.367974
 21
62.49673
  0
LINE
  5
74B
100
AcDbEntity
  8
M47
 62
     2
100
AcDbLine
 10
262.318327
 20
61.448181
 11
263.367256
 21
62.497111
  0
LINE
  5
74C
100
AcDbEntity
  8
M47
 62
     2
100
AcDbLine
 10
262.317948
 20
61.448899
 11
263.366539
 21
62.49749
  0
LINE
  5
74D
100
AcDbEntity
  8
M47
 62
     2
100
AcDbLine
 10
262.317569
 20
61.449618
 11
263.36582
 21
62.497869
  0
LINE
  5
74E
100
AcDbEntity
  8
M47
 62
     2
100
AcDbLine
 10
262.31719
 20
61.450337
 11
263.365101
 21
62.498248
  0
LINE
  5
74F
100
AcDbEntity
  8
M47
 62
     2
100
AcDbLine
 10
262.316812
 20
61.451056
 11
263.364381
 21
62.498625
  0
LINE
  5
750
100
AcDbEntity
  8
M47
 62
     2
100
AcDbLine
 10
262.316435
 20
61.451777
 11
263.363661
 21
62.499002
  0
LINE
  5
751
100
AcDbEntity
  8
M47
 62
     2
100
AcDbLine
 10
262.316059
 20
61.452498
 11
263.36294
 21
62.499379
  0
LINE
  5
752
100
AcDbEntity
  8
M47
 62
     2
100
AcDbLine
 10
262.315683
 20
61.453219
 11
263.362219
 21
62.499755
  0
LINE
  5
753
100
AcDbEntity
  8
M47
 62
     2
100
AcDbLine
 10
262.315308
 20
61.453941
 11
263.361496
 21
62.50013
  0
LINE
  5
754
100
AcDbEntity
  8
M47
 62
     2
100
AcDbLine
 10
262.314933
 20
61.454664
 11
263.360773
 21
62.500504
  0
LINE
  5
755
100
AcDbEntity
  8
M47
 62
     2
100
AcDbLine
 10
262.314559
 20
61.455388
 11
263.36005
 21
62.500878
  0
LINE
  5
756
100
AcDbEntity
  8
M47
 62
     2
100
AcDbLine
 10
262.314186
 20
61.456112
 11
263.359326
 21
62.501252
  0
LINE
  5
757
100
AcDbEntity
  8
M47
 62
     2
100
AcDbLine
 10
262.313813
 20
61.456837
 11
263.358601
 21
62.501624
  0
LINE
  5
758
100
AcDbEntity
  8
M47
 62
     2
100
AcDbLine
 10
262.313441
 20
61.457562
 11
263.357876
 21
62.501996
  0
LINE
  5
759
100
AcDbEntity
  8
M47
 62
     2
100
AcDbLine
 10
262.31307
 20
61.458288
 11
263.35715
 21
62.502368
  0
LINE
  5
75A
100
AcDbEntity
  8
M47
 62
     2
100
AcDbLine
 10
262.312699
 20
61.459015
 11
263.356423
 21
62.502739
  0
LINE
  5
75B
100
AcDbEntity
  8
M47
 62
     2
100
AcDbLine
 10
262.312329
 20
61.459742
 11
263.355696
 21
62.503109
  0
LINE
  5
75C
100
AcDbEntity
  8
M47
 62
     2
100
AcDbLine
 10
262.31196
 20
61.46047
 11
263.354968
 21
62.503478
  0
LINE
  5
75D
100
AcDbEntity
  8
M47
 62
     2
100
AcDbLine
 10
262.311591
 20
61.461199
 11
263.354239
 21
62.503847
  0
LINE
  5
75E
100
AcDbEntity
  8
M47
 62
     2
100
AcDbLine
 10
262.311223
 20
61.461928
 11
263.35351
 21
62.504215
  0
LINE
  5
75F
100
AcDbEntity
  8
M47
 62
     2
100
AcDbLine
 10
262.310855
 20
61.462658
 11
263.35278
 21
62.504583
  0
LINE
  5
760
100
AcDbEntity
  8
M47
 62
     2
100
AcDbLine
 10
262.310488
 20
61.463388
 11
263.35205
 21
62.50495
  0
LINE
  5
761
100
AcDbEntity
  8
M47
 62
     2
100
AcDbLine
 10
262.310122
 20
61.464119
 11
263.351318
 21
62.505316
  0
LINE
  5
762
100
AcDbEntity
  8
M47
 62
     2
100
AcDbLine
 10
262.309756
 20
61.464851
 11
263.350587
 21
62.505682
  0
LINE
  5
763
100
AcDbEntity
  8
M47
 62
     2
100
AcDbLine
 10
262.309391
 20
61.465584
 11
263.349854
 21
62.506047
  0
LINE
  5
764
100
AcDbEntity
  8
M47
 62
     2
100
AcDbLine
 10
262.309027
 20
61.466317
 11
263.349121
 21
62.506411
  0
LINE
  5
765
100
AcDbEntity
  8
M47
 62
     2
100
AcDbLine
 10
262.308663
 20
61.46705
 11
263.348387
 21
62.506775
  0
LINE
  5
766
100
AcDbEntity
  8
M47
 62
     2
100
AcDbLine
 10
262.3083
 20
61.467785
 11
263.347653
 21
62.507138
  0
LINE
  5
767
100
AcDbEntity
  8
M47
 62
     2
100
AcDbLine
 10
262.307938
 20
61.46852
 11
263.346918
 21
62.5075
  0
LINE
  5
768
100
AcDbEntity
  8
M47
 62
     2
100
AcDbLine
 10
262.307576
 20
61.469255
 11
263.346182
 21
62.507862
  0
LINE
  5
769
100
AcDbEntity
  8
M47
 62
     2
100
AcDbLine
 10
262.307215
 20
61.469992
 11
263.345446
 21
62.508223
  0
LINE
  5
76A
100
AcDbEntity
  8
M47
 62
     2
100
AcDbLine
 10
262.306854
 20
61.470729
 11
263.344709
 21
62.508583
  0
LINE
  5
76B
100
AcDbEntity
  8
M47
 62
     2
100
AcDbLine
 10
262.306494
 20
61.471466
 11
263.343971
 21
62.508943
  0
LINE
  5
76C
100
AcDbEntity
  8
M47
 62
     2
100
AcDbLine
 10
262.306135
 20
61.472205
 11
263.343233
 21
62.509302
  0
LINE
  5
76D
100
AcDbEntity
  8
M47
 62
     2
100
AcDbLine
 10
262.305777
 20
61.472943
 11
263.342494
 21
62.509661
  0
LINE
  5
76E
100
AcDbEntity
  8
M47
 62
     2
100
AcDbLine
 10
262.305419
 20
61.473683
 11
263.341755
 21
62.510019
  0
LINE
  5
76F
100
AcDbEntity
  8
M47
 62
     2
100
AcDbLine
 10
262.305062
 20
61.474423
 11
263.341014
 21
62.510376
  0
LINE
  5
770
100
AcDbEntity
  8
M47
 62
     2
100
AcDbLine
 10
262.304705
 20
61.475164
 11
263.340274
 21
62.510733
  0
LINE
  5
771
100
AcDbEntity
  8
M47
 62
     2
100
AcDbLine
 10
262.304349
 20
61.475906
 11
263.339532
 21
62.511088
  0
LINE
  5
772
100
AcDbEntity
  8
M47
 62
     2
100
AcDbLine
 10
262.303994
 20
61.476648
 11
263.33879
 21
62.511444
  0
LINE
  5
773
100
AcDbEntity
  8
M47
 62
     2
100
AcDbLine
 10
262.303639
 20
61.477391
 11
263.338047
 21
62.511798
  0
LINE
  5
774
100
AcDbEntity
  8
M47
 62
     2
100
AcDbLine
 10
262.303285
 20
61.478134
 11
263.337304
 21
62.512152
  0
LINE
  5
775
100
AcDbEntity
  8
M47
 62
     2
100
AcDbLine
 10
262.302932
 20
61.478878
 11
263.336559
 21
62.512506
  0
LINE
  5
776
100
AcDbEntity
  8
M47
 62
     2
100
AcDbLine
 10
262.302579
 20
61.479623
 11
263.335815
 21
62.512858
  0
LINE
  5
777
100
AcDbEntity
  8
M47
 62
     2
100
AcDbLine
 10
262.302228
 20
61.480368
 11
263.335069
 21
62.51321
  0
LINE
  5
778
100
AcDbEntity
  8
M47
 62
     2
100
AcDbLine
 10
262.301876
 20
61.481115
 11
263.334323
 21
62.513562
  0
LINE
  5
779
100
AcDbEntity
  8
M47
 62
     2
100
AcDbLine
 10
262.301526
 20
61.481861
 11
263.333576
 21
62.513912
  0
LINE
  5
77A
100
AcDbEntity
  8
M47
 62
     2
100
AcDbLine
 10
262.301176
 20
61.482609
 11
263.332829
 21
62.514262
  0
LINE
  5
77B
100
AcDbEntity
  8
M47
 62
     2
100
AcDbLine
 10
262.300826
 20
61.483357
 11
263.332081
 21
62.514612
  0
LINE
  5
77C
100
AcDbEntity
  8
M47
 62
     2
100
AcDbLine
 10
262.300477
 20
61.484106
 11
263.331332
 21
62.51496
  0
LINE
  5
77D
100
AcDbEntity
  8
M47
 62
     2
100
AcDbLine
 10
262.300129
 20
61.484855
 11
263.330583
 21
62.515308
  0
LINE
  5
77E
100
AcDbEntity
  8
M47
 62
     2
100
AcDbLine
 10
262.299782
 20
61.485605
 11
263.329833
 21
62.515656
  0
LINE
  5
77F
100
AcDbEntity
  8
M47
 62
     2
100
AcDbLine
 10
262.299435
 20
61.486356
 11
263.329082
 21
62.516002
  0
LINE
  5
780
100
AcDbEntity
  8
M47
 62
     2
100
AcDbLine
 10
262.299089
 20
61.487107
 11
263.32833
 21
62.516348
  0
LINE
  5
781
100
AcDbEntity
  8
M47
 62
     2
100
AcDbLine
 10
262.298744
 20
61.487859
 11
263.327578
 21
62.516694
  0
LINE
  5
782
100
AcDbEntity
  8
M47
 62
     2
100
AcDbLine
 10
262.298399
 20
61.488612
 11
263.326826
 21
62.517038
  0
LINE
  5
783
100
AcDbEntity
  8
M47
 62
     2
100
AcDbLine
 10
262.298055
 20
61.489365
 11
263.326072
 21
62.517382
  0
LINE
  5
784
100
AcDbEntity
  8
M47
 62
     2
100
AcDbLine
 10
262.297712
 20
61.49012
 11
263.325318
 21
62.517726
  0
LINE
  5
785
100
AcDbEntity
  8
M47
 62
     2
100
AcDbLine
 10
262.297369
 20
61.490874
 11
263.324563
 21
62.518068
  0
LINE
  5
786
100
AcDbEntity
  8
M47
 62
     2
100
AcDbLine
 10
262.297027
 20
61.49163
 11
263.323808
 21
62.518411
  0
LINE
  5
787
100
AcDbEntity
  8
M47
 62
     2
100
AcDbLine
 10
262.296686
 20
61.492386
 11
263.323052
 21
62.518752
  0
LINE
  5
788
100
AcDbEntity
  8
M47
 62
     2
100
AcDbLine
 10
262.296345
 20
61.493142
 11
263.322295
 21
62.519093
  0
LINE
  5
789
100
AcDbEntity
  8
M47
 62
     2
100
AcDbLine
 10
262.296005
 20
61.4939
 11
263.321538
 21
62.519433
  0
LINE
  5
78A
100
AcDbEntity
  8
M47
 62
     2
100
AcDbLine
 10
262.295666
 20
61.494658
 11
263.32078
 21
62.519772
  0
LINE
  5
78B
100
AcDbEntity
  8
M47
 62
     2
100
AcDbLine
 10
262.295327
 20
61.495417
 11
263.320021
 21
62.520111
  0
LINE
  5
78C
100
AcDbEntity
  8
M47
 62
     2
100
AcDbLine
 10
262.294989
 20
61.496176
 11
263.319262
 21
62.520449
  0
LINE
  5
78D
100
AcDbEntity
  8
M47
 62
     2
100
AcDbLine
 10
262.294652
 20
61.496936
 11
263.318501
 21
62.520786
  0
LINE
  5
78E
100
AcDbEntity
  8
M47
 62
     2
100
AcDbLine
 10
262.294315
 20
61.497697
 11
263.317741
 21
62.521123
  0
LINE
  5
78F
100
AcDbEntity
  8
M47
 62
     2
100
AcDbLine
 10
262.293979
 20
61.498459
 11
263.316979
 21
62.521458
  0
LINE
  5
790
100
AcDbEntity
  8
M47
 62
     2
100
AcDbLine
 10
262.293644
 20
61.499221
 11
263.316217
 21
62.521794
  0
LINE
  5
791
100
AcDbEntity
  8
M47
 62
     2
100
AcDbLine
 10
262.293309
 20
61.499983
 11
263.315454
 21
62.522128
  0
LINE
  5
792
100
AcDbEntity
  8
M47
 62
     2
100
AcDbLine
 10
262.292975
 20
61.500747
 11
263.314691
 21
62.522462
  0
LINE
  5
793
100
AcDbEntity
  8
M47
 62
     2
100
AcDbLine
 10
262.292642
 20
61.501511
 11
263.313927
 21
62.522796
  0
LINE
  5
794
100
AcDbEntity
  8
M47
 62
     2
100
AcDbLine
 10
262.29231
 20
61.502276
 11
263.313162
 21
62.523128
  0
LINE
  5
795
100
AcDbEntity
  8
M47
 62
     2
100
AcDbLine
 10
262.291978
 20
61.503042
 11
263.312396
 21
62.52346
  0
LINE
  5
796
100
AcDbEntity
  8
M47
 62
     2
100
AcDbLine
 10
262.291646
 20
61.503808
 11
263.31163
 21
62.523791
  0
LINE
  5
797
100
AcDbEntity
  8
M47
 62
     2
100
AcDbLine
 10
262.291316
 20
61.504575
 11
263.310863
 21
62.524122
  0
LINE
  5
798
100
AcDbEntity
  8
M47
 62
     2
100
AcDbLine
 10
262.290986
 20
61.505342
 11
263.310095
 21
62.524452
  0
LINE
  5
799
100
AcDbEntity
  8
M47
 62
     2
100
AcDbLine
 10
262.290657
 20
61.506111
 11
263.309327
 21
62.524781
  0
LINE
  5
79A
100
AcDbEntity
  8
M47
 62
     2
100
AcDbLine
 10
262.290328
 20
61.50688
 11
263.308558
 21
62.525109
  0
LINE
  5
79B
100
AcDbEntity
  8
M47
 62
     2
100
AcDbLine
 10
262.290001
 20
61.507649
 11
263.307789
 21
62.525437
  0
LINE
  5
79C
100
AcDbEntity
  8
M47
 62
     2
100
AcDbLine
 10
262.289674
 20
61.50842
 11
263.307018
 21
62.525764
  0
LINE
  5
79D
100
AcDbEntity
  8
M47
 62
     2
100
AcDbLine
 10
262.289347
 20
61.509191
 11
263.306247
 21
62.526091
  0
LINE
  5
79E
100
AcDbEntity
  8
M47
 62
     2
100
AcDbLine
 10
262.289021
 20
61.509962
 11
263.305475
 21
62.526416
  0
LINE
  5
79F
100
AcDbEntity
  8
M47
 62
     2
100
AcDbLine
 10
262.288696
 20
61.510735
 11
263.304703
 21
62.526741
  0
LINE
  5
7A0
100
AcDbEntity
  8
M47
 62
     2
100
AcDbLine
 10
262.288372
 20
61.511508
 11
263.30393
 21
62.527066
  0
LINE
  5
7A1
100
AcDbEntity
  8
M47
 62
     2
100
AcDbLine
 10
262.288049
 20
61.512282
 11
263.303156
 21
62.527389
  0
LINE
  5
7A2
100
AcDbEntity
  8
M47
 62
     2
100
AcDbLine
 10
262.287726
 20
61.513056
 11
263.302382
 21
62.527712
  0
LINE
  5
7A3
100
AcDbEntity
  8
M47
 62
     2
100
AcDbLine
 10
262.287403
 20
61.513831
 11
263.301607
 21
62.528034
  0
LINE
  5
7A4
100
AcDbEntity
  8
M47
 62
     2
100
AcDbLine
 10
262.287082
 20
61.514607
 11
263.300831
 21
62.528356
  0
LINE
  5
7A5
100
AcDbEntity
  8
M47
 62
     2
100
AcDbLine
 10
262.286761
 20
61.515384
 11
263.300054
 21
62.528677
  0
LINE
  5
7A6
100
AcDbEntity
  8
M47
 62
     2
100
AcDbLine
 10
262.286441
 20
61.516161
 11
263.299277
 21
62.528997
  0
LINE
  5
7A7
100
AcDbEntity
  8
M47
 62
     2
100
AcDbLine
 10
262.286121
 20
61.516939
 11
263.298499
 21
62.529316
  0
LINE
  5
7A8
100
AcDbEntity
  8
M47
 62
     2
100
AcDbLine
 10
262.285802
 20
61.517718
 11
263.29772
 21
62.529635
  0
LINE
  5
7A9
100
AcDbEntity
  8
M47
 62
     2
100
AcDbLine
 10
262.285484
 20
61.518497
 11
263.296941
 21
62.529953
  0
LINE
  5
7AA
100
AcDbEntity
  8
M47
 62
     2
100
AcDbLine
 10
262.285167
 20
61.519277
 11
263.296161
 21
62.530271
  0
LINE
  5
7AB
100
AcDbEntity
  8
M47
 62
     2
100
AcDbLine
 10
262.28485
 20
61.520058
 11
263.29538
 21
62.530587
  0
LINE
  5
7AC
100
AcDbEntity
  8
M47
 62
     2
100
AcDbLine
 10
262.284534
 20
61.520839
 11
263.294599
 21
62.530903
  0
LINE
  5
7AD
100
AcDbEntity
  8
M47
 62
     2
100
AcDbLine
 10
262.284219
 20
61.521621
 11
263.293816
 21
62.531219
  0
LINE
  5
7AE
100
AcDbEntity
  8
M47
 62
     2
100
AcDbLine
 10
262.283905
 20
61.522404
 11
263.293033
 21
62.531533
  0
LINE
  5
7AF
100
AcDbEntity
  8
M47
 62
     2
100
AcDbLine
 10
262.283591
 20
61.523188
 11
263.29225
 21
62.531847
  0
LINE
  5
7B0
100
AcDbEntity
  8
M47
 62
     2
100
AcDbLine
 10
262.283278
 20
61.523972
 11
263.291466
 21
62.53216
  0
LINE
  5
7B1
100
AcDbEntity
  8
M47
 62
     2
100
AcDbLine
 10
262.282965
 20
61.524757
 11
263.290681
 21
62.532473
  0
LINE
  5
7B2
100
AcDbEntity
  8
M47
 62
     2
100
AcDbLine
 10
262.282653
 20
61.525543
 11
263.289895
 21
62.532784
  0
LINE
  5
7B3
100
AcDbEntity
  8
M47
 62
     2
100
AcDbLine
 10
262.282342
 20
61.526329
 11
263.289108
 21
62.533095
  0
LINE
  5
7B4
100
AcDbEntity
  8
M47
 62
     2
100
AcDbLine
 10
262.282032
 20
61.527116
 11
263.288321
 21
62.533406
  0
LINE
  5
7B5
100
AcDbEntity
  8
M47
 62
     2
100
AcDbLine
 10
262.281723
 20
61.527904
 11
263.287534
 21
62.533715
  0
LINE
  5
7B6
100
AcDbEntity
  8
M47
 62
     2
100
AcDbLine
 10
262.281414
 20
61.528693
 11
263.286745
 21
62.534024
  0
LINE
  5
7B7
100
AcDbEntity
  8
M47
 62
     2
100
AcDbLine
 10
262.281106
 20
61.529482
 11
263.285956
 21
62.534332
  0
LINE
  5
7B8
100
AcDbEntity
  8
M47
 62
     2
100
AcDbLine
 10
262.280798
 20
61.530272
 11
263.285166
 21
62.53464
  0
LINE
  5
7B9
100
AcDbEntity
  8
M47
 62
     2
100
AcDbLine
 10
262.280491
 20
61.531063
 11
263.284375
 21
62.534946
  0
LINE
  5
7BA
100
AcDbEntity
  8
M47
 62
     2
100
AcDbLine
 10
262.280185
 20
61.531854
 11
263.283584
 21
62.535252
  0
LINE
  5
7BB
100
AcDbEntity
  8
M47
 62
     2
100
AcDbLine
 10
262.27988
 20
61.532646
 11
263.282792
 21
62.535558
  0
LINE
  5
7BC
100
AcDbEntity
  8
M47
 62
     2
100
AcDbLine
 10
262.279575
 20
61.533439
 11
263.281999
 21
62.535862
  0
LINE
  5
7BD
100
AcDbEntity
  8
M47
 62
     2
100
AcDbLine
 10
262.279272
 20
61.534233
 11
263.281205
 21
62.536166
  0
LINE
  5
7BE
100
AcDbEntity
  8
M47
 62
     2
100
AcDbLine
 10
262.278968
 20
61.535027
 11
263.280411
 21
62.536469
  0
LINE
  5
7BF
100
AcDbEntity
  8
M47
 62
     2
100
AcDbLine
 10
262.278666
 20
61.535822
 11
263.279616
 21
62.536772
  0
LINE
  5
7C0
100
AcDbEntity
  8
M47
 62
     2
100
AcDbLine
 10
262.278364
 20
61.536618
 11
263.27882
 21
62.537073
  0
LINE
  5
7C1
100
AcDbEntity
  8
M47
 62
     2
100
AcDbLine
 10
262.278063
 20
61.537414
 11
263.278024
 21
62.537374
  0
LINE
  5
7C2
100
AcDbEntity
  8
M47
 62
     2
100
AcDbLine
 10
262.277763
 20
61.538211
 11
263.277226
 21
62.537675
  0
LINE
  5
7C3
100
AcDbEntity
  8
M47
 62
     2
100
AcDbLine
 10
262.277464
 20
61.539009
 11
263.276428
 21
62.537974
  0
LINE
  5
7C4
100
AcDbEntity
  8
M47
 62
     2
100
AcDbLine
 10
262.277165
 20
61.539808
 11
263.27563
 21
62.538273
  0
LINE
  5
7C5
100
AcDbEntity
  8
M47
 62
     2
100
AcDbLine
 10
262.276867
 20
61.540607
 11
263.27483
 21
62.538571
  0
LINE
  5
7C6
100
AcDbEntity
  8
M47
 62
     2
100
AcDbLine
 10
262.276569
 20
61.541407
 11
263.27403
 21
62.538868
  0
LINE
  5
7C7
100
AcDbEntity
  8
M47
 62
     2
100
AcDbLine
 10
262.276273
 20
61.542208
 11
263.27323
 21
62.539165
  0
LINE
  5
7C8
100
AcDbEntity
  8
M47
 62
     2
100
AcDbLine
 10
262.275977
 20
61.54301
 11
263.272428
 21
62.539461
  0
LINE
  5
7C9
100
AcDbEntity
  8
M47
 62
     2
100
AcDbLine
 10
262.275682
 20
61.543812
 11
263.271626
 21
62.539756
  0
LINE
  5
7CA
100
AcDbEntity
  8
M47
 62
     2
100
AcDbLine
 10
262.275387
 20
61.544615
 11
263.270823
 21
62.54005
  0
LINE
  5
7CB
100
AcDbEntity
  8
M47
 62
     2
100
AcDbLine
 10
262.275094
 20
61.545419
 11
263.270019
 21
62.540344
  0
LINE
  5
7CC
100
AcDbEntity
  8
M47
 62
     2
100
AcDbLine
 10
262.274801
 20
61.546223
 11
263.269214
 21
62.540637
  0
LINE
  5
7CD
100
AcDbEntity
  8
M47
 62
     2
100
AcDbLine
 10
262.274509
 20
61.547029
 11
263.268409
 21
62.540929
  0
LINE
  5
7CE
100
AcDbEntity
  8
M47
 62
     2
100
AcDbLine
 10
262.274217
 20
61.547835
 11
263.267603
 21
62.541221
  0
LINE
  5
7CF
100
AcDbEntity
  8
M47
 62
     2
100
AcDbLine
 10
262.273926
 20
61.548641
 11
263.266797
 21
62.541511
  0
LINE
  5
7D0
100
AcDbEntity
  8
M47
 62
     2
100
AcDbLine
 10
262.273636
 20
61.549449
 11
263.265989
 21
62.541801
  0
LINE
  5
7D1
100
AcDbEntity
  8
M47
 62
     2
100
AcDbLine
 10
262.273347
 20
61.550257
 11
263.265181
 21
62.542091
  0
LINE
  5
7D2
100
AcDbEntity
  8
M47
 62
     2
100
AcDbLine
 10
262.273059
 20
61.551066
 11
263.264372
 21
62.542379
  0
LINE
  5
7D3
100
AcDbEntity
  8
M47
 62
     2
100
AcDbLine
 10
262.272771
 20
61.551875
 11
263.263562
 21
62.542667
  0
LINE
  5
7D4
100
AcDbEntity
  8
M47
 62
     2
100
AcDbLine
 10
262.272484
 20
61.552686
 11
263.262752
 21
62.542954
  0
LINE
  5
7D5
100
AcDbEntity
  8
M47
 62
     2
100
AcDbLine
 10
262.272198
 20
61.553497
 11
263.261941
 21
62.54324
  0
LINE
  5
7D6
100
AcDbEntity
  8
M47
 62
     2
100
AcDbLine
 10
262.271912
 20
61.554309
 11
263.261129
 21
62.543526
  0
LINE
  5
7D7
100
AcDbEntity
  8
M47
 62
     2
100
AcDbLine
 10
262.271627
 20
61.555122
 11
263.260316
 21
62.54381
  0
LINE
  5
7D8
100
AcDbEntity
  8
M47
 62
     2
100
AcDbLine
 10
262.271343
 20
61.555935
 11
263.259503
 21
62.544094
  0
LINE
  5
7D9
100
AcDbEntity
  8
M47
 62
     2
100
AcDbLine
 10
262.27106
 20
61.556749
 11
263.258688
 21
62.544378
  0
LINE
  5
7DA
100
AcDbEntity
  8
M47
 62
     2
100
AcDbLine
 10
262.270778
 20
61.557564
 11
263.257873
 21
62.54466
  0
LINE
  5
7DB
100
AcDbEntity
  8
M47
 62
     2
100
AcDbLine
 10
262.270496
 20
61.55838
 11
263.257058
 21
62.544942
  0
LINE
  5
7DC
100
AcDbEntity
  8
M47
 62
     2
100
AcDbLine
 10
262.270215
 20
61.559196
 11
263.256241
 21
62.545223
  0
LINE
  5
7DD
100
AcDbEntity
  8
M47
 62
     2
100
AcDbLine
 10
262.269935
 20
61.560014
 11
263.255424
 21
62.545503
  0
LINE
  5
7DE
100
AcDbEntity
  8
M47
 62
     2
100
AcDbLine
 10
262.269655
 20
61.560831
 11
263.254606
 21
62.545782
  0
LINE
  5
7DF
100
AcDbEntity
  8
M47
 62
     2
100
AcDbLine
 10
262.269377
 20
61.56165
 11
263.253788
 21
62.546061
  0
LINE
  5
7E0
100
AcDbEntity
  8
M47
 62
     2
100
AcDbLine
 10
262.269099
 20
61.56247
 11
263.252968
 21
62.546339
  0
LINE
  5
7E1
100
AcDbEntity
  8
M47
 62
     2
100
AcDbLine
 10
262.268821
 20
61.56329
 11
263.252148
 21
62.546616
  0
LINE
  5
7E2
100
AcDbEntity
  8
M47
 62
     2
100
AcDbLine
 10
262.268545
 20
61.564111
 11
263.251327
 21
62.546893
  0
LINE
  5
7E3
100
AcDbEntity
  8
M47
 62
     2
100
AcDbLine
 10
262.268269
 20
61.564933
 11
263.250505
 21
62.547168
  0
LINE
  5
7E4
100
AcDbEntity
  8
M47
 62
     2
100
AcDbLine
 10
262.267994
 20
61.565755
 11
263.249683
 21
62.547443
  0
LINE
  5
7E5
100
AcDbEntity
  8
M47
 62
     2
100
AcDbLine
 10
262.26772
 20
61.566578
 11
263.248859
 21
62.547718
  0
LINE
  5
7E6
100
AcDbEntity
  8
M47
 62
     2
100
AcDbLine
 10
262.267447
 20
61.567403
 11
263.248035
 21
62.547991
  0
LINE
  5
7E7
100
AcDbEntity
  8
M47
 62
     2
100
AcDbLine
 10
262.267174
 20
61.568227
 11
263.24721
 21
62.548263
  0
LINE
  5
7E8
100
AcDbEntity
  8
M47
 62
     2
100
AcDbLine
 10
262.266902
 20
61.569053
 11
263.246385
 21
62.548535
  0
LINE
  5
7E9
100
AcDbEntity
  8
M47
 62
     2
100
AcDbLine
 10
262.266631
 20
61.569879
 11
263.245558
 21
62.548806
  0
LINE
  5
7EA
100
AcDbEntity
  8
M47
 62
     2
100
AcDbLine
 10
262.266361
 20
61.570706
 11
263.244731
 21
62.549077
  0
LINE
  5
7EB
100
AcDbEntity
  8
M47
 62
     2
100
AcDbLine
 10
262.266092
 20
61.571534
 11
263.243903
 21
62.549346
  0
LINE
  5
7EC
100
AcDbEntity
  8
M47
 62
     2
100
AcDbLine
 10
262.265823
 20
61.572363
 11
263.243075
 21
62.549615
  0
LINE
  5
7ED
100
AcDbEntity
  8
M47
 62
     2
100
AcDbLine
 10
262.265555
 20
61.573193
 11
263.242245
 21
62.549883
  0
LINE
  5
7EE
100
AcDbEntity
  8
M47
 62
     2
100
AcDbLine
 10
262.265288
 20
61.574023
 11
263.241415
 21
62.55015
  0
LINE
  5
7EF
100
AcDbEntity
  8
M47
 62
     2
100
AcDbLine
 10
262.265021
 20
61.574854
 11
263.240584
 21
62.550416
  0
LINE
  5
7F0
100
AcDbEntity
  8
M47
 62
     2
100
AcDbLine
 10
262.264756
 20
61.575686
 11
263.239752
 21
62.550682
  0
LINE
  5
7F1
100
AcDbEntity
  8
M47
 62
     2
100
AcDbLine
 10
262.264491
 20
61.576518
 11
263.238919
 21
62.550947
  0
LINE
  5
7F2
100
AcDbEntity
  8
M47
 62
     2
100
AcDbLine
 10
262.264227
 20
61.577352
 11
263.238086
 21
62.551211
  0
LINE
  5
7F3
100
AcDbEntity
  8
M47
 62
     2
100
AcDbLine
 10
262.263964
 20
61.578186
 11
263.237252
 21
62.551474
  0
LINE
  5
7F4
100
AcDbEntity
  8
M47
 62
     2
100
AcDbLine
 10
262.263701
 20
61.579021
 11
263.236417
 21
62.551737
  0
LINE
  5
7F5
100
AcDbEntity
  8
M47
 62
     2
100
AcDbLine
 10
262.263439
 20
61.579856
 11
263.235581
 21
62.551998
  0
LINE
  5
7F6
100
AcDbEntity
  8
M47
 62
     2
100
AcDbLine
 10
262.263178
 20
61.580693
 11
263.234745
 21
62.552259
  0
LINE
  5
7F7
100
AcDbEntity
  8
M47
 62
     2
100
AcDbLine
 10
262.262918
 20
61.58153
 11
263.233907
 21
62.552519
  0
LINE
  5
7F8
100
AcDbEntity
  8
M47
 62
     2
100
AcDbLine
 10
262.262659
 20
61.582368
 11
263.233069
 21
62.552779
  0
LINE
  5
7F9
100
AcDbEntity
  8
M47
 62
     2
100
AcDbLine
 10
262.2624
 20
61.583207
 11
263.23223
 21
62.553037
  0
LINE
  5
7FA
100
AcDbEntity
  8
M47
 62
     2
100
AcDbLine
 10
262.262143
 20
61.584047
 11
263.231391
 21
62.553295
  0
LINE
  5
7FB
100
AcDbEntity
  8
M47
 62
     2
100
AcDbLine
 10
262.261886
 20
61.584888
 11
263.23055
 21
62.553552
  0
LINE
  5
7FC
100
AcDbEntity
  8
M47
 62
     2
100
AcDbLine
 10
262.26163
 20
61.585729
 11
263.229709
 21
62.553808
  0
LINE
  5
7FD
100
AcDbEntity
  8
M47
 62
     2
100
AcDbLine
 10
262.261374
 20
61.586571
 11
263.228867
 21
62.554063
  0
LINE
  5
7FE
100
AcDbEntity
  8
M47
 62
     2
100
AcDbLine
 10
262.26112
 20
61.587414
 11
263.228024
 21
62.554318
  0
LINE
  5
7FF
100
AcDbEntity
  8
M47
 62
     2
100
AcDbLine
 10
262.260866
 20
61.588258
 11
263.22718
 21
62.554572
  0
LINE
  5
800
100
AcDbEntity
  8
M47
 62
     2
100
AcDbLine
 10
262.260613
 20
61.589102
 11
263.226336
 21
62.554825
  0
LINE
  5
801
100
AcDbEntity
  8
M47
 62
     2
100
AcDbLine
 10
262.260361
 20
61.589947
 11
263.22549
 21
62.555077
  0
LINE
  5
802
100
AcDbEntity
  8
M47
 62
     2
100
AcDbLine
 10
262.26011
 20
61.590793
 11
263.224644
 21
62.555328
  0
LINE
  5
803
100
AcDbEntity
  8
M47
 62
     2
100
AcDbLine
 10
262.259859
 20
61.59164
 11
263.223797
 21
62.555579
  0
LINE
  5
804
100
AcDbEntity
  8
M47
 62
     2
100
AcDbLine
 10
262.259609
 20
61.592488
 11
263.22295
 21
62.555828
  0
LINE
  5
805
100
AcDbEntity
  8
M47
 62
     2
100
AcDbLine
 10
262.259361
 20
61.593337
 11
263.222101
 21
62.556077
  0
LINE
  5
806
100
AcDbEntity
  8
M47
 62
     2
100
AcDbLine
 10
262.259113
 20
61.594186
 11
263.221252
 21
62.556325
  0
LINE
  5
807
100
AcDbEntity
  8
M47
 62
     2
100
AcDbLine
 10
262.258865
 20
61.595036
 11
263.220402
 21
62.556572
  0
LINE
  5
808
100
AcDbEntity
  8
M47
 62
     2
100
AcDbLine
 10
262.258619
 20
61.595887
 11
263.219551
 21
62.556819
  0
LINE
  5
809
100
AcDbEntity
  8
M47
 62
     2
100
AcDbLine
 10
262.258373
 20
61.596739
 11
263.218699
 21
62.557065
  0
LINE
  5
80A
100
AcDbEntity
  8
M47
 62
     2
100
AcDbLine
 10
262.258128
 20
61.597592
 11
263.217846
 21
62.557309
  0
LINE
  5
80B
100
AcDbEntity
  8
M47
 62
     2
100
AcDbLine
 10
262.257884
 20
61.598445
 11
263.216993
 21
62.557553
  0
LINE
  5
80C
100
AcDbEntity
  8
M47
 62
     2
100
AcDbLine
 10
262.257641
 20
61.599299
 11
263.216138
 21
62.557797
  0
LINE
  5
80D
100
AcDbEntity
  8
M47
 62
     2
100
AcDbLine
 10
262.257399
 20
61.600154
 11
263.215283
 21
62.558039
  0
LINE
  5
80E
100
AcDbEntity
  8
M47
 62
     2
100
AcDbLine
 10
262.257157
 20
61.60101
 11
263.214428
 21
62.55828
  0
LINE
  5
80F
100
AcDbEntity
  8
M47
 62
     2
100
AcDbLine
 10
262.256917
 20
61.601867
 11
263.213571
 21
62.558521
  0
LINE
  5
810
100
AcDbEntity
  8
M47
 62
     2
100
AcDbLine
 10
262.256677
 20
61.602725
 11
263.212713
 21
62.558761
  0
LINE
  5
811
100
AcDbEntity
  8
M47
 62
     2
100
AcDbLine
 10
262.256438
 20
61.603583
 11
263.211855
 21
62.559
  0
LINE
  5
812
100
AcDbEntity
  8
M47
 62
     2
100
AcDbLine
 10
262.2562
 20
61.604442
 11
263.210996
 21
62.559238
  0
LINE
  5
813
100
AcDbEntity
  8
M47
 62
     2
100
AcDbLine
 10
262.255962
 20
61.605302
 11
263.210136
 21
62.559476
  0
LINE
  5
814
100
AcDbEntity
  8
M47
 62
     2
100
AcDbLine
 10
262.255726
 20
61.606163
 11
263.209275
 21
62.559712
  0
LINE
  5
815
100
AcDbEntity
  8
M47
 62
     2
100
AcDbLine
 10
262.25549
 20
61.607025
 11
263.208413
 21
62.559948
  0
LINE
  5
816
100
AcDbEntity
  8
M47
 62
     2
100
AcDbLine
 10
262.255255
 20
61.607887
 11
263.20755
 21
62.560183
  0
LINE
  5
817
100
AcDbEntity
  8
M47
 62
     2
100
AcDbLine
 10
262.255021
 20
61.608751
 11
263.206687
 21
62.560417
  0
LINE
  5
818
100
AcDbEntity
  8
M47
 62
     2
100
AcDbLine
 10
262.254788
 20
61.609615
 11
263.205823
 21
62.56065
  0
LINE
  5
819
100
AcDbEntity
  8
M47
 62
     2
100
AcDbLine
 10
262.254556
 20
61.61048
 11
263.204958
 21
62.560882
  0
LINE
  5
81A
100
AcDbEntity
  8
M47
 62
     2
100
AcDbLine
 10
262.254324
 20
61.611346
 11
263.204092
 21
62.561114
  0
LINE
  5
81B
100
AcDbEntity
  8
M47
 62
     2
100
AcDbLine
 10
262.254093
 20
61.612213
 11
263.203225
 21
62.561344
  0
LINE
  5
81C
100
AcDbEntity
  8
M47
 62
     2
100
AcDbLine
 10
262.253864
 20
61.613081
 11
263.202357
 21
62.561574
  0
LINE
  5
81D
100
AcDbEntity
  8
M47
 62
     2
100
AcDbLine
 10
262.253635
 20
61.613949
 11
263.201489
 21
62.561803
  0
LINE
  5
81E
100
AcDbEntity
  8
M47
 62
     2
100
AcDbLine
 10
262.253407
 20
61.614818
 11
263.200619
 21
62.562031
  0
LINE
  5
81F
100
AcDbEntity
  8
M47
 62
     2
100
AcDbLine
 10
262.253179
 20
61.615689
 11
263.199749
 21
62.562258
  0
LINE
  5
820
100
AcDbEntity
  8
M47
 62
     2
100
AcDbLine
 10
262.252953
 20
61.61656
 11
263.198878
 21
62.562485
  0
LINE
  5
821
100
AcDbEntity
  8
M47
 62
     2
100
AcDbLine
 10
262.252727
 20
61.617431
 11
263.198006
 21
62.56271
  0
LINE
  5
822
100
AcDbEntity
  8
M47
 62
     2
100
AcDbLine
 10
262.252503
 20
61.618304
 11
263.197134
 21
62.562935
  0
LINE
  5
823
100
AcDbEntity
  8
M47
 62
     2
100
AcDbLine
 10
262.252279
 20
61.619178
 11
263.19626
 21
62.563159
  0
LINE
  5
824
100
AcDbEntity
  8
M47
 62
     2
100
AcDbLine
 10
262.252056
 20
61.620052
 11
263.195385
 21
62.563382
  0
LINE
  5
825
100
AcDbEntity
  8
M47
 62
     2
100
AcDbLine
 10
262.251834
 20
61.620928
 11
263.19451
 21
62.563604
  0
LINE
  5
826
100
AcDbEntity
  8
M47
 62
     2
100
AcDbLine
 10
262.251613
 20
61.621804
 11
263.193634
 21
62.563825
  0
LINE
  5
827
100
AcDbEntity
  8
M47
 62
     2
100
AcDbLine
 10
262.251392
 20
61.622681
 11
263.192757
 21
62.564045
  0
LINE
  5
828
100
AcDbEntity
  8
M47
 62
     2
100
AcDbLine
 10
262.251173
 20
61.623559
 11
263.191879
 21
62.564265
  0
LINE
  5
829
100
AcDbEntity
  8
M47
 62
     2
100
AcDbLine
 10
262.250954
 20
61.624438
 11
263.191
 21
62.564484
  0
LINE
  5
82A
100
AcDbEntity
  8
M47
 62
     2
100
AcDbLine
 10
262.250736
 20
61.625317
 11
263.19012
 21
62.564701
  0
LINE
  5
82B
100
AcDbEntity
  8
M47
 62
     2
100
AcDbLine
 10
262.25052
 20
61.626198
 11
263.18924
 21
62.564918
  0
LINE
  5
82C
100
AcDbEntity
  8
M47
 62
     2
100
AcDbLine
 10
262.250304
 20
61.627079
 11
263.188358
 21
62.565134
  0
LINE
  5
82D
100
AcDbEntity
  8
M47
 62
     2
100
AcDbLine
 10
262.250089
 20
61.627962
 11
263.187476
 21
62.565349
  0
LINE
  5
82E
100
AcDbEntity
  8
M47
 62
     2
100
AcDbLine
 10
262.249874
 20
61.628845
 11
263.186593
 21
62.565563
  0
LINE
  5
82F
100
AcDbEntity
  8
M47
 62
     2
100
AcDbLine
 10
262.249661
 20
61.629729
 11
263.185709
 21
62.565777
  0
LINE
  5
830
100
AcDbEntity
  8
M47
 62
     2
100
AcDbLine
 10
262.249448
 20
61.630614
 11
263.184824
 21
62.565989
  0
LINE
  5
831
100
AcDbEntity
  8
M47
 62
     2
100
AcDbLine
 10
262.249237
 20
61.6315
 11
263.183938
 21
62.566201
  0
LINE
  5
832
100
AcDbEntity
  8
M47
 62
     2
100
AcDbLine
 10
262.249026
 20
61.632387
 11
263.183051
 21
62.566411
  0
LINE
  5
833
100
AcDbEntity
  8
M47
 62
     2
100
AcDbLine
 10
262.248816
 20
61.633274
 11
263.182164
 21
62.566621
  0
LINE
  5
834
100
AcDbEntity
  8
M47
 62
     2
100
AcDbLine
 10
262.248608
 20
61.634163
 11
263.181275
 21
62.56683
  0
LINE
  5
835
100
AcDbEntity
  8
M47
 62
     2
100
AcDbLine
 10
262.2484
 20
61.635052
 11
263.180386
 21
62.567038
  0
LINE
  5
836
100
AcDbEntity
  8
M47
 62
     2
100
AcDbLine
 10
262.248192
 20
61.635942
 11
263.179495
 21
62.567245
  0
LINE
  5
837
100
AcDbEntity
  8
M47
 62
     2
100
AcDbLine
 10
262.247986
 20
61.636834
 11
263.178604
 21
62.567452
  0
LINE
  5
838
100
AcDbEntity
  8
M47
 62
     2
100
AcDbLine
 10
262.247781
 20
61.637726
 11
263.177712
 21
62.567657
  0
LINE
  5
839
100
AcDbEntity
  8
M47
 62
     2
100
AcDbLine
 10
262.247576
 20
61.638619
 11
263.176819
 21
62.567861
  0
LINE
  5
83A
100
AcDbEntity
  8
M47
 62
     2
100
AcDbLine
 10
262.247373
 20
61.639513
 11
263.175925
 21
62.568065
  0
LINE
  5
83B
100
AcDbEntity
  8
M47
 62
     2
100
AcDbLine
 10
262.24717
 20
61.640408
 11
263.17503
 21
62.568267
  0
LINE
  5
83C
100
AcDbEntity
  8
M47
 62
     2
100
AcDbLine
 10
262.246969
 20
61.641303
 11
263.174134
 21
62.568469
  0
LINE
  5
83D
100
AcDbEntity
  8
M47
 62
     2
100
AcDbLine
 10
262.246768
 20
61.6422
 11
263.173238
 21
62.56867
  0
LINE
  5
83E
100
AcDbEntity
  8
M47
 62
     2
100
AcDbLine
 10
262.246568
 20
61.643097
 11
263.17234
 21
62.56887
  0
LINE
  5
83F
100
AcDbEntity
  8
M47
 62
     2
100
AcDbLine
 10
262.246369
 20
61.643996
 11
263.171442
 21
62.569069
  0
LINE
  5
840
100
AcDbEntity
  8
M47
 62
     2
100
AcDbLine
 10
262.246171
 20
61.644895
 11
263.170542
 21
62.569267
  0
LINE
  5
841
100
AcDbEntity
  8
M47
 62
     2
100
AcDbLine
 10
262.245974
 20
61.645796
 11
263.169642
 21
62.569464
  0
LINE
  5
842
100
AcDbEntity
  8
M47
 62
     2
100
AcDbLine
 10
262.245778
 20
61.646697
 11
263.168741
 21
62.56966
  0
LINE
  5
843
100
AcDbEntity
  8
M47
 62
     2
100
AcDbLine
 10
262.245582
 20
61.647599
 11
263.167839
 21
62.569855
  0
LINE
  5
844
100
AcDbEntity
  8
M47
 62
     2
100
AcDbLine
 10
262.245388
 20
61.648502
 11
263.166936
 21
62.57005
  0
LINE
  5
845
100
AcDbEntity
  8
M47
 62
     2
100
AcDbLine
 10
262.245195
 20
61.649406
 11
263.166032
 21
62.570243
  0
LINE
  5
846
100
AcDbEntity
  8
M47
 62
     2
100
AcDbLine
 10
262.245002
 20
61.650311
 11
263.165127
 21
62.570436
  0
LINE
  5
847
100
AcDbEntity
  8
M47
 62
     2
100
AcDbLine
 10
262.24481
 20
61.651217
 11
263.164221
 21
62.570627
  0
LINE
  5
848
100
AcDbEntity
  8
M47
 62
     2
100
AcDbLine
 10
262.24462
 20
61.652124
 11
263.163314
 21
62.570818
  0
LINE
  5
849
100
AcDbEntity
  8
M47
 62
     2
100
AcDbLine
 10
262.24443
 20
61.653031
 11
263.162406
 21
62.571008
  0
LINE
  5
84A
100
AcDbEntity
  8
M47
 62
     2
100
AcDbLine
 10
262.244241
 20
61.65394
 11
263.161498
 21
62.571196
  0
LINE
  5
84B
100
AcDbEntity
  8
M47
 62
     2
100
AcDbLine
 10
262.244054
 20
61.65485
 11
263.160588
 21
62.571384
  0
LINE
  5
84C
100
AcDbEntity
  8
M47
 62
     2
100
AcDbLine
 10
262.243867
 20
61.65576
 11
263.159678
 21
62.571571
  0
LINE
  5
84D
100
AcDbEntity
  8
M47
 62
     2
100
AcDbLine
 10
262.243681
 20
61.656672
 11
263.158766
 21
62.571757
  0
LINE
  5
84E
100
AcDbEntity
  8
M47
 62
     2
100
AcDbLine
 10
262.243496
 20
61.657584
 11
263.157854
 21
62.571942
  0
LINE
  5
84F
100
AcDbEntity
  8
M47
 62
     2
100
AcDbLine
 10
262.243312
 20
61.658497
 11
263.15694
 21
62.572126
  0
LINE
  5
850
100
AcDbEntity
  8
M47
 62
     2
100
AcDbLine
 10
262.243129
 20
61.659412
 11
263.156026
 21
62.572309
  0
LINE
  5
851
100
AcDbEntity
  8
M47
 62
     2
100
AcDbLine
 10
262.242946
 20
61.660327
 11
263.155111
 21
62.572491
  0
LINE
  5
852
100
AcDbEntity
  8
M47
 62
     2
100
AcDbLine
 10
262.242765
 20
61.661243
 11
263.154194
 21
62.572672
  0
LINE
  5
853
100
AcDbEntity
  8
M47
 62
     2
100
AcDbLine
 10
262.242585
 20
61.662161
 11
263.153277
 21
62.572853
  0
LINE
  5
854
100
AcDbEntity
  8
M47
 62
     2
100
AcDbLine
 10
262.242406
 20
61.663079
 11
263.152359
 21
62.573032
  0
LINE
  5
855
100
AcDbEntity
  8
M47
 62
     2
100
AcDbLine
 10
262.242227
 20
61.663998
 11
263.15144
 21
62.57321
  0
LINE
  5
856
100
AcDbEntity
  8
M47
 62
     2
100
AcDbLine
 10
262.24205
 20
61.664918
 11
263.15052
 21
62.573388
  0
LINE
  5
857
100
AcDbEntity
  8
M47
 62
     2
100
AcDbLine
 10
262.241874
 20
61.665839
 11
263.149599
 21
62.573564
  0
LINE
  5
858
100
AcDbEntity
  8
M47
 62
     2
100
AcDbLine
 10
262.241698
 20
61.666761
 11
263.148677
 21
62.573739
  0
LINE
  5
859
100
AcDbEntity
  8
M47
 62
     2
100
AcDbLine
 10
262.241524
 20
61.667684
 11
263.147754
 21
62.573914
  0
LINE
  5
85A
100
AcDbEntity
  8
M47
 62
     2
100
AcDbLine
 10
262.24135
 20
61.668608
 11
263.14683
 21
62.574087
  0
LINE
  5
85B
100
AcDbEntity
  8
M47
 62
     2
100
AcDbLine
 10
262.241178
 20
61.669533
 11
263.145905
 21
62.57426
  0
LINE
  5
85C
100
AcDbEntity
  8
M47
 62
     2
100
AcDbLine
 10
262.241006
 20
61.670459
 11
263.144979
 21
62.574431
  0
LINE
  5
85D
100
AcDbEntity
  8
M47
 62
     2
100
AcDbLine
 10
262.240836
 20
61.671386
 11
263.144052
 21
62.574602
  0
LINE
  5
85E
100
AcDbEntity
  8
M47
 62
     2
100
AcDbLine
 10
262.240666
 20
61.672314
 11
263.143124
 21
62.574771
  0
LINE
  5
85F
100
AcDbEntity
  8
M47
 62
     2
100
AcDbLine
 10
262.240498
 20
61.673243
 11
263.142195
 21
62.57494
  0
LINE
  5
860
100
AcDbEntity
  8
M47
 62
     2
100
AcDbLine
 10
262.24033
 20
61.674172
 11
263.141265
 21
62.575107
  0
LINE
  5
861
100
AcDbEntity
  8
M47
 62
     2
100
AcDbLine
 10
262.240164
 20
61.675103
 11
263.140334
 21
62.575274
  0
LINE
  5
862
100
AcDbEntity
  8
M47
 62
     2
100
AcDbLine
 10
262.239998
 20
61.676035
 11
263.139403
 21
62.57544
  0
LINE
  5
863
100
AcDbEntity
  8
M47
 62
     2
100
AcDbLine
 10
262.239834
 20
61.676968
 11
263.13847
 21
62.575604
  0
LINE
  5
864
100
AcDbEntity
  8
M47
 62
     2
100
AcDbLine
 10
262.23967
 20
61.677902
 11
263.137536
 21
62.575768
  0
LINE
  5
865
100
AcDbEntity
  8
M47
 62
     2
100
AcDbLine
 10
262.239507
 20
61.678837
 11
263.136601
 21
62.57593
  0
LINE
  5
866
100
AcDbEntity
  8
M47
 62
     2
100
AcDbLine
 10
262.239346
 20
61.679773
 11
263.135665
 21
62.576092
  0
LINE
  5
867
100
AcDbEntity
  8
M47
 62
     2
100
AcDbLine
 10
262.239185
 20
61.680709
 11
263.134728
 21
62.576252
  0
LINE
  5
868
100
AcDbEntity
  8
M47
 62
     2
100
AcDbLine
 10
262.239026
 20
61.681647
 11
263.13379
 21
62.576412
  0
LINE
  5
869
100
AcDbEntity
  8
M47
 62
     2
100
AcDbLine
 10
262.238867
 20
61.682586
 11
263.132852
 21
62.576571
  0
LINE
  5
86A
100
AcDbEntity
  8
M47
 62
     2
100
AcDbLine
 10
262.23871
 20
61.683526
 11
263.131912
 21
62.576728
  0
LINE
  5
86B
100
AcDbEntity
  8
M47
 62
     2
100
AcDbLine
 10
262.238553
 20
61.684467
 11
263.130971
 21
62.576885
  0
LINE
  5
86C
100
AcDbEntity
  8
M47
 62
     2
100
AcDbLine
 10
262.238398
 20
61.685409
 11
263.130029
 21
62.57704
  0
LINE
  5
86D
100
AcDbEntity
  8
M47
 62
     2
100
AcDbLine
 10
262.238243
 20
61.686352
 11
263.129086
 21
62.577195
  0
LINE
  5
86E
100
AcDbEntity
  8
M47
 62
     2
100
AcDbLine
 10
262.23809
 20
61.687296
 11
263.128142
 21
62.577348
  0
LINE
  5
86F
100
AcDbEntity
  8
M47
 62
     2
100
AcDbLine
 10
262.237937
 20
61.688241
 11
263.127197
 21
62.5775
  0
LINE
  5
870
100
AcDbEntity
  8
M47
 62
     2
100
AcDbLine
 10
262.237786
 20
61.689187
 11
263.126251
 21
62.577652
  0
LINE
  5
871
100
AcDbEntity
  8
M47
 62
     2
100
AcDbLine
 10
262.237636
 20
61.690134
 11
263.125304
 21
62.577802
  0
LINE
  5
872
100
AcDbEntity
  8
M47
 62
     2
100
AcDbLine
 10
262.237486
 20
61.691082
 11
263.124356
 21
62.577951
  0
LINE
  5
873
100
AcDbEntity
  8
M47
 62
     2
100
AcDbLine
 10
262.237338
 20
61.692031
 11
263.123406
 21
62.5781
  0
LINE
  5
874
100
AcDbEntity
  8
M47
 62
     2
100
AcDbLine
 10
262.237191
 20
61.692982
 11
263.122456
 21
62.578247
  0
LINE
  5
875
100
AcDbEntity
  8
M47
 62
     2
100
AcDbLine
 10
262.237045
 20
61.693933
 11
263.121505
 21
62.578393
  0
LINE
  5
876
100
AcDbEntity
  8
M47
 62
     2
100
AcDbLine
 10
262.2369
 20
61.694885
 11
263.120553
 21
62.578538
  0
LINE
  5
877
100
AcDbEntity
  8
M47
 62
     2
100
AcDbLine
 10
262.236755
 20
61.695838
 11
263.119599
 21
62.578682
  0
LINE
  5
878
100
AcDbEntity
  8
M47
 62
     2
100
AcDbLine
 10
262.236612
 20
61.696793
 11
263.118645
 21
62.578825
  0
LINE
  5
879
100
AcDbEntity
  8
M47
 62
     2
100
AcDbLine
 10
262.23647
 20
61.697748
 11
263.117689
 21
62.578967
  0
LINE
  5
87A
100
AcDbEntity
  8
M47
 62
     2
100
AcDbLine
 10
262.23633
 20
61.698705
 11
263.116733
 21
62.579108
  0
LINE
  5
87B
100
AcDbEntity
  8
M47
 62
     2
100
AcDbLine
 10
262.23619
 20
61.699662
 11
263.115775
 21
62.579248
  0
LINE
  5
87C
100
AcDbEntity
  8
M47
 62
     2
100
AcDbLine
 10
262.236051
 20
61.700621
 11
263.114817
 21
62.579387
  0
LINE
  5
87D
100
AcDbEntity
  8
M47
 62
     2
100
AcDbLine
 10
262.235913
 20
61.701581
 11
263.113857
 21
62.579525
  0
LINE
  5
87E
100
AcDbEntity
  8
M47
 62
     2
100
AcDbLine
 10
262.235777
 20
61.702542
 11
263.112896
 21
62.579661
  0
LINE
  5
87F
100
AcDbEntity
  8
M47
 62
     2
100
AcDbLine
 10
262.235641
 20
61.703503
 11
263.111934
 21
62.579797
  0
LINE
  5
880
100
AcDbEntity
  8
M47
 62
     2
100
AcDbLine
 10
262.235506
 20
61.704466
 11
263.110971
 21
62.579931
  0
LINE
  5
881
100
AcDbEntity
  8
M47
 62
     2
100
AcDbLine
 10
262.235373
 20
61.70543
 11
263.110007
 21
62.580065
  0
LINE
  5
882
100
AcDbEntity
  8
M47
 62
     2
100
AcDbLine
 10
262.235241
 20
61.706395
 11
263.109042
 21
62.580197
  0
LINE
  5
883
100
AcDbEntity
  8
M47
 62
     2
100
AcDbLine
 10
262.23511
 20
61.707362
 11
263.108076
 21
62.580328
  0
LINE
  5
884
100
AcDbEntity
  8
M47
 62
     2
100
AcDbLine
 10
262.234979
 20
61.708329
 11
263.107109
 21
62.580458
  0
LINE
  5
885
100
AcDbEntity
  8
M47
 62
     2
100
AcDbLine
 10
262.23485
 20
61.709297
 11
263.10614
 21
62.580587
  0
LINE
  5
886
100
AcDbEntity
  8
M47
 62
     2
100
AcDbLine
 10
262.234722
 20
61.710267
 11
263.105171
 21
62.580715
  0
LINE
  5
887
100
AcDbEntity
  8
M47
 62
     2
100
AcDbLine
 10
262.234595
 20
61.711237
 11
263.1042
 21
62.580842
  0
LINE
  5
888
100
AcDbEntity
  8
M47
 62
     2
100
AcDbLine
 10
262.23447
 20
61.712209
 11
263.103229
 21
62.580968
  0
LINE
  5
889
100
AcDbEntity
  8
M47
 62
     2
100
AcDbLine
 10
262.234345
 20
61.713182
 11
263.102256
 21
62.581093
  0
LINE
  5
88A
100
AcDbEntity
  8
M47
 62
     2
100
AcDbLine
 10
262.234222
 20
61.714156
 11
263.101282
 21
62.581216
  0
LINE
  5
88B
100
AcDbEntity
  8
M47
 62
     2
100
AcDbLine
 10
262.234099
 20
61.715131
 11
263.100307
 21
62.581339
  0
LINE
  5
88C
100
AcDbEntity
  8
M47
 62
     2
100
AcDbLine
 10
262.233978
 20
61.716107
 11
263.099331
 21
62.58146
  0
LINE
  5
88D
100
AcDbEntity
  8
M47
 62
     2
100
AcDbLine
 10
262.233858
 20
61.717084
 11
263.098354
 21
62.58158
  0
LINE
  5
88E
100
AcDbEntity
  8
M47
 62
     2
100
AcDbLine
 10
262.233739
 20
61.718062
 11
263.097375
 21
62.581699
  0
LINE
  5
88F
100
AcDbEntity
  8
M47
 62
     2
100
AcDbLine
 10
262.233621
 20
61.719042
 11
263.096396
 21
62.581817
  0
LINE
  5
890
100
AcDbEntity
  8
M47
 62
     2
100
AcDbLine
 10
262.233504
 20
61.720023
 11
263.095415
 21
62.581934
  0
LINE
  5
891
100
AcDbEntity
  8
M47
 62
     2
100
AcDbLine
 10
262.233388
 20
61.721004
 11
263.094433
 21
62.58205
  0
LINE
  5
892
100
AcDbEntity
  8
M47
 62
     2
100
AcDbLine
 10
262.233274
 20
61.721987
 11
263.093451
 21
62.582164
  0
LINE
  5
893
100
AcDbEntity
  8
M47
 62
     2
100
AcDbLine
 10
262.23316
 20
61.722971
 11
263.092467
 21
62.582278
  0
LINE
  5
894
100
AcDbEntity
  8
M47
 62
     2
100
AcDbLine
 10
262.233048
 20
61.723956
 11
263.091481
 21
62.58239
  0
LINE
  5
895
100
AcDbEntity
  8
M47
 62
     2
100
AcDbLine
 10
262.232937
 20
61.724943
 11
263.090495
 21
62.582501
  0
LINE
  5
896
100
AcDbEntity
  8
M47
 62
     2
100
AcDbLine
 10
262.232827
 20
61.72593
 11
263.089508
 21
62.582611
  0
LINE
  5
897
100
AcDbEntity
  8
M47
 62
     2
100
AcDbLine
 10
262.232718
 20
61.726919
 11
263.088519
 21
62.58272
  0
LINE
  5
898
100
AcDbEntity
  8
M47
 62
     2
100
AcDbLine
 10
262.23261
 20
61.727909
 11
263.087529
 21
62.582827
  0
LINE
  5
899
100
AcDbEntity
  8
M47
 62
     2
100
AcDbLine
 10
262.232504
 20
61.728899
 11
263.086538
 21
62.582934
  0
LINE
  5
89A
100
AcDbEntity
  8
M47
 62
     2
100
AcDbLine
 10
262.232398
 20
61.729892
 11
263.085546
 21
62.583039
  0
LINE
  5
89B
100
AcDbEntity
  8
M47
 62
     2
100
AcDbLine
 10
262.232294
 20
61.730885
 11
263.084553
 21
62.583143
  0
LINE
  5
89C
100
AcDbEntity
  8
M47
 62
     2
100
AcDbLine
 10
262.232191
 20
61.731879
 11
263.083558
 21
62.583246
  0
LINE
  5
89D
100
AcDbEntity
  8
M47
 62
     2
100
AcDbLine
 10
262.23209
 20
61.732875
 11
263.082563
 21
62.583348
  0
LINE
  5
89E
100
AcDbEntity
  8
M47
 62
     2
100
AcDbLine
 10
262.231989
 20
61.733872
 11
263.081566
 21
62.583449
  0
LINE
  5
89F
100
AcDbEntity
  8
M47
 62
     2
100
AcDbLine
 10
262.231889
 20
61.73487
 11
263.080568
 21
62.583548
  0
LINE
  5
8A0
100
AcDbEntity
  8
M47
 62
     2
100
AcDbLine
 10
262.231791
 20
61.735869
 11
263.079569
 21
62.583647
  0
LINE
  5
8A1
100
AcDbEntity
  8
M47
 62
     2
100
AcDbLine
 10
262.231694
 20
61.736869
 11
263.078569
 21
62.583744
  0
LINE
  5
8A2
100
AcDbEntity
  8
M47
 62
     2
100
AcDbLine
 10
262.231598
 20
61.737871
 11
263.077567
 21
62.58384
  0
LINE
  5
8A3
100
AcDbEntity
  8
M47
 62
     2
100
AcDbLine
 10
262.231504
 20
61.738873
 11
263.076564
 21
62.583934
  0
LINE
  5
8A4
100
AcDbEntity
  8
M47
 62
     2
100
AcDbLine
 10
262.23141
 20
61.739877
 11
263.07556
 21
62.584028
  0
LINE
  5
8A5
100
AcDbEntity
  8
M47
 62
     2
100
AcDbLine
 10
262.231318
 20
61.740883
 11
263.074555
 21
62.58412
  0
LINE
  5
8A6
100
AcDbEntity
  8
M47
 62
     2
100
AcDbLine
 10
262.231227
 20
61.741889
 11
263.073549
 21
62.584211
  0
LINE
  5
8A7
100
AcDbEntity
  8
M47
 62
     2
100
AcDbLine
 10
262.231137
 20
61.742896
 11
263.072541
 21
62.584301
  0
LINE
  5
8A8
100
AcDbEntity
  8
M47
 62
     2
100
AcDbLine
 10
262.231048
 20
61.743905
 11
263.071532
 21
62.58439
  0
LINE
  5
8A9
100
AcDbEntity
  8
M47
 62
     2
100
AcDbLine
 10
262.230961
 20
61.744915
 11
263.070522
 21
62.584477
  0
LINE
  5
8AA
100
AcDbEntity
  8
M47
 62
     2
100
AcDbLine
 10
262.230875
 20
61.745926
 11
263.069511
 21
62.584563
  0
LINE
  5
8AB
100
AcDbEntity
  8
M47
 62
     2
100
AcDbLine
 10
262.23079
 20
61.746939
 11
263.068499
 21
62.584648
  0
LINE
  5
8AC
100
AcDbEntity
  8
M47
 62
     2
100
AcDbLine
 10
262.230706
 20
61.747953
 11
263.067485
 21
62.584732
  0
LINE
  5
8AD
100
AcDbEntity
  8
M47
 62
     2
100
AcDbLine
 10
262.230623
 20
61.748968
 11
263.06647
 21
62.584814
  0
LINE
  5
8AE
100
AcDbEntity
  8
M47
 62
     2
100
AcDbLine
 10
262.230542
 20
61.749984
 11
263.065454
 21
62.584896
  0
LINE
  5
8AF
100
AcDbEntity
  8
M47
 62
     2
100
AcDbLine
 10
262.230462
 20
61.751001
 11
263.064437
 21
62.584976
  0
LINE
  5
8B0
100
AcDbEntity
  8
M47
 62
     2
100
AcDbLine
 10
262.230383
 20
61.75202
 11
263.063418
 21
62.585054
  0
LINE
  5
8B1
100
AcDbEntity
  8
M47
 62
     2
100
AcDbLine
 10
262.230306
 20
61.75304
 11
263.062398
 21
62.585132
  0
LINE
  5
8B2
100
AcDbEntity
  8
M47
 62
     2
100
AcDbLine
 10
262.23023
 20
61.754061
 11
263.061377
 21
62.585208
  0
LINE
  5
8B3
100
AcDbEntity
  8
M47
 62
     2
100
AcDbLine
 10
262.230155
 20
61.755083
 11
263.060354
 21
62.585283
  0
LINE
  5
8B4
100
AcDbEntity
  8
M47
 62
     2
100
AcDbLine
 10
262.230081
 20
61.756107
 11
263.059331
 21
62.585357
  0
LINE
  5
8B5
100
AcDbEntity
  8
M47
 62
     2
100
AcDbLine
 10
262.230009
 20
61.757132
 11
263.058306
 21
62.585429
  0
LINE
  5
8B6
100
AcDbEntity
  8
M47
 62
     2
100
AcDbLine
 10
262.229937
 20
61.758158
 11
263.057279
 21
62.5855
  0
LINE
  5
8B7
100
AcDbEntity
  8
M47
 62
     2
100
AcDbLine
 10
262.229867
 20
61.759186
 11
263.056252
 21
62.58557
  0
LINE
  5
8B8
100
AcDbEntity
  8
M47
 62
     2
100
AcDbLine
 10
262.229799
 20
61.760215
 11
263.055223
 21
62.585639
  0
LINE
  5
8B9
100
AcDbEntity
  8
M47
 62
     2
100
AcDbLine
 10
262.229732
 20
61.761245
 11
263.054193
 21
62.585706
  0
LINE
  5
8BA
100
AcDbEntity
  8
M47
 62
     2
100
AcDbLine
 10
262.229666
 20
61.762276
 11
263.053161
 21
62.585772
  0
LINE
  5
8BB
100
AcDbEntity
  8
M47
 62
     2
100
AcDbLine
 10
262.229601
 20
61.763309
 11
263.052129
 21
62.585837
  0
LINE
  5
8BC
100
AcDbEntity
  8
M47
 62
     2
100
AcDbLine
 10
262.229537
 20
61.764343
 11
263.051095
 21
62.5859
  0
LINE
  5
8BD
100
AcDbEntity
  8
M47
 62
     2
100
AcDbLine
 10
262.229475
 20
61.765378
 11
263.050059
 21
62.585962
  0
LINE
  5
8BE
100
AcDbEntity
  8
M47
 62
     2
100
AcDbLine
 10
262.229415
 20
61.766415
 11
263.049023
 21
62.586023
  0
LINE
  5
8BF
100
AcDbEntity
  8
M47
 62
     2
100
AcDbLine
 10
262.229355
 20
61.767453
 11
263.047985
 21
62.586083
  0
LINE
  5
8C0
100
AcDbEntity
  8
M47
 62
     2
100
AcDbLine
 10
262.229297
 20
61.768492
 11
263.046945
 21
62.586141
  0
LINE
  5
8C1
100
AcDbEntity
  8
M47
 62
     2
100
AcDbLine
 10
262.22924
 20
61.769533
 11
263.045905
 21
62.586198
  0
LINE
  5
8C2
100
AcDbEntity
  8
M47
 62
     2
100
AcDbLine
 10
262.229185
 20
61.770575
 11
263.044863
 21
62.586253
  0
LINE
  5
8C3
100
AcDbEntity
  8
M47
 62
     2
100
AcDbLine
 10
262.22913
 20
61.771618
 11
263.04382
 21
62.586307
  0
LINE
  5
8C4
100
AcDbEntity
  8
M47
 62
     2
100
AcDbLine
 10
262.229078
 20
61.772663
 11
263.042775
 21
62.58636
  0
LINE
  5
8C5
100
AcDbEntity
  8
M47
 62
     2
100
AcDbLine
 10
262.229026
 20
61.773709
 11
263.041729
 21
62.586412
  0
LINE
  5
8C6
100
AcDbEntity
  8
M47
 62
     2
100
AcDbLine
 10
262.228976
 20
61.774756
 11
263.040682
 21
62.586462
  0
LINE
  5
8C7
100
AcDbEntity
  8
M47
 62
     2
100
AcDbLine
 10
262.228927
 20
61.775805
 11
263.039633
 21
62.58651
  0
LINE
  5
8C8
100
AcDbEntity
  8
M47
 62
     2
100
AcDbLine
 10
262.22888
 20
61.776855
 11
263.038583
 21
62.586558
  0
LINE
  5
8C9
100
AcDbEntity
  8
M47
 62
     2
100
AcDbLine
 10
262.228834
 20
61.777906
 11
263.037532
 21
62.586604
  0
LINE
  5
8CA
100
AcDbEntity
  8
M47
 62
     2
100
AcDbLine
 10
262.228789
 20
61.778959
 11
263.036479
 21
62.586649
  0
LINE
  5
8CB
100
AcDbEntity
  8
M47
 62
     2
100
AcDbLine
 10
262.228746
 20
61.780013
 11
263.035425
 21
62.586692
  0
LINE
  5
8CC
100
AcDbEntity
  8
M47
 62
     2
100
AcDbLine
 10
262.228704
 20
61.781069
 11
263.034369
 21
62.586734
  0
LINE
  5
8CD
100
AcDbEntity
  8
M47
 62
     2
100
AcDbLine
 10
262.228663
 20
61.782125
 11
263.033312
 21
62.586774
  0
LINE
  5
8CE
100
AcDbEntity
  8
M47
 62
     2
100
AcDbLine
 10
262.228624
 20
61.783184
 11
263.032254
 21
62.586813
  0
LINE
  5
8CF
100
AcDbEntity
  8
M47
 62
     2
100
AcDbLine
 10
262.228587
 20
61.784243
 11
263.031194
 21
62.586851
  0
LINE
  5
8D0
100
AcDbEntity
  8
M47
 62
     2
100
AcDbLine
 10
262.22855
 20
61.785305
 11
263.030133
 21
62.586887
  0
LINE
  5
8D1
100
AcDbEntity
  8
M47
 62
     2
100
AcDbLine
 10
262.228515
 20
61.786367
 11
263.029071
 21
62.586922
  0
LINE
  5
8D2
100
AcDbEntity
  8
M47
 62
     2
100
AcDbLine
 10
262.228482
 20
61.787431
 11
263.028007
 21
62.586956
  0
LINE
  5
8D3
100
AcDbEntity
  8
M47
 62
     2
100
AcDbLine
 10
262.22845
 20
61.788496
 11
263.026941
 21
62.586988
  0
LINE
  5
8D4
100
AcDbEntity
  8
M47
 62
     2
100
AcDbLine
 10
262.228419
 20
61.789563
 11
263.025875
 21
62.587019
  0
LINE
  5
8D5
100
AcDbEntity
  8
M47
 62
     2
100
AcDbLine
 10
262.22839
 20
61.790631
 11
263.024806
 21
62.587048
  0
LINE
  5
8D6
100
AcDbEntity
  8
M47
 62
     2
100
AcDbLine
 10
262.228362
 20
61.791701
 11
263.023737
 21
62.587076
  0
LINE
  5
8D7
100
AcDbEntity
  8
M47
 62
     2
100
AcDbLine
 10
262.228336
 20
61.792772
 11
263.022666
 21
62.587102
  0
LINE
  5
8D8
100
AcDbEntity
  8
M47
 62
     2
100
AcDbLine
 10
262.228311
 20
61.793845
 11
263.021593
 21
62.587127
  0
LINE
  5
8D9
100
AcDbEntity
  8
M47
 62
     2
100
AcDbLine
 10
262.228287
 20
61.794919
 11
263.020519
 21
62.58715
  0
LINE
  5
8DA
100
AcDbEntity
  8
M47
 62
     2
100
AcDbLine
 10
262.228265
 20
61.795994
 11
263.019444
 21
62.587172
  0
LINE
  5
8DB
100
AcDbEntity
  8
M47
 62
     2
100
AcDbLine
 10
262.228245
 20
61.797071
 11
263.018367
 21
62.587193
  0
LINE
  5
8DC
100
AcDbEntity
  8
M47
 62
     2
100
AcDbLine
 10
262.228226
 20
61.798149
 11
263.017288
 21
62.587212
  0
LINE
  5
8DD
100
AcDbEntity
  8
M47
 62
     2
100
AcDbLine
 10
262.228208
 20
61.799229
 11
263.016209
 21
62.587229
  0
LINE
  5
8DE
100
AcDbEntity
  8
M47
 62
     2
100
AcDbLine
 10
262.228192
 20
61.80031
 11
263.015127
 21
62.587246
  0
LINE
  5
8DF
100
AcDbEntity
  8
M47
 62
     2
100
AcDbLine
 10
262.228178
 20
61.801393
 11
263.014045
 21
62.58726
  0
LINE
  5
8E0
100
AcDbEntity
  8
M47
 62
     2
100
AcDbLine
 10
262.228164
 20
61.802478
 11
263.01296
 21
62.587273
  0
LINE
  5
8E1
100
AcDbEntity
  8
M47
 62
     2
100
AcDbLine
 10
262.228153
 20
61.803563
 11
263.011874
 21
62.587285
  0
LINE
  5
8E2
100
AcDbEntity
  8
M47
 62
     2
100
AcDbLine
 10
262.228143
 20
61.804651
 11
263.010787
 21
62.587295
  0
LINE
  5
8E3
100
AcDbEntity
  8
M47
 62
     2
100
AcDbLine
 10
262.228134
 20
61.805739
 11
263.009698
 21
62.587304
  0
LINE
  5
8E4
100
AcDbEntity
  8
M47
 62
     2
100
AcDbLine
 10
262.228127
 20
61.80683
 11
263.008608
 21
62.587311
  0
LINE
  5
8E5
100
AcDbEntity
  8
M47
 62
     2
100
AcDbLine
 10
262.228121
 20
61.807922
 11
263.007516
 21
62.587316
  0
LINE
  5
8E6
100
AcDbEntity
  8
M47
 62
     2
100
AcDbLine
 10
262.228117
 20
61.809015
 11
263.006423
 21
62.58732
  0
LINE
  5
8E7
100
AcDbEntity
  8
M47
 62
     2
100
AcDbLine
 10
262.228115
 20
61.81011
 11
263.005328
 21
62.587323
  0
LINE
  5
8E8
100
AcDbEntity
  8
M47
 62
     2
100
AcDbLine
 10
262.228114
 20
61.811207
 11
263.004231
 21
62.587324
  0
LINE
  5
8E9
100
AcDbEntity
  8
M47
 62
     2
100
AcDbLine
 10
262.228115
 20
61.812305
 11
263.003133
 21
62.587323
  0
LINE
  5
8EA
100
AcDbEntity
  8
M47
 62
     2
100
AcDbLine
 10
262.228117
 20
61.813404
 11
263.002034
 21
62.587321
  0
LINE
  5
8EB
100
AcDbEntity
  8
M47
 62
     2
100
AcDbLine
 10
262.228121
 20
61.814505
 11
263.000932
 21
62.587317
  0
LINE
  5
8EC
100
AcDbEntity
  8
M47
 62
     2
100
AcDbLine
 10
262.228126
 20
61.815608
 11
262.99983
 21
62.587312
  0
LINE
  5
8ED
100
AcDbEntity
  8
M47
 62
     2
100
AcDbLine
 10
262.228133
 20
61.816712
 11
262.998725
 21
62.587305
  0
LINE
  5
8EE
100
AcDbEntity
  8
M47
 62
     2
100
AcDbLine
 10
262.228141
 20
61.817818
 11
262.997619
 21
62.587297
  0
LINE
  5
8EF
100
AcDbEntity
  8
M47
 62
     2
100
AcDbLine
 10
262.228151
 20
61.818926
 11
262.996512
 21
62.587287
  0
LINE
  5
8F0
100
AcDbEntity
  8
M47
 62
     2
100
AcDbLine
 10
262.228163
 20
61.820035
 11
262.995403
 21
62.587275
  0
LINE
  5
8F1
100
AcDbEntity
  8
M47
 62
     2
100
AcDbLine
 10
262.228176
 20
61.821146
 11
262.994292
 21
62.587262
  0
LINE
  5
8F2
100
AcDbEntity
  8
M47
 62
     2
100
AcDbLine
 10
262.228191
 20
61.822258
 11
262.99318
 21
62.587247
  0
LINE
  5
8F3
100
AcDbEntity
  8
M47
 62
     2
100
AcDbLine
 10
262.228208
 20
61.823372
 11
262.992066
 21
62.58723
  0
LINE
  5
8F4
100
AcDbEntity
  8
M47
 62
     2
100
AcDbLine
 10
262.228226
 20
61.824487
 11
262.99095
 21
62.587212
  0
LINE
  5
8F5
100
AcDbEntity
  8
M47
 62
     2
100
AcDbLine
 10
262.228245
 20
61.825605
 11
262.989833
 21
62.587192
  0
LINE
  5
8F6
100
AcDbEntity
  8
M47
 62
     2
100
AcDbLine
 10
262.228267
 20
61.826723
 11
262.988714
 21
62.587171
  0
LINE
  5
8F7
100
AcDbEntity
  8
M47
 62
     2
100
AcDbLine
 10
262.22829
 20
61.827844
 11
262.987594
 21
62.587148
  0
LINE
  5
8F8
100
AcDbEntity
  8
M47
 62
     2
100
AcDbLine
 10
262.228315
 20
61.828966
 11
262.986472
 21
62.587123
  0
LINE
  5
8F9
100
AcDbEntity
  8
M47
 62
     2
100
AcDbLine
 10
262.228341
 20
61.83009
 11
262.985348
 21
62.587097
  0
LINE
  5
8FA
100
AcDbEntity
  8
M47
 62
     2
100
AcDbLine
 10
262.228369
 20
61.831215
 11
262.984222
 21
62.587069
  0
LINE
  5
8FB
100
AcDbEntity
  8
M47
 62
     2
100
AcDbLine
 10
262.228399
 20
61.832342
 11
262.983095
 21
62.587039
  0
LINE
  5
8FC
100
AcDbEntity
  8
M47
 62
     2
100
AcDbLine
 10
262.22843
 20
61.833471
 11
262.981966
 21
62.587008
  0
LINE
  5
8FD
100
AcDbEntity
  8
M47
 62
     2
100
AcDbLine
 10
262.228463
 20
61.834602
 11
262.980836
 21
62.586975
  0
LINE
  5
8FE
100
AcDbEntity
  8
M47
 62
     2
100
AcDbLine
 10
262.228498
 20
61.835734
 11
262.979704
 21
62.58694
  0
LINE
  5
8FF
100
AcDbEntity
  8
M47
 62
     2
100
AcDbLine
 10
262.228535
 20
61.836868
 11
262.97857
 21
62.586903
  0
LINE
  5
900
100
AcDbEntity
  8
M47
 62
     2
100
AcDbLine
 10
262.228573
 20
61.838004
 11
262.977434
 21
62.586865
  0
LINE
  5
901
100
AcDbEntity
  8
M47
 62
     2
100
AcDbLine
 10
262.228613
 20
61.839141
 11
262.976297
 21
62.586825
  0
LINE
  5
902
100
AcDbEntity
  8
M47
 62
     2
100
AcDbLine
 10
262.228654
 20
61.84028
 11
262.975158
 21
62.586783
  0
LINE
  5
903
100
AcDbEntity
  8
M47
 62
     2
100
AcDbLine
 10
262.228698
 20
61.841421
 11
262.974017
 21
62.58674
  0
LINE
  5
904
100
AcDbEntity
  8
M47
 62
     2
100
AcDbLine
 10
262.228743
 20
61.842564
 11
262.972874
 21
62.586695
  0
LINE
  5
905
100
AcDbEntity
  8
M47
 62
     2
100
AcDbLine
 10
262.22879
 20
61.843708
 11
262.97173
 21
62.586648
  0
LINE
  5
906
100
AcDbEntity
  8
M47
 62
     2
100
AcDbLine
 10
262.228839
 20
61.844854
 11
262.970584
 21
62.586599
  0
LINE
  5
907
100
AcDbEntity
  8
M47
 62
     2
100
AcDbLine
 10
262.228889
 20
61.846002
 11
262.969436
 21
62.586548
  0
LINE
  5
908
100
AcDbEntity
  8
M47
 62
     2
100
AcDbLine
 10
262.228942
 20
61.847152
 11
262.968286
 21
62.586496
  0
LINE
  5
909
100
AcDbEntity
  8
M47
 62
     2
100
AcDbLine
 10
262.228996
 20
61.848303
 11
262.967134
 21
62.586442
  0
LINE
  5
90A
100
AcDbEntity
  8
M47
 62
     2
100
AcDbLine
 10
262.229051
 20
61.849457
 11
262.965981
 21
62.586386
  0
LINE
  5
90B
100
AcDbEntity
  8
M47
 62
     2
100
AcDbLine
 10
262.229109
 20
61.850612
 11
262.964826
 21
62.586329
  0
LINE
  5
90C
100
AcDbEntity
  8
M47
 62
     2
100
AcDbLine
 10
262.229169
 20
61.851769
 11
262.963669
 21
62.586269
  0
LINE
  5
90D
100
AcDbEntity
  8
M47
 62
     2
100
AcDbLine
 10
262.22923
 20
61.852928
 11
262.96251
 21
62.586208
  0
LINE
  5
90E
100
AcDbEntity
  8
M47
 62
     2
100
AcDbLine
 10
262.229293
 20
61.854088
 11
262.96135
 21
62.586145
  0
LINE
  5
90F
100
AcDbEntity
  8
M47
 62
     2
100
AcDbLine
 10
262.229358
 20
61.855251
 11
262.960187
 21
62.586079
  0
LINE
  5
910
100
AcDbEntity
  8
M47
 62
     2
100
AcDbLine
 10
262.229425
 20
61.856415
 11
262.959023
 21
62.586013
  0
LINE
  5
911
100
AcDbEntity
  8
M47
 62
     2
100
AcDbLine
 10
262.229494
 20
61.857581
 11
262.957857
 21
62.585944
  0
LINE
  5
912
100
AcDbEntity
  8
M47
 62
     2
100
AcDbLine
 10
262.229565
 20
61.858749
 11
262.956689
 21
62.585873
  0
LINE
  5
913
100
AcDbEntity
  8
M47
 62
     2
100
AcDbLine
 10
262.229637
 20
61.859919
 11
262.955519
 21
62.585801
  0
LINE
  5
914
100
AcDbEntity
  8
M47
 62
     2
100
AcDbLine
 10
262.229711
 20
61.861091
 11
262.954347
 21
62.585726
  0
LINE
  5
915
100
AcDbEntity
  8
M47
 62
     2
100
AcDbLine
 10
262.229788
 20
61.862265
 11
262.953173
 21
62.58565
  0
LINE
  5
916
100
AcDbEntity
  8
M47
 62
     2
100
AcDbLine
 10
262.229866
 20
61.86344
 11
262.951997
 21
62.585572
  0
LINE
  5
917
100
AcDbEntity
  8
M47
 62
     2
100
AcDbLine
 10
262.229946
 20
61.864618
 11
262.95082
 21
62.585492
  0
LINE
  5
918
100
AcDbEntity
  8
M47
 62
     2
100
AcDbLine
 10
262.230028
 20
61.865798
 11
262.94964
 21
62.585409
  0
LINE
  5
919
100
AcDbEntity
  8
M47
 62
     2
100
AcDbLine
 10
262.230112
 20
61.866979
 11
262.948459
 21
62.585325
  0
LINE
  5
91A
100
AcDbEntity
  8
M47
 62
     2
100
AcDbLine
 10
262.230198
 20
61.868162
 11
262.947275
 21
62.585239
  0
LINE
  5
91B
100
AcDbEntity
  8
M47
 62
     2
100
AcDbLine
 10
262.230286
 20
61.869348
 11
262.94609
 21
62.585151
  0
LINE
  5
91C
100
AcDbEntity
  8
M47
 62
     2
100
AcDbLine
 10
262.230376
 20
61.870535
 11
262.944903
 21
62.585061
  0
LINE
  5
91D
100
AcDbEntity
  8
M47
 62
     2
100
AcDbLine
 10
262.230468
 20
61.871725
 11
262.943713
 21
62.584969
  0
LINE
  5
91E
100
AcDbEntity
  8
M47
 62
     2
100
AcDbLine
 10
262.230562
 20
61.872916
 11
262.942522
 21
62.584876
  0
LINE
  5
91F
100
AcDbEntity
  8
M47
 62
     2
100
AcDbLine
 10
262.230658
 20
61.874109
 11
262.941328
 21
62.58478
  0
LINE
  5
920
100
AcDbEntity
  8
M47
 62
     2
100
AcDbLine
 10
262.230756
 20
61.875305
 11
262.940133
 21
62.584682
  0
LINE
  5
921
100
AcDbEntity
  8
M47
 62
     2
100
AcDbLine
 10
262.230856
 20
61.876502
 11
262.938936
 21
62.584582
  0
LINE
  5
922
100
AcDbEntity
  8
M47
 62
     2
100
AcDbLine
 10
262.230958
 20
61.877702
 11
262.937736
 21
62.58448
  0
LINE
  5
923
100
AcDbEntity
  8
M47
 62
     2
100
AcDbLine
 10
262.231062
 20
61.878903
 11
262.936535
 21
62.584376
  0
LINE
  5
924
100
AcDbEntity
  8
M47
 62
     2
100
AcDbLine
 10
262.231168
 20
61.880107
 11
262.935331
 21
62.584269
  0
LINE
  5
925
100
AcDbEntity
  8
M47
 62
     2
100
AcDbLine
 10
262.231277
 20
61.881312
 11
262.934125
 21
62.584161
  0
LINE
  5
926
100
AcDbEntity
  8
M47
 62
     2
100
AcDbLine
 10
262.231387
 20
61.88252
 11
262.932918
 21
62.584051
  0
LINE
  5
927
100
AcDbEntity
  8
M47
 62
     2
100
AcDbLine
 10
262.231499
 20
61.88373
 11
262.931708
 21
62.583938
  0
LINE
  5
928
100
AcDbEntity
  8
M47
 62
     2
100
AcDbLine
 10
262.231614
 20
61.884942
 11
262.930496
 21
62.583824
  0
LINE
  5
929
100
AcDbEntity
  8
M47
 62
     2
100
AcDbLine
 10
262.231731
 20
61.886156
 11
262.929282
 21
62.583707
  0
LINE
  5
92A
100
AcDbEntity
  8
M47
 62
     2
100
AcDbLine
 10
262.231849
 20
61.887372
 11
262.928065
 21
62.583588
  0
LINE
  5
92B
100
AcDbEntity
  8
M47
 62
     2
100
AcDbLine
 10
262.23197
 20
61.888591
 11
262.926847
 21
62.583467
  0
LINE
  5
92C
100
AcDbEntity
  8
M47
 62
     2
100
AcDbLine
 10
262.232093
 20
61.889811
 11
262.925626
 21
62.583344
  0
LINE
  5
92D
100
AcDbEntity
  8
M47
 62
     2
100
AcDbLine
 10
262.232219
 20
61.891034
 11
262.924404
 21
62.583219
  0
LINE
  5
92E
100
AcDbEntity
  8
M47
 62
     2
100
AcDbLine
 10
262.232346
 20
61.892259
 11
262.923179
 21
62.583092
  0
LINE
  5
92F
100
AcDbEntity
  8
M47
 62
     2
100
AcDbLine
 10
262.232476
 20
61.893486
 11
262.921952
 21
62.582962
  0
LINE
  5
930
100
AcDbEntity
  8
M47
 62
     2
100
AcDbLine
 10
262.232608
 20
61.894715
 11
262.920722
 21
62.58283
  0
LINE
  5
931
100
AcDbEntity
  8
M47
 62
     2
100
AcDbLine
 10
262.232742
 20
61.895947
 11
262.919491
 21
62.582696
  0
LINE
  5
932
100
AcDbEntity
  8
M47
 62
     2
100
AcDbLine
 10
262.232878
 20
61.897181
 11
262.918257
 21
62.58256
  0
LINE
  5
933
100
AcDbEntity
  8
M47
 62
     2
100
AcDbLine
 10
262.233017
 20
61.898417
 11
262.917021
 21
62.582421
  0
LINE
  5
934
100
AcDbEntity
  8
M47
 62
     2
100
AcDbLine
 10
262.233158
 20
61.899655
 11
262.915783
 21
62.58228
  0
LINE
  5
935
100
AcDbEntity
  8
M47
 62
     2
100
AcDbLine
 10
262.233301
 20
61.900895
 11
262.914542
 21
62.582137
  0
LINE
  5
936
100
AcDbEntity
  8
M47
 62
     2
100
AcDbLine
 10
262.233446
 20
61.902138
 11
262.913299
 21
62.581991
  0
LINE
  5
937
100
AcDbEntity
  8
M47
 62
     2
100
AcDbLine
 10
262.233594
 20
61.903384
 11
262.912054
 21
62.581844
  0
LINE
  5
938
100
AcDbEntity
  8
M47
 62
     2
100
AcDbLine
 10
262.233744
 20
61.904631
 11
262.910807
 21
62.581694
  0
LINE
  5
939
100
AcDbEntity
  8
M47
 62
     2
100
AcDbLine
 10
262.233897
 20
61.905881
 11
262.909557
 21
62.581541
  0
LINE
  5
93A
100
AcDbEntity
  8
M47
 62
     2
100
AcDbLine
 10
262.234051
 20
61.907133
 11
262.908305
 21
62.581386
  0
LINE
  5
93B
100
AcDbEntity
  8
M47
 62
     2
100
AcDbLine
 10
262.234208
 20
61.908388
 11
262.90705
 21
62.581229
  0
LINE
  5
93C
100
AcDbEntity
  8
M47
 62
     2
100
AcDbLine
 10
262.234368
 20
61.909645
 11
262.905793
 21
62.58107
  0
LINE
  5
93D
100
AcDbEntity
  8
M47
 62
     2
100
AcDbLine
 10
262.23453
 20
61.910904
 11
262.904534
 21
62.580908
  0
LINE
  5
93E
100
AcDbEntity
  8
M47
 62
     2
100
AcDbLine
 10
262.234694
 20
61.912166
 11
262.903272
 21
62.580744
  0
LINE
  5
93F
100
AcDbEntity
  8
M47
 62
     2
100
AcDbLine
 10
262.234861
 20
61.91343
 11
262.902008
 21
62.580577
  0
LINE
  5
940
100
AcDbEntity
  8
M47
 62
     2
100
AcDbLine
 10
262.23503
 20
61.914696
 11
262.900741
 21
62.580408
  0
LINE
  5
941
100
AcDbEntity
  8
M47
 62
     2
100
AcDbLine
 10
262.235202
 20
61.915966
 11
262.899472
 21
62.580236
  0
LINE
  5
942
100
AcDbEntity
  8
M47
 62
     2
100
AcDbLine
 10
262.235376
 20
61.917237
 11
262.898201
 21
62.580062
  0
LINE
  5
943
100
AcDbEntity
  8
M47
 62
     2
100
AcDbLine
 10
262.235552
 20
61.918511
 11
262.896927
 21
62.579885
  0
LINE
  5
944
100
AcDbEntity
  8
M47
 62
     2
100
AcDbLine
 10
262.235732
 20
61.919788
 11
262.89565
 21
62.579706
  0
LINE
  5
945
100
AcDbEntity
  8
M47
 62
     2
100
AcDbLine
 10
262.235913
 20
61.921067
 11
262.894371
 21
62.579525
  0
LINE
  5
946
100
AcDbEntity
  8
M47
 62
     2
100
AcDbLine
 10
262.236097
 20
61.922348
 11
262.893089
 21
62.57934
  0
LINE
  5
947
100
AcDbEntity
  8
M47
 62
     2
100
AcDbLine
 10
262.236284
 20
61.923632
 11
262.891805
 21
62.579154
  0
LINE
  5
948
100
AcDbEntity
  8
M47
 62
     2
100
AcDbLine
 10
262.236473
 20
61.924919
 11
262.890519
 21
62.578964
  0
LINE
  5
949
100
AcDbEntity
  8
M47
 62
     2
100
AcDbLine
 10
262.236665
 20
61.926209
 11
262.889229
 21
62.578772
  0
LINE
  5
94A
100
AcDbEntity
  8
M47
 62
     2
100
AcDbLine
 10
262.23686
 20
61.9275
 11
262.887937
 21
62.578578
  0
LINE
  5
94B
100
AcDbEntity
  8
M47
 62
     2
100
AcDbLine
 10
262.237057
 20
61.928795
 11
262.886643
 21
62.578381
  0
LINE
  5
94C
100
AcDbEntity
  8
M47
 62
     2
100
AcDbLine
 10
262.237257
 20
61.930092
 11
262.885345
 21
62.578181
  0
LINE
  5
94D
100
AcDbEntity
  8
M47
 62
     2
100
AcDbLine
 10
262.237459
 20
61.931392
 11
262.884046
 21
62.577979
  0
LINE
  5
94E
100
AcDbEntity
  8
M47
 62
     2
100
AcDbLine
 10
262.237664
 20
61.932695
 11
262.882743
 21
62.577773
  0
LINE
  5
94F
100
AcDbEntity
  8
M47
 62
     2
100
AcDbLine
 10
262.237872
 20
61.934
 11
262.881438
 21
62.577566
  0
LINE
  5
950
100
AcDbEntity
  8
M47
 62
     2
100
AcDbLine
 10
262.238083
 20
61.935308
 11
262.88013
 21
62.577355
  0
LINE
  5
951
100
AcDbEntity
  8
M47
 62
     2
100
AcDbLine
 10
262.238296
 20
61.936619
 11
262.878819
 21
62.577142
  0
LINE
  5
952
100
AcDbEntity
  8
M47
 62
     2
100
AcDbLine
 10
262.238512
 20
61.937932
 11
262.877506
 21
62.576926
  0
LINE
  5
953
100
AcDbEntity
  8
M47
 62
     2
100
AcDbLine
 10
262.238731
 20
61.939248
 11
262.876189
 21
62.576707
  0
LINE
  5
954
100
AcDbEntity
  8
M47
 62
     2
100
AcDbLine
 10
262.238953
 20
61.940568
 11
262.87487
 21
62.576485
  0
LINE
  5
955
100
AcDbEntity
  8
M47
 62
     2
100
AcDbLine
 10
262.239177
 20
61.941889
 11
262.873548
 21
62.576261
  0
LINE
  5
956
100
AcDbEntity
  8
M47
 62
     2
100
AcDbLine
 10
262.239404
 20
61.943214
 11
262.872224
 21
62.576033
  0
LINE
  5
957
100
AcDbEntity
  8
M47
 62
     2
100
AcDbLine
 10
262.239634
 20
61.944542
 11
262.870896
 21
62.575803
  0
LINE
  5
958
100
AcDbEntity
  8
M47
 62
     2
100
AcDbLine
 10
262.239867
 20
61.945872
 11
262.869566
 21
62.57557
  0
LINE
  5
959
100
AcDbEntity
  8
M47
 62
     2
100
AcDbLine
 10
262.240103
 20
61.947206
 11
262.868232
 21
62.575334
  0
LINE
  5
95A
100
AcDbEntity
  8
M47
 62
     2
100
AcDbLine
 10
262.240342
 20
61.948542
 11
262.866896
 21
62.575095
  0
LINE
  5
95B
100
AcDbEntity
  8
M47
 62
     2
100
AcDbLine
 10
262.240584
 20
61.949881
 11
262.865557
 21
62.574854
  0
LINE
  5
95C
100
AcDbEntity
  8
M47
 62
     2
100
AcDbLine
 10
262.240829
 20
61.951223
 11
262.864214
 21
62.574609
  0
LINE
  5
95D
100
AcDbEntity
  8
M47
 62
     2
100
AcDbLine
 10
262.241077
 20
61.952569
 11
262.862869
 21
62.574361
  0
LINE
  5
95E
100
AcDbEntity
  8
M47
 62
     2
100
AcDbLine
 10
262.241327
 20
61.953917
 11
262.861521
 21
62.57411
  0
LINE
  5
95F
100
AcDbEntity
  8
M47
 62
     2
100
AcDbLine
 10
262.241581
 20
61.955268
 11
262.86017
 21
62.573856
  0
LINE
  5
960
100
AcDbEntity
  8
M47
 62
     2
100
AcDbLine
 10
262.241838
 20
61.956622
 11
262.858815
 21
62.573599
  0
LINE
  5
961
100
AcDbEntity
  8
M47
 62
     2
100
AcDbLine
 10
262.242098
 20
61.95798
 11
262.857458
 21
62.573339
  0
LINE
  5
962
100
AcDbEntity
  8
M47
 62
     2
100
AcDbLine
 10
262.242361
 20
61.95934
 11
262.856097
 21
62.573076
  0
LINE
  5
963
100
AcDbEntity
  8
M47
 62
     2
100
AcDbLine
 10
262.242628
 20
61.960704
 11
262.854734
 21
62.57281
  0
LINE
  5
964
100
AcDbEntity
  8
M47
 62
     2
100
AcDbLine
 10
262.242897
 20
61.962071
 11
262.853367
 21
62.572541
  0
LINE
  5
965
100
AcDbEntity
  8
M47
 62
     2
100
AcDbLine
 10
262.24317
 20
61.963441
 11
262.851997
 21
62.572268
  0
LINE
  5
966
100
AcDbEntity
  8
M47
 62
     2
100
AcDbLine
 10
262.243445
 20
61.964814
 11
262.850624
 21
62.571992
  0
LINE
  5
967
100
AcDbEntity
  8
M47
 62
     2
100
AcDbLine
 10
262.243724
 20
61.966191
 11
262.849247
 21
62.571713
  0
LINE
  5
968
100
AcDbEntity
  8
M47
 62
     2
100
AcDbLine
 10
262.244007
 20
61.96757
 11
262.847867
 21
62.571431
  0
LINE
  5
969
100
AcDbEntity
  8
M47
 62
     2
100
AcDbLine
 10
262.244292
 20
61.968953
 11
262.846484
 21
62.571145
  0
LINE
  5
96A
100
AcDbEntity
  8
M47
 62
     2
100
AcDbLine
 10
262.244581
 20
61.97034
 11
262.845098
 21
62.570856
  0
LINE
  5
96B
100
AcDbEntity
  8
M47
 62
     2
100
AcDbLine
 10
262.244874
 20
61.971729
 11
262.843708
 21
62.570564
  0
LINE
  5
96C
100
AcDbEntity
  8
M47
 62
     2
100
AcDbLine
 10
262.245169
 20
61.973123
 11
262.842315
 21
62.570269
  0
LINE
  5
96D
100
AcDbEntity
  8
M47
 62
     2
100
AcDbLine
 10
262.245468
 20
61.974519
 11
262.840919
 21
62.569969
  0
LINE
  5
96E
100
AcDbEntity
  8
M47
 62
     2
100
AcDbLine
 10
262.245771
 20
61.975919
 11
262.839519
 21
62.569667
  0
LINE
  5
96F
100
AcDbEntity
  8
M47
 62
     2
100
AcDbLine
 10
262.246077
 20
61.977322
 11
262.838115
 21
62.569361
  0
LINE
  5
970
100
AcDbEntity
  8
M47
 62
     2
100
AcDbLine
 10
262.246386
 20
61.978729
 11
262.836709
 21
62.569052
  0
LINE
  5
971
100
AcDbEntity
  8
M47
 62
     2
100
AcDbLine
 10
262.246699
 20
61.98014
 11
262.835298
 21
62.568739
  0
LINE
  5
972
100
AcDbEntity
  8
M47
 62
     2
100
AcDbLine
 10
262.247016
 20
61.981554
 11
262.833884
 21
62.568422
  0
LINE
  5
973
100
AcDbEntity
  8
M47
 62
     2
100
AcDbLine
 10
262.247336
 20
61.982971
 11
262.832467
 21
62.568102
  0
LINE
  5
974
100
AcDbEntity
  8
M47
 62
     2
100
AcDbLine
 10
262.24766
 20
61.984392
 11
262.831045
 21
62.567778
  0
LINE
  5
975
100
AcDbEntity
  8
M47
 62
     2
100
AcDbLine
 10
262.247987
 20
61.985817
 11
262.829621
 21
62.567451
  0
LINE
  5
976
100
AcDbEntity
  8
M47
 62
     2
100
AcDbLine
 10
262.248318
 20
61.987246
 11
262.828192
 21
62.56712
  0
LINE
  5
977
100
AcDbEntity
  8
M47
 62
     2
100
AcDbLine
 10
262.248653
 20
61.988678
 11
262.82676
 21
62.566785
  0
LINE
  5
978
100
AcDbEntity
  8
M47
 62
     2
100
AcDbLine
 10
262.248991
 20
61.990114
 11
262.825324
 21
62.566446
  0
LINE
  5
979
100
AcDbEntity
  8
M47
 62
     2
100
AcDbLine
 10
262.249334
 20
61.991554
 11
262.823884
 21
62.566104
  0
LINE
  5
97A
100
AcDbEntity
  8
M47
 62
     2
100
AcDbLine
 10
262.24968
 20
61.992997
 11
262.82244
 21
62.565758
  0
LINE
  5
97B
100
AcDbEntity
  8
M47
 62
     2
100
AcDbLine
 10
262.25003
 20
61.994445
 11
262.820993
 21
62.565408
  0
LINE
  5
97C
100
AcDbEntity
  8
M47
 62
     2
100
AcDbLine
 10
262.250384
 20
61.995896
 11
262.819542
 21
62.565054
  0
LINE
  5
97D
100
AcDbEntity
  8
M47
 62
     2
100
AcDbLine
 10
262.250742
 20
61.997351
 11
262.818086
 21
62.564696
  0
LINE
  5
97E
100
AcDbEntity
  8
M47
 62
     2
100
AcDbLine
 10
262.251104
 20
61.998811
 11
262.816627
 21
62.564334
  0
LINE
  5
97F
100
AcDbEntity
  8
M47
 62
     2
100
AcDbLine
 10
262.251469
 20
62.000274
 11
262.815164
 21
62.563968
  0
LINE
  5
980
100
AcDbEntity
  8
M47
 62
     2
100
AcDbLine
 10
262.251839
 20
62.001741
 11
262.813697
 21
62.563598
  0
LINE
  5
981
100
AcDbEntity
  8
M47
 62
     2
100
AcDbLine
 10
262.252213
 20
62.003213
 11
262.812225
 21
62.563224
  0
LINE
  5
982
100
AcDbEntity
  8
M47
 62
     2
100
AcDbLine
 10
262.252591
 20
62.004688
 11
262.81075
 21
62.562846
  0
LINE
  5
983
100
AcDbEntity
  8
M47
 62
     2
100
AcDbLine
 10
262.252974
 20
62.006168
 11
262.80927
 21
62.562464
  0
LINE
  5
984
100
AcDbEntity
  8
M47
 62
     2
100
AcDbLine
 10
262.25336
 20
62.007652
 11
262.807786
 21
62.562078
  0
LINE
  5
985
100
AcDbEntity
  8
M47
 62
     2
100
AcDbLine
 10
262.253751
 20
62.00914
 11
262.806298
 21
62.561687
  0
LINE
  5
986
100
AcDbEntity
  8
M47
 62
     2
100
AcDbLine
 10
262.254146
 20
62.010632
 11
262.804805
 21
62.561292
  0
LINE
  5
987
100
AcDbEntity
  8
M47
 62
     2
100
AcDbLine
 10
262.254545
 20
62.012129
 11
262.803308
 21
62.560892
  0
LINE
  5
988
100
AcDbEntity
  8
M47
 62
     2
100
AcDbLine
 10
262.254949
 20
62.01363
 11
262.801807
 21
62.560489
  0
LINE
  5
989
100
AcDbEntity
  8
M47
 62
     2
100
AcDbLine
 10
262.255357
 20
62.015136
 11
262.800302
 21
62.56008
  0
LINE
  5
98A
100
AcDbEntity
  8
M47
 62
     2
100
AcDbLine
 10
262.25577
 20
62.016646
 11
262.798792
 21
62.559668
  0
LINE
  5
98B
100
AcDbEntity
  8
M47
 62
     2
100
AcDbLine
 10
262.256187
 20
62.018161
 11
262.797277
 21
62.55925
  0
LINE
  5
98C
100
AcDbEntity
  8
M47
 62
     2
100
AcDbLine
 10
262.256609
 20
62.01968
 11
262.795758
 21
62.558829
  0
LINE
  5
98D
100
AcDbEntity
  8
M47
 62
     2
100
AcDbLine
 10
262.257035
 20
62.021204
 11
262.794234
 21
62.558402
  0
LINE
  5
98E
100
AcDbEntity
  8
M47
 62
     2
100
AcDbLine
 10
262.257467
 20
62.022732
 11
262.792705
 21
62.557971
  0
LINE
  5
98F
100
AcDbEntity
  8
M47
 62
     2
100
AcDbLine
 10
262.257902
 20
62.024266
 11
262.791172
 21
62.557535
  0
LINE
  5
990
100
AcDbEntity
  8
M47
 62
     2
100
AcDbLine
 10
262.258343
 20
62.025804
 11
262.789634
 21
62.557095
  0
LINE
  5
991
100
AcDbEntity
  8
M47
 62
     2
100
AcDbLine
 10
262.258788
 20
62.027347
 11
262.788091
 21
62.556649
  0
LINE
  5
992
100
AcDbEntity
  8
M47
 62
     2
100
AcDbLine
 10
262.259239
 20
62.028894
 11
262.786543
 21
62.556199
  0
LINE
  5
993
100
AcDbEntity
  8
M47
 62
     2
100
AcDbLine
 10
262.259694
 20
62.030447
 11
262.784991
 21
62.555744
  0
LINE
  5
994
100
AcDbEntity
  8
M47
 62
     2
100
AcDbLine
 10
262.260154
 20
62.032005
 11
262.783433
 21
62.555283
  0
LINE
  5
995
100
AcDbEntity
  8
M47
 62
     2
100
AcDbLine
 10
262.26062
 20
62.033568
 11
262.78187
 21
62.554818
  0
LINE
  5
996
100
AcDbEntity
  8
M47
 62
     2
100
AcDbLine
 10
262.26109
 20
62.035136
 11
262.780302
 21
62.554347
  0
LINE
  5
997
100
AcDbEntity
  8
M47
 62
     2
100
AcDbLine
 10
262.261566
 20
62.036709
 11
262.778729
 21
62.553872
  0
LINE
  5
998
100
AcDbEntity
  8
M47
 62
     2
100
AcDbLine
 10
262.262047
 20
62.038287
 11
262.777151
 21
62.553391
  0
LINE
  5
999
100
AcDbEntity
  8
M47
 62
     2
100
AcDbLine
 10
262.262533
 20
62.039871
 11
262.775567
 21
62.552905
  0
LINE
  5
99A
100
AcDbEntity
  8
M47
 62
     2
100
AcDbLine
 10
262.263025
 20
62.04146
 11
262.773978
 21
62.552413
  0
LINE
  5
99B
100
AcDbEntity
  8
M47
 62
     2
100
AcDbLine
 10
262.263522
 20
62.043054
 11
262.772384
 21
62.551916
  0
LINE
  5
99C
100
AcDbEntity
  8
M47
 62
     2
100
AcDbLine
 10
262.264024
 20
62.044654
 11
262.770784
 21
62.551414
  0
LINE
  5
99D
100
AcDbEntity
  8
M47
 62
     2
100
AcDbLine
 10
262.264532
 20
62.04626
 11
262.769178
 21
62.550905
  0
LINE
  5
99E
100
AcDbEntity
  8
M47
 62
     2
100
AcDbLine
 10
262.265046
 20
62.047871
 11
262.767567
 21
62.550392
  0
LINE
  5
99F
100
AcDbEntity
  8
M47
 62
     2
100
AcDbLine
 10
262.265565
 20
62.049488
 11
262.76595
 21
62.549872
  0
LINE
  5
9A0
100
AcDbEntity
  8
M47
 62
     2
100
AcDbLine
 10
262.266091
 20
62.05111
 11
262.764327
 21
62.549347
  0
LINE
  5
9A1
100
AcDbEntity
  8
M47
 62
     2
100
AcDbLine
 10
262.266622
 20
62.052739
 11
262.762699
 21
62.548816
  0
LINE
  5
9A2
100
AcDbEntity
  8
M47
 62
     2
100
AcDbLine
 10
262.267159
 20
62.054373
 11
262.761064
 21
62.548279
  0
LINE
  5
9A3
100
AcDbEntity
  8
M47
 62
     2
100
AcDbLine
 10
262.267702
 20
62.056014
 11
262.759424
 21
62.547736
  0
LINE
  5
9A4
100
AcDbEntity
  8
M47
 62
     2
100
AcDbLine
 10
262.268251
 20
62.05766
 11
262.757777
 21
62.547187
  0
LINE
  5
9A5
100
AcDbEntity
  8
M47
 62
     2
100
AcDbLine
 10
262.268806
 20
62.059313
 11
262.756125
 21
62.546631
  0
LINE
  5
9A6
100
AcDbEntity
  8
M47
 62
     2
100
AcDbLine
 10
262.269368
 20
62.060972
 11
262.754465
 21
62.54607
  0
LINE
  5
9A7
100
AcDbEntity
  8
M47
 62
     2
100
AcDbLine
 10
262.269936
 20
62.062638
 11
262.7528
 21
62.545502
  0
LINE
  5
9A8
100
AcDbEntity
  8
M47
 62
     2
100
AcDbLine
 10
262.27051
 20
62.064309
 11
262.751128
 21
62.544927
  0
LINE
  5
9A9
100
AcDbEntity
  8
M47
 62
     2
100
AcDbLine
 10
262.271091
 20
62.065988
 11
262.74945
 21
62.544346
  0
LINE
  5
9AA
100
AcDbEntity
  8
M47
 62
     2
100
AcDbLine
 10
262.271679
 20
62.067673
 11
262.747765
 21
62.543759
  0
LINE
  5
9AB
100
AcDbEntity
  8
M47
 62
     2
100
AcDbLine
 10
262.272273
 20
62.069365
 11
262.746073
 21
62.543165
  0
LINE
  5
9AC
100
AcDbEntity
  8
M47
 62
     2
100
AcDbLine
 10
262.272874
 20
62.071063
 11
262.744375
 21
62.542563
  0
LINE
  5
9AD
100
AcDbEntity
  8
M47
 62
     2
100
AcDbLine
 10
262.273482
 20
62.072769
 11
262.742669
 21
62.541955
  0
LINE
  5
9AE
100
AcDbEntity
  8
M47
 62
     2
100
AcDbLine
 10
262.274097
 20
62.074481
 11
262.740957
 21
62.54134
  0
LINE
  5
9AF
100
AcDbEntity
  8
M47
 62
     2
100
AcDbLine
 10
262.27472
 20
62.076201
 11
262.739237
 21
62.540718
  0
LINE
  5
9B0
100
AcDbEntity
  8
M47
 62
     2
100
AcDbLine
 10
262.275349
 20
62.077927
 11
262.73751
 21
62.540089
  0
LINE
  5
9B1
100
AcDbEntity
  8
M47
 62
     2
100
AcDbLine
 10
262.275986
 20
62.079662
 11
262.735776
 21
62.539452
  0
LINE
  5
9B2
100
AcDbEntity
  8
M47
 62
     2
100
AcDbLine
 10
262.27663
 20
62.081403
 11
262.734034
 21
62.538808
  0
LINE
  5
9B3
100
AcDbEntity
  8
M47
 62
     2
100
AcDbLine
 10
262.277282
 20
62.083153
 11
262.732285
 21
62.538156
  0
LINE
  5
9B4
100
AcDbEntity
  8
M47
 62
     2
100
AcDbLine
 10
262.277941
 20
62.084909
 11
262.730528
 21
62.537496
  0
LINE
  5
9B5
100
AcDbEntity
  8
M47
 62
     2
100
AcDbLine
 10
262.278609
 20
62.086674
 11
262.728763
 21
62.536829
  0
LINE
  5
9B6
100
AcDbEntity
  8
M47
 62
     2
100
AcDbLine
 10
262.279284
 20
62.088447
 11
262.726991
 21
62.536154
  0
LINE
  5
9B7
100
AcDbEntity
  8
M47
 62
     2
100
AcDbLine
 10
262.279967
 20
62.090228
 11
262.72521
 21
62.535471
  0
LINE
  5
9B8
100
AcDbEntity
  8
M47
 62
     2
100
AcDbLine
 10
262.280659
 20
62.092017
 11
262.723421
 21
62.534779
  0
LINE
  5
9B9
100
AcDbEntity
  8
M47
 62
     2
100
AcDbLine
 10
262.281359
 20
62.093814
 11
262.721624
 21
62.534079
  0
LINE
  5
9BA
100
AcDbEntity
  8
M47
 62
     2
100
AcDbLine
 10
262.282067
 20
62.09562
 11
262.719818
 21
62.533371
  0
LINE
  5
9BB
100
AcDbEntity
  8
M47
 62
     2
100
AcDbLine
 10
262.282784
 20
62.097434
 11
262.718003
 21
62.532654
  0
LINE
  5
9BC
100
AcDbEntity
  8
M47
 62
     2
100
AcDbLine
 10
262.28351
 20
62.099258
 11
262.71618
 21
62.531928
  0
LINE
  5
9BD
100
AcDbEntity
  8
M47
 62
     2
100
AcDbLine
 10
262.284245
 20
62.10109
 11
262.714348
 21
62.531193
  0
LINE
  5
9BE
100
AcDbEntity
  8
M47
 62
     2
100
AcDbLine
 10
262.284989
 20
62.102931
 11
262.712506
 21
62.530449
  0
LINE
  5
9BF
100
AcDbEntity
  8
M47
 62
     2
100
AcDbLine
 10
262.285742
 20
62.104782
 11
262.710656
 21
62.529696
  0
LINE
  5
9C0
100
AcDbEntity
  8
M47
 62
     2
100
AcDbLine
 10
262.286505
 20
62.106642
 11
262.708796
 21
62.528933
  0
LINE
  5
9C1
100
AcDbEntity
  8
M47
 62
     2
100
AcDbLine
 10
262.287277
 20
62.108512
 11
262.706926
 21
62.528161
  0
LINE
  5
9C2
100
AcDbEntity
  8
M47
 62
     2
100
AcDbLine
 10
262.288059
 20
62.110391
 11
262.705046
 21
62.527379
  0
LINE
  5
9C3
100
AcDbEntity
  8
M47
 62
     2
100
AcDbLine
 10
262.288851
 20
62.112281
 11
262.703157
 21
62.526586
  0
LINE
  5
9C4
100
AcDbEntity
  8
M47
 62
     2
100
AcDbLine
 10
262.289654
 20
62.114181
 11
262.701257
 21
62.525784
  0
LINE
  5
9C5
100
AcDbEntity
  8
M47
 62
     2
100
AcDbLine
 10
262.290466
 20
62.116091
 11
262.699347
 21
62.524971
  0
LINE
  5
9C6
100
AcDbEntity
  8
M47
 62
     2
100
AcDbLine
 10
262.29129
 20
62.118012
 11
262.697426
 21
62.524148
  0
LINE
  5
9C7
100
AcDbEntity
  8
M47
 62
     2
100
AcDbLine
 10
262.292124
 20
62.119943
 11
262.695495
 21
62.523314
  0
LINE
  5
9C8
100
AcDbEntity
  8
M47
 62
     2
100
AcDbLine
 10
262.292969
 20
62.121886
 11
262.693552
 21
62.522469
  0
LINE
  5
9C9
100
AcDbEntity
  8
M47
 62
     2
100
AcDbLine
 10
262.293825
 20
62.12384
 11
262.691598
 21
62.521612
  0
LINE
  5
9CA
100
AcDbEntity
  8
M47
 62
     2
100
AcDbLine
 10
262.294694
 20
62.125805
 11
262.689633
 21
62.520744
  0
LINE
  5
9CB
100
AcDbEntity
  8
M47
 62
     2
100
AcDbLine
 10
262.295573
 20
62.127782
 11
262.687655
 21
62.519864
  0
LINE
  5
9CC
100
AcDbEntity
  8
M47
 62
     2
100
AcDbLine
 10
262.296465
 20
62.129772
 11
262.685666
 21
62.518973
  0
LINE
  5
9CD
100
AcDbEntity
  8
M47
 62
     2
100
AcDbLine
 10
262.297369
 20
62.131773
 11
262.683665
 21
62.518068
  0
LINE
  5
9CE
100
AcDbEntity
  8
M47
 62
     2
100
AcDbLine
 10
262.298286
 20
62.133787
 11
262.68165
 21
62.517152
  0
LINE
  5
9CF
100
AcDbEntity
  8
M47
 62
     2
100
AcDbLine
 10
262.299216
 20
62.135814
 11
262.679623
 21
62.516222
  0
LINE
  5
9D0
100
AcDbEntity
  8
M47
 62
     2
100
AcDbLine
 10
262.300158
 20
62.137855
 11
262.677583
 21
62.515279
  0
LINE
  5
9D1
100
AcDbEntity
  8
M47
 62
     2
100
AcDbLine
 10
262.301115
 20
62.139908
 11
262.67553
 21
62.514323
  0
LINE
  5
9D2
100
AcDbEntity
  8
M47
 62
     2
100
AcDbLine
 10
262.302085
 20
62.141976
 11
262.673462
 21
62.513353
  0
LINE
  5
9D3
100
AcDbEntity
  8
M47
 62
     2
100
AcDbLine
 10
262.303069
 20
62.144057
 11
262.67138
 21
62.512369
  0
LINE
  5
9D4
100
AcDbEntity
  8
M47
 62
     2
100
AcDbLine
 10
262.304068
 20
62.146154
 11
262.669284
 21
62.51137
  0
LINE
  5
9D5
100
AcDbEntity
  8
M47
 62
     2
100
AcDbLine
 10
262.305081
 20
62.148265
 11
262.667173
 21
62.510357
  0
LINE
  5
9D6
100
AcDbEntity
  8
M47
 62
     2
100
AcDbLine
 10
262.30611
 20
62.150391
 11
262.665047
 21
62.509328
  0
LINE
  5
9D7
100
AcDbEntity
  8
M47
 62
     2
100
AcDbLine
 10
262.307155
 20
62.152533
 11
262.662905
 21
62.508283
  0
LINE
  5
9D8
100
AcDbEntity
  8
M47
 62
     2
100
AcDbLine
 10
262.308215
 20
62.154691
 11
262.660747
 21
62.507222
  0
LINE
  5
9D9
100
AcDbEntity
  8
M47
 62
     2
100
AcDbLine
 10
262.309293
 20
62.156866
 11
262.658572
 21
62.506145
  0
LINE
  5
9DA
100
AcDbEntity
  8
M47
 62
     2
100
AcDbLine
 10
262.310387
 20
62.159057
 11
262.65638
 21
62.505051
  0
LINE
  5
9DB
100
AcDbEntity
  8
M47
 62
     2
100
AcDbLine
 10
262.311499
 20
62.161267
 11
262.654171
 21
62.503939
  0
LINE
  5
9DC
100
AcDbEntity
  8
M47
 62
     2
100
AcDbLine
 10
262.312629
 20
62.163494
 11
262.651944
 21
62.502809
  0
LINE
  5
9DD
100
AcDbEntity
  8
M47
 62
     2
100
AcDbLine
 10
262.313777
 20
62.16574
 11
262.649698
 21
62.501661
  0
LINE
  5
9DE
100
AcDbEntity
  8
M47
 62
     2
100
AcDbLine
 10
262.314944
 20
62.168005
 11
262.647433
 21
62.500493
  0
LINE
  5
9DF
100
AcDbEntity
  8
M47
 62
     2
100
AcDbLine
 10
262.316132
 20
62.170289
 11
262.645148
 21
62.499306
  0
LINE
  5
9E0
100
AcDbEntity
  8
M47
 62
     2
100
AcDbLine
 10
262.317339
 20
62.172594
 11
262.642843
 21
62.498098
  0
LINE
  5
9E1
100
AcDbEntity
  8
M47
 62
     2
100
AcDbLine
 10
262.318568
 20
62.17492
 11
262.640517
 21
62.49687
  0
LINE
  5
9E2
100
AcDbEntity
  8
M47
 62
     2
100
AcDbLine
 10
262.319818
 20
62.177268
 11
262.638169
 21
62.495619
  0
LINE
  5
9E3
100
AcDbEntity
  8
M47
 62
     2
100
AcDbLine
 10
262.321091
 20
62.179639
 11
262.635799
 21
62.494347
  0
LINE
  5
9E4
100
AcDbEntity
  8
M47
 62
     2
100
AcDbLine
 10
262.322387
 20
62.182032
 11
262.633406
 21
62.49305
  0
LINE
  5
9E5
100
AcDbEntity
  8
M47
 62
     2
100
AcDbLine
 10
262.323708
 20
62.18445
 11
262.630988
 21
62.49173
  0
LINE
  5
9E6
100
AcDbEntity
  8
M47
 62
     2
100
AcDbLine
 10
262.325053
 20
62.186893
 11
262.628545
 21
62.490385
  0
LINE
  5
9E7
100
AcDbEntity
  8
M47
 62
     2
100
AcDbLine
 10
262.326424
 20
62.189361
 11
262.626077
 21
62.489014
  0
LINE
  5
9E8
100
AcDbEntity
  8
M47
 62
     2
100
AcDbLine
 10
262.327822
 20
62.191857
 11
262.623581
 21
62.487616
  0
LINE
  5
9E9
100
AcDbEntity
  8
M47
 62
     2
100
AcDbLine
 10
262.329248
 20
62.19438
 11
262.621057
 21
62.486189
  0
LINE
  5
9EA
100
AcDbEntity
  8
M47
 62
     2
100
AcDbLine
 10
262.330704
 20
62.196933
 11
262.618505
 21
62.484734
  0
LINE
  5
9EB
100
AcDbEntity
  8
M47
 62
     2
100
AcDbLine
 10
262.33219
 20
62.199516
 11
262.615921
 21
62.483248
  0
LINE
  5
9EC
100
AcDbEntity
  8
M47
 62
     2
100
AcDbLine
 10
262.333707
 20
62.202131
 11
262.613306
 21
62.481731
  0
LINE
  5
9ED
100
AcDbEntity
  8
M47
 62
     2
100
AcDbLine
 10
262.335258
 20
62.20478
 11
262.610658
 21
62.48018
  0
LINE
  5
9EE
100
AcDbEntity
  8
M47
 62
     2
100
AcDbLine
 10
262.336843
 20
62.207463
 11
262.607975
 21
62.478594
  0
LINE
  5
9EF
100
AcDbEntity
  8
M47
 62
     2
100
AcDbLine
 10
262.338465
 20
62.210182
 11
262.605256
 21
62.476972
  0
LINE
  5
9F0
100
AcDbEntity
  8
M47
 62
     2
100
AcDbLine
 10
262.340125
 20
62.212939
 11
262.602498
 21
62.475312
  0
LINE
  5
9F1
100
AcDbEntity
  8
M47
 62
     2
100
AcDbLine
 10
262.341826
 20
62.215737
 11
262.599701
 21
62.473612
  0
LINE
  5
9F2
100
AcDbEntity
  8
M47
 62
     2
100
AcDbLine
 10
262.343568
 20
62.218577
 11
262.596861
 21
62.47187
  0
LINE
  5
9F3
100
AcDbEntity
  8
M47
 62
     2
100
AcDbLine
 10
262.345355
 20
62.221462
 11
262.593976
 21
62.470082
  0
LINE
  5
9F4
100
AcDbEntity
  8
M47
 62
     2
100
AcDbLine
 10
262.34719
 20
62.224394
 11
262.591044
 21
62.468248
  0
LINE
  5
9F5
100
AcDbEntity
  8
M47
 62
     2
100
AcDbLine
 10
262.349074
 20
62.227376
 11
262.588062
 21
62.466363
  0
LINE
  5
9F6
100
AcDbEntity
  8
M47
 62
     2
100
AcDbLine
 10
262.351012
 20
62.230411
 11
262.585027
 21
62.464426
  0
LINE
  5
9F7
100
AcDbEntity
  8
M47
 62
     2
100
AcDbLine
 10
262.353006
 20
62.233502
 11
262.581935
 21
62.462431
  0
LINE
  5
9F8
100
AcDbEntity
  8
M47
 62
     2
100
AcDbLine
 10
262.355061
 20
62.236654
 11
262.578783
 21
62.460377
  0
LINE
  5
9F9
100
AcDbEntity
  8
M47
 62
     2
100
AcDbLine
 10
262.357181
 20
62.239871
 11
262.575566
 21
62.458257
  0
LINE
  5
9FA
100
AcDbEntity
  8
M47
 62
     2
100
AcDbLine
 10
262.35937
 20
62.243158
 11
262.57228
 21
62.456068
  0
LINE
  5
9FB
100
AcDbEntity
  8
M47
 62
     2
100
AcDbLine
 10
262.361634
 20
62.24652
 11
262.568918
 21
62.453804
  0
LINE
  5
9FC
100
AcDbEntity
  8
M47
 62
     2
100
AcDbLine
 10
262.36398
 20
62.249963
 11
262.565474
 21
62.451458
  0
LINE
  5
9FD
100
AcDbEntity
  8
M47
 62
     2
100
AcDbLine
 10
262.366415
 20
62.253495
 11
262.561942
 21
62.449023
  0
LINE
  5
9FE
100
AcDbEntity
  8
M47
 62
     2
100
AcDbLine
 10
262.368947
 20
62.257125
 11
262.558313
 21
62.446491
  0
LINE
  5
9FF
100
AcDbEntity
  8
M47
 62
     2
100
AcDbLine
 10
262.371585
 20
62.260861
 11
262.554577
 21
62.443852
  0
LINE
  5
A00
100
AcDbEntity
  8
M47
 62
     2
100
AcDbLine
 10
262.374343
 20
62.264716
 11
262.550722
 21
62.441095
  0
LINE
  5
A01
100
AcDbEntity
  8
M47
 62
     2
100
AcDbLine
 10
262.377233
 20
62.268703
 11
262.546735
 21
62.438205
  0
LINE
  5
A02
100
AcDbEntity
  8
M47
 62
     2
100
AcDbLine
 10
262.380272
 20
62.272839
 11
262.542598
 21
62.435166
  0
LINE
  5
A03
100
AcDbEntity
  8
M47
 62
     2
100
AcDbLine
 10
262.383481
 20
62.277146
 11
262.538292
 21
62.431957
  0
LINE
  5
A04
100
AcDbEntity
  8
M47
 62
     2
100
AcDbLine
 10
262.386886
 20
62.281648
 11
262.53379
 21
62.428552
  0
LINE
  5
A05
100
AcDbEntity
  8
M47
 62
     2
100
AcDbLine
 10
262.39052
 20
62.28638
 11
262.529057
 21
62.424917
  0
LINE
  5
A06
100
AcDbEntity
  8
M47
 62
     2
100
AcDbLine
 10
262.394429
 20
62.291386
 11
262.524051
 21
62.421009
  0
LINE
  5
A07
100
AcDbEntity
  8
M47
 62
     2
100
AcDbLine
 10
262.398673
 20
62.296728
 11
262.51871
 21
62.416765
  0
LINE
  5
A08
100
AcDbEntity
  8
M47
 62
     2
100
AcDbLine
 10
262.40334
 20
62.302492
 11
262.512946
 21
62.412098
  0
LINE
  5
A09
100
AcDbEntity
  8
M47
 62
     2
100
AcDbLine
 10
262.408565
 20
62.308814
 11
262.506623
 21
62.406873
  0
LINE
  5
A0A
100
AcDbEntity
  8
M47
 62
     2
100
AcDbLine
 10
262.414574
 20
62.315921
 11
262.499517
 21
62.400864
  0
LINE
  5
A0B
100
AcDbEntity
  8
M47
 62
     2
100
AcDbLine
 10
262.42181
 20
62.324255
 11
262.491183
 21
62.393628
  0
LINE
  5
A0C
100
AcDbEntity
  8
M47
 62
     2
100
AcDbLine
 10
262.431415
 20
62.334957
 11
262.480481
 21
62.384023
  0
TEXT
  5
A0D
100
AcDbEntity
  8
M47
 62
     2
100
AcDbText
 10
239.48373
 20
71.66649
 40
3.1428
  1
１（強）
 41
0.636375
  7
STANDARD
100
AcDbText
  0
TEXT
  5
A0E
100
AcDbEntity
  8
M47
 62
     2
100
AcDbText
 10
239.48373
 20
67.527568
 40
3.1428
  1
３（弱）
 41
0.636375
  7
STANDARD
100
AcDbText
  0
TEXT
  5
A0F
100
AcDbEntity
  8
M47
 62
     2
100
AcDbText
 10
192.608254
 20
108.036096
 40
3.1428
  1
　ＭＮ－１２０ＴＦＣ１形、ＭＮ－１５０ＴＦＣ形に接続する場合は、下図
 41
0.672839
  7
STANDARD
100
AcDbText
  0
TEXT
  5
A10
100
AcDbEntity
  8
M47
 62
     2
100
AcDbText
 10
192.608254
 20
103.52544
 40
3.1428
  1
　により結線してください。
 41
0.672839
  7
STANDARD
100
AcDbText
  0
ENDSEC
  0
SECTION
  2
OBJECTS
  0
DICTIONARY
  5
C
100
AcDbDictionary
  3
ACAD_GROUP
350
D
  3
ACAD_MLINESTYLE
350
E
  0
DICTIONARY
  5
D
102
{ACAD_REACTORS
330
C
102
}
100
AcDbDictionary
  0
DICTIONARY
  5
E
102
{ACAD_REACTORS
330
C
102
}
100
AcDbDictionary
  3
STANDARD
350
13
  0
MLINESTYLE
  5
13
102
{ACAD_REACTORS
330
E
102
}
100
AcDbMlineStyle
  2
STANDARD
 70
     0
  3

 62
     0
 51
90.0
 52
90.0
 71
     2
 49
0.5
 62
   256
  6
BYLAYER
 49
-0.5
 62
   256
  6
BYLAYER
  0
ENDSEC
  0
EOF
