  0
SECTION
  2
HEADER
  9
$ACADVER
  1
AC1012
  9
$INSBASE
 10
0.0
 20
0.0
  9
$VIEWCTR
 10
7.531722
 20
4.5
  9
$VIEWSIZE
 40
9.0
  9
$SNAPMODE
 70
     0
  9
$SNAPUNIT
 10
1.0
 20
1.0
  9
$SNAPBASE
 10
0.0
 20
0.0
  9
$SNAPANG
 50
0.0
  9
$SNAPSTYLE
 70
     0
  9
$SNAPISOPAIR
 70
     0
  9
$GRIDMODE
 70
     0
  9
$GRIDUNIT
 10
0.0
 20
0.0
  9
$ORTHOMODE
 70
     0
  9
$REGENMODE
 70
     1
  9
$FILLMODE
 70
     1
  9
$QTEXTMODE
 70
     0
  9
$DRAGMODE
 70
     2
  9
$LTSCALE
 40
1.0
  9
$OSMODE
 70
     0
  9
$ATTMODE
 70
     1
  9
$TEXTSIZE
 40
0.2
  9
$TRACEWID
 40
0.05
  9
$TEXTSTYLE
  7
STANDARD
  9
$CELTYPE
  6
BYLAYER
  9
$CECOLOR
 62
   256
  9
$DIMSCALE
 40
1.0
  9
$DIMASZ
 40
0.18
  9
$DIMEXO
 40
0.0625
  9
$DIMDLI
 40
0.38
  9
$DIMRND
 40
0.0
  9
$DIMDLE
 40
0.0
  9
$DIMEXE
 40
0.18
  9
$DIMTP
 40
0.0
  9
$DIMTM
 40
0.0
  9
$DIMTXT
 40
0.18
  9
$DIMCEN
 40
0.09
  9
$DIMTSZ
 40
0.0
  9
$DIMTOL
 70
     0
  9
$DIMLIM
 70
     0
  9
$DIMTIH
 70
     1
  9
$DIMTOH
 70
     1
  9
$DIMSE1
 70
     0
  9
$DIMSE2
 70
     0
  9
$DIMTAD
 70
     0
  9
$DIMZIN
 70
     0
  9
$DIMBLK
  1

  9
$LUNITS
 70
     2
  9
$LUPREC
 70
     4
  9
$AXISMODE
 70
     0
  9
$AXISUNIT
 10
0.0
 20
0.0
  9
$SKETCHINC
 40
0.1
  9
$FILLETRAD
 40
0.0
  9
$AUNITS
 70
     0
  9
$AUPREC
 70
     0
  9
$MENU
  1
ACAD
  9
$ELEVATION
 40
0.0
  9
$THICKNESS
 40
0.0
  9
$VIEWDIR
 10
0.0
 20
0.0
 30
1.0
  9
$LIMCHECK
 70
     0
  9
$BLIPMODE
 70
     1
  9
$CHAMFERA
 40
0.0
  9
$CHAMFERB
 40
0.0
  9
$FASTZOOM
 70
     1
  9
$SKPOLY
 70
     0
  9
$TDCREATE
 40
0000000.0000000000
  9
$TDUPDATE
 40
0000000.0000000000
  9
$TDINDWG
 40
0.0000000000
  9
$TDUSRTIMER
 40
0.0000000000
  9
$USRTIMER
 70
     1
  9
$ANGBASE
 50
0.0
  9
$ANGDIR
 70
     0
  9
$PDMODE
 70
     0
  9
$PDSIZE
 40
0.0
  9
$PLINEWID
 40
0.0
  9
$COORDS
 70
     0
  9
$USERI1
 70
     0
  9
$USERI2
 70
     0
  9
$USERI3
 70
     0
  9
$USERI4
 70
     0
  9
$USERI5
 70
     0
  9
$USERR1
 40
0.0
  9
$USERR2
 40
0.0
  9
$USERR3
 40
0.0
  9
$USERR4
 40
0.0
  9
$USERR5
 40
0.0
  9
$CLAYER
  8
M0
  9
$EXTMIN
 10
0.0
 20
0.0
  9
$EXTMAX
 10
297.0
 20
210.0
  9
$LIMMIN
 10
0.0
 20
0.0
  9
$LIMMAX
 10
297.0
 20
210.0
  9
$HANDSEED
  5
19B
  0
ENDSEC
  0
SECTION
  2
CLASSES
  0
ENDSEC
  0
SECTION
  2
TABLES
  0
TABLE
  2
VPORT
  5
8
100
AcDbSymbolTable
 70
     2
  0
VPORT
  5
14
100
AcDbSymbolTableRecord
100
AcDbViewportTableRecord
  2
*ACTIVE
 70
     0
 10
0.0
 20
0.0
 11
1.0
 21
1.0
 12
484.0
 22
297.0
 13
0.0
 23
0.0
 14
1.0
 24
1.0
 15
0.0
 25
0.0
 16
0.0
 26
0.0
 36
1.0
 17
0.0
 27
0.0
 37
0.0
 40
594.0
 41
2.0
 42
50.0
 43
0.0
 44
0.0
 50
0.0
 51
0.0
 71
     0
 72
   100
 73
     1
 74
     1
 75
     0
 76
     0
 77
     0
 78
     0
  0
ENDTAB
  0
TABLE
  2
LTYPE
  5
5
100
AcDbSymbolTable
 70
     5
  0
LTYPE
  5
15
100
AcDbSymbolTableRecord
100
AcDbLinetypeTableRecord
  2
BYBLOCK
 70
     0
  3

 72
    65
 73
     0
 40
0.0
  0
LTYPE
  5
16
100
AcDbSymbolTableRecord
100
AcDbLinetypeTableRecord
  2
BYLAYER
 70
     0
  3

 72
    65
 73
     0
 40
0.0
  0
LTYPE
  5
17
100
AcDbSymbolTableRecord
100
AcDbLinetypeTableRecord
  2
CONTINUOUS
 70
    64
  3
Solid line
 72
    65
 73
     0
 40
0.0
  0
LTYPE
  5
18
100
AcDbSymbolTableRecord
100
AcDbLinetypeTableRecord
  2
DASHED
 70
    64
  3
__ __ __ __ __ __ __ __ __ __ __ __ __ __ __ __
 72
    65
 73
     2
 40
0.75
 49
0.5
 74
     0
 49
-0.25
 74
     0
  0
LTYPE
  5
19
100
AcDbSymbolTableRecord
100
AcDbLinetypeTableRecord
  2
DASHDOT
 70
    64
  3
__ . __ . __ . __ . __ . __ . __ . __ . __ . __
 72
    65
 73
     4
 40
1.0
 49
0.5
 74
     0
 49
-0.25
 74
     0
 49
0.0
 74
     0
 49
-0.25
 74
     0
  0
LTYPE
  5
1A
100
AcDbSymbolTableRecord
100
AcDbLinetypeTableRecord
  2
DIVIDE
 70
    64
  3
____ . . ____ . . ____ . . ____ . . ____ . . __
 72
    65
 73
     6
 40
1.25
 49
0.5
 74
     0
 49
-0.25
 74
     0
 49
0.0
 74
     0
 49
-0.25
 74
     0
 49
0.0
 74
     0
 49
-0.25
 74
     0
  0
LTYPE
  5
1B
100
AcDbSymbolTableRecord
100
AcDbLinetypeTableRecord
  2
DOT
 70
    64
  3
. . . . . . . . . . . . . . . . . . . . . . . .
 72
    65
 73
     2
 40
0.25
 49
0.0
 74
     0
 49
-0.25
 74
     0
  0
ENDTAB
  0
TABLE
  2
LAYER
  5
2
100
AcDbSymbolTable
 70
   102
  0
LAYER
  5
F
100
AcDbSymbolTableRecord
100
AcDbLayerTableRecord
  2
0
 70
     0
 62
     7
  6
CONTINUOUS
  0
LAYER
  5
1C
100
AcDbSymbolTableRecord
100
AcDbLayerTableRecord
  2
DEFPOINTS
 70
     0
 62
     7
  6
CONTINUOUS
  0
LAYER
  5
1D
100
AcDbSymbolTableRecord
100
AcDbLayerTableRecord
  2
M0
 70
     0
 62
     3
  6
CONTINUOUS
  0
LAYER
  5
1E
100
AcDbSymbolTableRecord
100
AcDbLayerTableRecord
  2
M47
 70
     0
 62
     3
  6
CONTINUOUS
  0
LAYER
  5
1F
100
AcDbSymbolTableRecord
100
AcDbLayerTableRecord
  2
DD0
 70
     0
 62
     4
  6
CONTINUOUS
  0
ENDTAB
  0
TABLE
  2
STYLE
  5
3
100
AcDbSymbolTable
 70
     2
  0
STYLE
  5
10
100
AcDbSymbolTableRecord
100
AcDbTextStyleTableRecord
  2
STANDARD
 70
     0
 40
0.0
 41
1.0
 50
0.0
 71
     0
 42
0.2
  3
txt
  4
BIGFONT
  0
ENDTAB
  0
TABLE
  2
VIEW
  5
6
100
AcDbSymbolTable
 70
     0
  0
ENDTAB
  0
TABLE
  2
UCS
  5
7
100
AcDbSymbolTable
 70
     0
  0
ENDTAB
  0
TABLE
  2
APPID
  5
9
100
AcDbSymbolTable
 70
     1
  0
APPID
  5
11
100
AcDbSymbolTableRecord
100
AcDbRegAppTableRecord
  2
ACAD
 70
     0
  0
ENDTAB
  0
TABLE
  2
DIMSTYLE
  5
A
100
AcDbSymbolTable
 70
     2
  0
DIMSTYLE
105
26
100
AcDbSymbolTableRecord
100
AcDbDimStyleTableRecord
  2
STANDARD
 70
     0
  3

  4

  5

  6
_OPEN
  7
_OPEN
 40
1.0
 41
3.0
 42
0.0
 43
8.0
 44
1.5
 45
0.0
 46
0.0
 47
0.0
 48
0.0
140
3.5
141
0.09
142
0.0
143
0.03937
144
1.0
145
0.0
146
1.0
147
1.0
 71
     0
 72
     0
 73
     0
 74
     0
 75
     0
 76
     0
 77
     3
 78
     8
170
     0
171
     2
172
     0
173
     1
174
     0
175
     0
176
     0
177
     0
178
     0
270
     2
271
     2
272
     4
273
     2
274
     2
340
10
275
     0
280
     0
281
     0
282
     0
283
     1
284
     0
285
     0
286
     0
287
     3
288
     0
  0
DIMSTYLE
105
27
100
AcDbSymbolTableRecord
100
AcDbDimStyleTableRecord
  2
LEADSTYL
 70
     0
  3

  4

  5

  6
_OPEN
  7
_OPEN
 40
1.0
 41
3.0
 42
0.0625
 43
0.38
 44
0.18
 45
0.0
 46
0.0
 47
0.0
 48
0.0
140
3.2
141
0.09
142
0.0
143
25.4
144
1.0
145
0.0
146
1.0
147
1.0
 71
     0
 72
     0
 73
     1
 74
     1
 75
     0
 76
     0
 77
     0
 78
     0
170
     0
171
     2
172
     0
173
     1
174
     0
175
     0
176
     0
177
     0
178
     0
270
     2
271
     4
272
     4
273
     2
274
     2
340
10
275
     0
280
     0
281
     0
282
     0
283
     1
284
     0
285
     0
286
     0
287
     3
288
     0
  0
ENDTAB
  0
TABLE
  2
BLOCK_RECORD
  5
1
100
AcDbSymbolTable
 70
    17
  0
BLOCK_RECORD
  5
20
100
AcDbSymbolTableRecord
100
AcDbBlockTableRecord
  2
*MODEL_SPACE
  0
BLOCK_RECORD
  5
23
100
AcDbSymbolTableRecord
100
AcDbBlockTableRecord
  2
*PAPER_SPACE
  0
BLOCK_RECORD
  5
28
100
AcDbSymbolTableRecord
100
AcDbBlockTableRecord
  2
_NONE
  0
BLOCK_RECORD
  5
2C
100
AcDbSymbolTableRecord
100
AcDbBlockTableRecord
  2
_OPEN
  0
BLOCK_RECORD
  5
32
100
AcDbSymbolTableRecord
100
AcDbBlockTableRecord
  2
_CLOSED
  0
BLOCK_RECORD
  5
39
100
AcDbSymbolTableRecord
100
AcDbBlockTableRecord
  2
_ORIGIN
  0
BLOCK_RECORD
  5
3E
100
AcDbSymbolTableRecord
100
AcDbBlockTableRecord
  2
_DOT
  0
BLOCK_RECORD
  5
46
100
AcDbSymbolTableRecord
100
AcDbBlockTableRecord
  2
_OBLIQUE
  0
BLOCK_RECORD
  5
4C
100
AcDbSymbolTableRecord
100
AcDbBlockTableRecord
  2
*D0
  0
BLOCK_RECORD
  5
59
100
AcDbSymbolTableRecord
100
AcDbBlockTableRecord
  2
*D1
  0
BLOCK_RECORD
  5
66
100
AcDbSymbolTableRecord
100
AcDbBlockTableRecord
  2
*D2
  0
BLOCK_RECORD
  5
73
100
AcDbSymbolTableRecord
100
AcDbBlockTableRecord
  2
*D3
  0
BLOCK_RECORD
  5
82
100
AcDbSymbolTableRecord
100
AcDbBlockTableRecord
  2
*D4
  0
BLOCK_RECORD
  5
8F
100
AcDbSymbolTableRecord
100
AcDbBlockTableRecord
  2
*D5
  0
BLOCK_RECORD
  5
9E
100
AcDbSymbolTableRecord
100
AcDbBlockTableRecord
  2
*D6
  0
BLOCK_RECORD
  5
AD
100
AcDbSymbolTableRecord
100
AcDbBlockTableRecord
  2
LEAD0
  0
BLOCK_RECORD
  5
B4
100
AcDbSymbolTableRecord
100
AcDbBlockTableRecord
  2
LEAD1
  0
BLOCK_RECORD
  5
BB
100
AcDbSymbolTableRecord
100
AcDbBlockTableRecord
  2
LEAD2
  0
BLOCK_RECORD
  5
C2
100
AcDbSymbolTableRecord
100
AcDbBlockTableRecord
  2
LEAD3
  0
ENDTAB
  0
ENDSEC
  0
SECTION
  2
BLOCKS
  0
BLOCK
  5
21
100
AcDbEntity
  8
0
100
AcDbBlockBegin
  2
*MODEL_SPACE
 70
     0
 10
0.0
 20
0.0
 30
0.0
  3
*MODEL_SPACE
  1

  0
ENDBLK
  5
22
100
AcDbEntity
  8
0
100
AcDbBlockEnd
  0
BLOCK
  5
24
100
AcDbEntity
 67
     1
  8
0
100
AcDbBlockBegin
  2
*PAPER_SPACE
 70
     0
 10
0.0
 20
0.0
 30
0.0
  3
*PAPER_SPACE
  1

  0
ENDBLK
  5
25
100
AcDbEntity
 67
     1
  8
0
100
AcDbBlockEnd
  0
BLOCK
  5
29
100
AcDbEntity
  8
0
100
AcDbBlockBegin
  2
_NONE
 70
     0
 10
0.0
 20
0.0
  0
CIRCLE
  5
2A
100
AcDbEntity
  8
0
 62
     0
100
AcDbCircle
 10
0.0
 20
0.0
 40
0.25
  0
ENDBLK
  5
2B
100
AcDbEntity
  8
0
100
AcDbBlockEnd
  0
BLOCK
  5
2D
100
AcDbEntity
  8
0
100
AcDbBlockBegin
  2
_OPEN
 70
     0
 10
0.0
 20
0.0
  0
LINE
  5
2E
100
AcDbEntity
  8
0
 62
     0
100
AcDbLine
 10
-0.965926
 20
0.258819
 11
0.0
 21
0.0
  0
LINE
  5
2F
100
AcDbEntity
  8
0
 62
     0
100
AcDbLine
 10
0.0
 20
0.0
 11
-0.965926
 21
-0.258819
  0
LINE
  5
30
100
AcDbEntity
  8
0
 62
     0
100
AcDbLine
 10
0.0
 20
0.0
 11
-1.0
 21
0.0
  0
ENDBLK
  5
31
100
AcDbEntity
  8
0
100
AcDbBlockEnd
  0
BLOCK
  5
33
100
AcDbEntity
  8
0
100
AcDbBlockBegin
  2
_CLOSED
 70
     0
 10
0.0
 20
0.0
  0
LINE
  5
34
100
AcDbEntity
  8
0
 62
     0
100
AcDbLine
 10
-0.965926
 20
0.258819
 11
0.0
 21
0.0
  0
LINE
  5
35
100
AcDbEntity
  8
0
 62
     0
100
AcDbLine
 10
0.0
 20
0.0
 11
-0.965926
 21
-0.258819
  0
LINE
  5
36
100
AcDbEntity
  8
0
 62
     0
100
AcDbLine
 10
-0.965926
 20
0.258819
 11
-0.965926
 21
-0.258819
  0
LINE
  5
37
100
AcDbEntity
  8
0
 62
     0
100
AcDbLine
 10
0.0
 20
0.0
 11
-1.0
 21
0.0
  0
ENDBLK
  5
38
100
AcDbEntity
  8
0
100
AcDbBlockEnd
  0
BLOCK
  5
3A
100
AcDbEntity
  8
0
100
AcDbBlockBegin
  2
_ORIGIN
 70
     0
 10
0.0
 20
0.0
  0
CIRCLE
  5
3B
100
AcDbEntity
  8
0
 62
     0
100
AcDbCircle
 10
0.0
 20
0.0
 40
0.5
  0
LINE
  5
3C
100
AcDbEntity
  8
0
 62
     0
100
AcDbLine
 10
0.0
 20
0.0
 11
-1.0
 21
0.0
  0
ENDBLK
  5
3D
100
AcDbEntity
  8
0
100
AcDbBlockEnd
  0
BLOCK
  5
3F
100
AcDbEntity
  8
0
100
AcDbBlockBegin
  2
_DOT
 70
     0
 10
0.0
 20
0.0
  0
POLYLINE
  5
40
100
AcDbEntity
  8
0
 62
     0
100
AcDb2dPolyline
 66
     1
 70
     1
 40
0.5
 41
0.5
  0
VERTEX
  5
41
100
AcDbEntity
  8
0
 62
     0
100
AcDbVertex
100
AcDb2dVertex
 10
-0.25
 20
0.0
 42
1.0
  0
VERTEX
  5
42
100
AcDbEntity
  8
0
 62
     0
100
AcDbVertex
100
AcDb2dVertex
 10
0.25
 20
0.0
 42
1.0
  0
SEQEND
  5
43
100
AcDbEntity
  8
0
 62
     0
  0
LINE
  5
44
100
AcDbEntity
  8
0
 62
     0
100
AcDbLine
 10
-0.5
 20
0.0
 11
-1.0
 21
0.0
  0
ENDBLK
  5
45
100
AcDbEntity
  8
0
100
AcDbBlockEnd
  0
BLOCK
  5
47
100
AcDbEntity
  8
0
100
AcDbBlockBegin
  2
_OBLIQUE
 70
     0
 10
0.0
 20
0.0
  0
LINE
  5
48
100
AcDbEntity
  8
0
 62
     0
100
AcDbLine
 10
-0.353553
 20
-0.353553
 11
0.353553
 21
0.353553
  0
ENDBLK
  5
49
100
AcDbEntity
  8
0
100
AcDbBlockEnd
  0
BLOCK
  5
4D
100
AcDbEntity
  8
DD0
100
AcDbBlockBegin
  2
*D0
 70
    65
 10
0.0
 20
0.0
  0
POINT
  5
4E
100
AcDbEntity
  8
DEFPOINTS
100
AcDbPoint
 10
84.699699
 20
163.246704
  0
POINT
  5
4F
100
AcDbEntity
  8
DEFPOINTS
100
AcDbPoint
 10
40.499699
 20
132.038666
  0
POINT
  5
50
100
AcDbEntity
  8
DEFPOINTS
100
AcDbPoint
 10
84.699699
 20
132.038666
  0
LINE
  5
51
100
AcDbEntity
  8
DD0
100
AcDbLine
 10
40.499699
 20
132.038666
 11
40.499699
 21
164.746704
  0
LINE
  5
52
100
AcDbEntity
  8
DD0
100
AcDbLine
 10
84.699699
 20
132.038666
 11
84.699699
 21
164.746704
  0
INSERT
  5
53
100
AcDbEntity
  8
DD0
100
AcDbBlockReference
  2
_OPEN
 10
84.699699
 20
163.246704
 41
3.0
 42
3.0
  0
INSERT
  5
54
100
AcDbEntity
  8
DD0
100
AcDbBlockReference
  2
_OPEN
 10
40.499699
 20
163.246704
 41
3.0
 42
3.0
 50
180.0
  0
LINE
  5
55
100
AcDbEntity
  8
DD0
100
AcDbLine
 10
43.499699
 20
163.246704
 11
81.699699
 21
163.246704
  0
TEXT
  5
56
100
AcDbEntity
  8
DD0
100
AcDbText
 10
55.891368
 20
164.246704
 40
3.5
  1
４４．２
 41
0.833333
  7
STANDARD
100
AcDbText
  0
ENDBLK
  5
57
100
AcDbEntity
  8
DD0
100
AcDbBlockEnd
  0
BLOCK
  5
5A
100
AcDbEntity
  8
DD0
100
AcDbBlockBegin
  2
*D1
 70
    65
 10
0.0
 20
0.0
  0
POINT
  5
5B
100
AcDbEntity
  8
DEFPOINTS
100
AcDbPoint
 10
99.599701
 20
169.55896
  0
POINT
  5
5C
100
AcDbEntity
  8
DEFPOINTS
100
AcDbPoint
 10
25.599701
 20
141.338669
  0
POINT
  5
5D
100
AcDbEntity
  8
DEFPOINTS
100
AcDbPoint
 10
99.599701
 20
141.338669
  0
LINE
  5
5E
100
AcDbEntity
  8
DD0
100
AcDbLine
 10
25.599701
 20
141.338669
 11
25.599701
 21
171.05896
  0
LINE
  5
5F
100
AcDbEntity
  8
DD0
100
AcDbLine
 10
99.599701
 20
141.338669
 11
99.599701
 21
171.05896
  0
INSERT
  5
60
100
AcDbEntity
  8
DD0
100
AcDbBlockReference
  2
_OPEN
 10
99.599701
 20
169.55896
 41
3.0
 42
3.0
  0
INSERT
  5
61
100
AcDbEntity
  8
DD0
100
AcDbBlockReference
  2
_OPEN
 10
25.599701
 20
169.55896
 41
3.0
 42
3.0
 50
180.0
  0
LINE
  5
62
100
AcDbEntity
  8
DD0
100
AcDbLine
 10
28.599701
 20
169.55896
 11
96.599701
 21
169.55896
  0
TEXT
  5
63
100
AcDbEntity
  8
DD0
100
AcDbText
 10
59.391368
 20
170.55896
 40
3.5
  1
７４
 41
0.833333
  7
STANDARD
100
AcDbText
  0
ENDBLK
  5
64
100
AcDbEntity
  8
DD0
100
AcDbBlockEnd
  0
BLOCK
  5
67
100
AcDbEntity
  8
DD0
100
AcDbBlockBegin
  2
*D2
 70
    65
 10
0.0
 20
0.0
  0
POINT
  5
68
100
AcDbEntity
  8
DEFPOINTS
100
AcDbPoint
 10
109.7631
 20
30.338669
  0
POINT
  5
69
100
AcDbEntity
  8
DEFPOINTS
100
AcDbPoint
 10
87.599701
 20
153.338669
  0
POINT
  5
6A
100
AcDbEntity
  8
DEFPOINTS
100
AcDbPoint
 10
87.599701
 20
30.338669
  0
LINE
  5
6B
100
AcDbEntity
  8
DD0
100
AcDbLine
 10
87.599701
 20
153.338669
 11
111.2631
 21
153.338669
  0
LINE
  5
6C
100
AcDbEntity
  8
DD0
100
AcDbLine
 10
87.599701
 20
30.338669
 11
111.2631
 21
30.338669
  0
INSERT
  5
6D
100
AcDbEntity
  8
DD0
100
AcDbBlockReference
  2
_OPEN
 10
109.7631
 20
30.338669
 41
3.0
 42
3.0
 50
270.0
  0
INSERT
  5
6E
100
AcDbEntity
  8
DD0
100
AcDbBlockReference
  2
_OPEN
 10
109.7631
 20
153.338669
 41
3.0
 42
3.0
 50
90.0
  0
LINE
  5
6F
100
AcDbEntity
  8
DD0
100
AcDbLine
 10
109.7631
 20
150.338669
 11
109.7631
 21
33.338669
  0
TEXT
  5
70
100
AcDbEntity
  8
DD0
100
AcDbText
 10
108.7631
 20
86.880335
 40
3.5
  1
１２３
 50
90.000003
 41
0.833333
  7
STANDARD
100
AcDbText
  0
ENDBLK
  5
71
100
AcDbEntity
  8
DD0
100
AcDbBlockEnd
  0
BLOCK
  5
74
100
AcDbEntity
  8
DD0
100
AcDbBlockBegin
  2
*D3
 70
    65
 10
0.0
 20
0.0
  0
POINT
  5
75
100
AcDbEntity
  8
DEFPOINTS
100
AcDbPoint
 10
135.835571
 20
169.55896
  0
POINT
  5
76
100
AcDbEntity
  8
DEFPOINTS
100
AcDbPoint
 10
125.335564
 20
145.338669
  0
POINT
  5
77
100
AcDbEntity
  8
DEFPOINTS
100
AcDbPoint
 10
135.835571
 20
153.338669
  0
LINE
  5
78
100
AcDbEntity
  8
DD0
100
AcDbLine
 10
125.335564
 20
145.338669
 11
125.335564
 21
171.05896
  0
LINE
  5
79
100
AcDbEntity
  8
DD0
100
AcDbLine
 10
135.835571
 20
153.338669
 11
135.835571
 21
171.05896
  0
INSERT
  5
7A
100
AcDbEntity
  8
DD0
100
AcDbBlockReference
  2
_OPEN
 10
135.835571
 20
169.55896
 41
3.0
 42
3.0
 50
180.0
  0
INSERT
  5
7B
100
AcDbEntity
  8
DD0
100
AcDbBlockReference
  2
_OPEN
 10
125.335564
 20
169.55896
 41
3.0
 42
3.0
  0
LINE
  5
7C
100
AcDbEntity
  8
DD0
100
AcDbLine
 10
107.035564
 20
169.55896
 11
122.335564
 21
169.55896
  0
LINE
  5
7D
100
AcDbEntity
  8
DD0
100
AcDbLine
 10
125.335564
 20
169.55896
 11
135.835571
 21
169.55896
  0
LINE
  5
7E
100
AcDbEntity
  8
DD0
100
AcDbLine
 10
138.835571
 20
169.55896
 11
139.135571
 21
169.55896
  0
TEXT
  5
7F
100
AcDbEntity
  8
DD0
100
AcDbText
 10
107.827227
 20
170.55896
 40
3.5
  1
１０．５
 41
0.833333
  7
STANDARD
100
AcDbText
  0
ENDBLK
  5
80
100
AcDbEntity
  8
DD0
100
AcDbBlockEnd
  0
BLOCK
  5
83
100
AcDbEntity
  8
DD0
100
AcDbBlockBegin
  2
*D4
 70
    65
 10
0.0
 20
0.0
  0
POINT
  5
84
100
AcDbEntity
  8
DEFPOINTS
100
AcDbPoint
 10
164.035568
 20
169.55896
  0
POINT
  5
85
100
AcDbEntity
  8
DEFPOINTS
100
AcDbPoint
 10
135.835571
 20
153.338669
  0
POINT
  5
86
100
AcDbEntity
  8
DEFPOINTS
100
AcDbPoint
 10
164.035568
 20
103.188667
  0
LINE
  5
87
100
AcDbEntity
  8
DD0
100
AcDbLine
 10
135.835571
 20
153.338669
 11
135.835571
 21
171.05896
  0
LINE
  5
88
100
AcDbEntity
  8
DD0
100
AcDbLine
 10
164.035568
 20
103.188667
 11
164.035568
 21
171.05896
  0
INSERT
  5
89
100
AcDbEntity
  8
DD0
100
AcDbBlockReference
  2
_OPEN
 10
164.035568
 20
169.55896
 41
3.0
 42
3.0
  0
INSERT
  5
8A
100
AcDbEntity
  8
DD0
100
AcDbBlockReference
  2
_OPEN
 10
135.835571
 20
169.55896
 41
3.0
 42
3.0
 50
180.0
  0
LINE
  5
8B
100
AcDbEntity
  8
DD0
100
AcDbLine
 10
138.835571
 20
169.55896
 11
161.035568
 21
169.55896
  0
TEXT
  5
8C
100
AcDbEntity
  8
DD0
100
AcDbText
 10
143.227244
 20
170.55896
 40
3.5
  1
２８．２
 41
0.833333
  7
STANDARD
100
AcDbText
  0
ENDBLK
  5
8D
100
AcDbEntity
  8
DD0
100
AcDbBlockEnd
  0
BLOCK
  5
90
100
AcDbEntity
  8
DD0
100
AcDbBlockBegin
  2
*D5
 70
    65
 10
0.0
 20
0.0
  0
POINT
  5
91
100
AcDbEntity
  8
DEFPOINTS
100
AcDbPoint
 10
125.335564
 20
163.246704
  0
POINT
  5
92
100
AcDbEntity
  8
DEFPOINTS
100
AcDbPoint
 10
121.335564
 20
137.038666
  0
POINT
  5
93
100
AcDbEntity
  8
DEFPOINTS
100
AcDbPoint
 10
125.335564
 20
145.338669
  0
LINE
  5
94
100
AcDbEntity
  8
DD0
100
AcDbLine
 10
121.335564
 20
137.038666
 11
121.335564
 21
164.746704
  0
LINE
  5
95
100
AcDbEntity
  8
DD0
100
AcDbLine
 10
125.335564
 20
145.338669
 11
125.335564
 21
164.746704
  0
INSERT
  5
96
100
AcDbEntity
  8
DD0
100
AcDbBlockReference
  2
_OPEN
 10
125.335564
 20
163.246704
 41
3.0
 42
3.0
 50
180.0
  0
INSERT
  5
97
100
AcDbEntity
  8
DD0
100
AcDbBlockReference
  2
_OPEN
 10
121.335564
 20
163.246704
 41
3.0
 42
3.0
  0
LINE
  5
98
100
AcDbEntity
  8
DD0
100
AcDbLine
 10
118.035564
 20
163.246704
 11
118.335564
 21
163.246704
  0
LINE
  5
99
100
AcDbEntity
  8
DD0
100
AcDbLine
 10
121.335564
 20
163.246704
 11
125.335564
 21
163.246704
  0
LINE
  5
9A
100
AcDbEntity
  8
DD0
100
AcDbLine
 10
128.335564
 20
163.246704
 11
128.635564
 21
163.246704
  0
TEXT
  5
9B
100
AcDbEntity
  8
DD0
100
AcDbText
 10
121.87723
 20
164.246704
 40
3.5
  1
４
 41
0.833333
  7
STANDARD
100
AcDbText
  0
ENDBLK
  5
9C
100
AcDbEntity
  8
DD0
100
AcDbBlockEnd
  0
BLOCK
  5
9F
100
AcDbEntity
  8
DD0
100
AcDbBlockBegin
  2
*D6
 70
    65
 10
0.0
 20
0.0
  0
POINT
  5
A0
100
AcDbEntity
  8
DEFPOINTS
100
AcDbPoint
 10
176.041779
 20
103.188667
  0
POINT
  5
A1
100
AcDbEntity
  8
DEFPOINTS
100
AcDbPoint
 10
164.035568
 20
80.48867
  0
POINT
  5
A2
100
AcDbEntity
  8
DEFPOINTS
100
AcDbPoint
 10
164.035568
 20
103.188667
  0
LINE
  5
A3
100
AcDbEntity
  8
DD0
100
AcDbLine
 10
164.035568
 20
80.48867
 11
177.541779
 21
80.48867
  0
LINE
  5
A4
100
AcDbEntity
  8
DD0
100
AcDbLine
 10
164.035568
 20
103.188667
 11
177.541779
 21
103.188667
  0
INSERT
  5
A5
100
AcDbEntity
  8
DD0
100
AcDbBlockReference
  2
_OPEN
 10
176.041779
 20
103.188667
 41
3.0
 42
3.0
 50
90.0
  0
INSERT
  5
A6
100
AcDbEntity
  8
DD0
100
AcDbBlockReference
  2
_OPEN
 10
176.041779
 20
80.48867
 41
3.0
 42
3.0
 50
270.0
  0
LINE
  5
A7
100
AcDbEntity
  8
DD0
100
AcDbLine
 10
176.041779
 20
83.48867
 11
176.041779
 21
100.188667
  0
TEXT
  5
A8
100
AcDbEntity
  8
DD0
100
AcDbText
 10
175.041779
 20
85.130335
 40
3.5
  1
２２．７
 50
90.000003
 41
0.833333
  7
STANDARD
100
AcDbText
  0
ENDBLK
  5
A9
100
AcDbEntity
  8
DD0
100
AcDbBlockEnd
  0
BLOCK
  5
AE
100
AcDbEntity
  8
DD0
100
AcDbBlockBegin
  2
LEAD0
 70
     0
 10
0.0
 20
0.0
  0
CIRCLE
  5
AF
100
AcDbEntity
  8
DD0
100
AcDbCircle
 10
153.948883
 20
142.025726
 40
5.0
  0
TEXT
  5
B0
100
AcDbEntity
  8
DD0
100
AcDbText
 10
151.532216
 20
138.675726
 40
6.7
  1
１
 41
0.721393
  7
STANDARD
100
AcDbText
  0
ENDBLK
  5
B1
100
AcDbEntity
  8
DD0
100
AcDbBlockEnd
  0
BLOCK
  5
B5
100
AcDbEntity
  8
DD0
100
AcDbBlockBegin
  2
LEAD1
 70
     0
 10
0.0
 20
0.0
  0
CIRCLE
  5
B6
100
AcDbEntity
  8
DD0
100
AcDbCircle
 10
100.294716
 20
186.562195
 40
5.0
  0
TEXT
  5
B7
100
AcDbEntity
  8
DD0
100
AcDbText
 10
97.878049
 20
183.212195
 40
6.7
  1
２
 41
0.721393
  7
STANDARD
100
AcDbText
  0
ENDBLK
  5
B8
100
AcDbEntity
  8
DD0
100
AcDbBlockEnd
  0
BLOCK
  5
BC
100
AcDbEntity
  8
DD0
100
AcDbBlockBegin
  2
LEAD2
 70
     0
 10
0.0
 20
0.0
  0
CIRCLE
  5
BD
100
AcDbEntity
  8
DD0
100
AcDbCircle
 10
76.799103
 20
187.614243
 40
5.0
  0
TEXT
  5
BE
100
AcDbEntity
  8
DD0
100
AcDbText
 10
74.382436
 20
184.264243
 40
6.7
  1
３
 41
0.721393
  7
STANDARD
100
AcDbText
  0
ENDBLK
  5
BF
100
AcDbEntity
  8
DD0
100
AcDbBlockEnd
  0
BLOCK
  5
C3
100
AcDbEntity
  8
DD0
100
AcDbBlockBegin
  2
LEAD3
 70
     0
 10
0.0
 20
0.0
  0
CIRCLE
  5
C4
100
AcDbEntity
  8
DD0
100
AcDbCircle
 10
34.366722
 20
186.562195
 40
5.0
  0
TEXT
  5
C5
100
AcDbEntity
  8
DD0
100
AcDbText
 10
31.950055
 20
183.212195
 40
6.7
  1
４
 41
0.721393
  7
STANDARD
100
AcDbText
  0
ENDBLK
  5
C6
100
AcDbEntity
  8
DD0
100
AcDbBlockEnd
  0
ENDSEC
  0
SECTION
  2
ENTITIES
  0
LEADER
  5
4A
100
AcDbEntity
  8
DD0
100
AcDbLeader
  3
LEADSTYL
 76
     3
 10
222.698044
 20
80.488853
 10
221.582123
 20
87.247917
 10
209.982117
 20
87.247917
340
4B
 77
     4
  0
TEXT
  5
4B
100
AcDbEntity
  8
DD0
100
AcDbText
 10
211.248779
 20
88.247917
 40
3.2
  1
電圧側
 41
0.833333
  7
STANDARD
100
AcDbText
  0
DIMENSION
  5
58
100
AcDbEntity
  8
DD0
100
AcDbDimension
  2
*D0
 10
84.699699
 20
163.246704
 11
62.599699
 21
163.246704
  3
STANDARD
100
AcDbAlignedDimension
 13
40.499699
 23
132.038666
 14
84.699699
 24
132.038666
100
AcDbRotatedDimension
  0
DIMENSION
  5
65
100
AcDbEntity
  8
DD0
100
AcDbDimension
  2
*D1
 10
99.599701
 20
169.55896
 11
62.599701
 21
169.55896
  3
STANDARD
100
AcDbAlignedDimension
 13
25.599701
 23
141.338669
 14
99.599701
 24
141.338669
100
AcDbRotatedDimension
  0
DIMENSION
  5
72
100
AcDbEntity
  8
DD0
100
AcDbDimension
  2
*D2
 10
109.7631
 20
30.338669
 11
109.7631
 21
91.838669
  3
STANDARD
100
AcDbAlignedDimension
 13
87.599701
 23
153.338669
 14
87.599701
 24
30.338669
 50
90.0
100
AcDbRotatedDimension
  0
DIMENSION
  5
81
100
AcDbEntity
  8
DD0
100
AcDbDimension
  2
*D3
 10
135.835571
 20
169.55896
 11
130.585567
 21
169.55896
  3
STANDARD
100
AcDbAlignedDimension
 13
125.335564
 23
145.338669
 14
135.835571
 24
153.338669
100
AcDbRotatedDimension
  0
DIMENSION
  5
8E
100
AcDbEntity
  8
DD0
100
AcDbDimension
  2
*D4
 10
164.035568
 20
169.55896
 11
149.93557
 21
169.55896
  3
STANDARD
100
AcDbAlignedDimension
 13
135.835571
 23
153.338669
 14
164.035568
 24
103.188667
100
AcDbRotatedDimension
  0
DIMENSION
  5
9D
100
AcDbEntity
  8
DD0
100
AcDbDimension
  2
*D5
 10
125.335564
 20
163.246704
 11
123.335564
 21
163.246704
  3
STANDARD
100
AcDbAlignedDimension
 13
121.335564
 23
137.038666
 14
125.335564
 24
145.338669
100
AcDbRotatedDimension
  0
DIMENSION
  5
AA
100
AcDbEntity
  8
DD0
100
AcDbDimension
  2
*D6
 10
176.041779
 20
103.188667
 11
176.041779
 21
91.838669
  3
STANDARD
100
AcDbAlignedDimension
 13
164.035568
 23
80.48867
 14
164.035568
 24
103.188667
 50
90.0
100
AcDbRotatedDimension
  0
LEADER
  5
AB
100
AcDbEntity
  8
DD0
100
AcDbLeader
  3
LEADSTYL
 76
     2
 10
149.39003
 20
103.188667
 10
153.365967
 20
137.05983
212
153.365967
222
137.05983
340
AC
 77
     4
  0
INSERT
  5
AC
100
AcDbEntity
  8
DD0
100
AcDbBlockReference
  2
LEAD0
 10
0.0
 20
0.0
  0
LEADER
  5
B2
100
AcDbEntity
  8
DD0
100
AcDbLeader
  3
LEADSTYL
 76
     2
 10
88.353737
 20
153.314957
 10
98.60463
 20
181.856491
212
98.60463
222
181.856491
340
B3
 77
     4
  0
INSERT
  5
B3
100
AcDbEntity
  8
DD0
100
AcDbBlockReference
  2
LEAD1
 10
0.0
 20
0.0
  0
LEADER
  5
B9
100
AcDbEntity
  8
DD0
100
AcDbLeader
  3
LEADSTYL
 76
     2
 10
69.434799
 20
135.038666
 10
76.105522
 20
182.662582
212
76.105522
222
182.662582
340
BA
 77
     4
  0
INSERT
  5
BA
100
AcDbEntity
  8
DD0
100
AcDbBlockReference
  2
LEAD2
 10
0.0
 20
0.0
  0
LEADER
  5
C0
100
AcDbEntity
  8
DD0
100
AcDbLeader
  3
LEADSTYL
 76
     2
 10
58.599701
 20
92.838669
 10
35.618351
 20
181.72139
212
35.618351
222
181.72139
340
C1
 77
     4
  0
INSERT
  5
C1
100
AcDbEntity
  8
DD0
100
AcDbBlockReference
  2
LEAD3
 10
0.0
 20
0.0
  0
LINE
  5
C7
100
AcDbEntity
  8
M0
100
AcDbLine
 10
99.5997
 20
42.338668
 11
99.5997
 21
141.338668
  0
LINE
  5
C8
100
AcDbEntity
  8
M0
100
AcDbLine
 10
87.5997
 20
153.338668
 11
37.5997
 21
153.338668
  0
LINE
  5
C9
100
AcDbEntity
  8
M0
100
AcDbLine
 10
25.5997
 20
141.338668
 11
25.5997
 21
42.338668
  0
LINE
  5
CA
100
AcDbEntity
  8
M0
100
AcDbLine
 10
37.5997
 20
30.338668
 11
87.5997
 21
30.338668
  0
LINE
  5
CB
100
AcDbEntity
  8
M0
  6
DASHDOT
100
AcDbLine
 10
20.5997
 20
91.838668
 11
104.5997
 21
91.838668
  0
LINE
  5
CC
100
AcDbEntity
  8
M0
  6
DASHDOT
100
AcDbLine
 10
62.5997
 20
25.338668
 11
62.5997
 21
158.338668
  0
LINE
  5
CD
100
AcDbEntity
  8
M0
100
AcDbLine
 10
44.4997
 20
136.038668
 11
80.6997
 21
136.038668
  0
LINE
  5
CE
100
AcDbEntity
  8
M0
100
AcDbLine
 10
44.4997
 20
47.638668
 11
80.6997
 21
47.638668
  0
LINE
  5
CF
100
AcDbEntity
  8
M0
100
AcDbLine
 10
40.4997
 20
132.038668
 11
40.4997
 21
51.638668
  0
LINE
  5
D0
100
AcDbEntity
  8
M0
100
AcDbLine
 10
84.6997
 20
132.038668
 11
84.6997
 21
51.638668
  0
LINE
  5
D1
100
AcDbEntity
  8
M0
100
AcDbLine
 10
44.4997
 20
48.638668
 11
80.6997
 21
48.638668
  0
LINE
  5
D2
100
AcDbEntity
  8
M0
100
AcDbLine
 10
44.4997
 20
135.038668
 11
80.6997
 21
135.038668
  0
LINE
  5
D3
100
AcDbEntity
  8
M0
100
AcDbLine
 10
44.9997
 20
50.138668
 11
80.1997
 21
50.138668
  0
LINE
  5
D4
100
AcDbEntity
  8
M0
100
AcDbLine
 10
44.9997
 20
133.538668
 11
80.1997
 21
133.538668
  0
ARC
  5
D5
100
AcDbEntity
  8
M0
100
AcDbCircle
 10
80.1997
 20
131.538668
 40
2.0
100
AcDbArc
 50
0.0
 51
90.0
  0
ARC
  5
D6
100
AcDbEntity
  8
M0
100
AcDbCircle
 10
44.9997
 20
131.538668
 40
2.0
100
AcDbArc
 50
90.0
 51
180.0
  0
ARC
  5
D7
100
AcDbEntity
  8
M0
100
AcDbCircle
 10
80.6997
 20
132.038668
 40
3.0
100
AcDbArc
 50
0.0
 51
90.0
  0
ARC
  5
D8
100
AcDbEntity
  8
M0
100
AcDbCircle
 10
44.4997
 20
132.038668
 40
3.0
100
AcDbArc
 50
90.0
 51
180.0
  0
ARC
  5
D9
100
AcDbEntity
  8
M0
100
AcDbCircle
 10
44.4997
 20
132.038668
 40
4.0
100
AcDbArc
 50
90.0
 51
180.0
  0
ARC
  5
DA
100
AcDbEntity
  8
M0
100
AcDbCircle
 10
80.6997
 20
132.038668
 40
4.0
100
AcDbArc
 50
0.0
 51
90.0
  0
LINE
  5
DB
100
AcDbEntity
  8
M0
100
AcDbLine
 10
41.4997
 20
132.038668
 11
41.4997
 21
51.638668
  0
LINE
  5
DC
100
AcDbEntity
  8
M0
100
AcDbLine
 10
83.6997
 20
132.038668
 11
83.6997
 21
51.638668
  0
LINE
  5
DD
100
AcDbEntity
  8
M0
100
AcDbLine
 10
42.9997
 20
131.538668
 11
42.9997
 21
52.138668
  0
LINE
  5
DE
100
AcDbEntity
  8
M0
100
AcDbLine
 10
82.1997
 20
131.538668
 11
82.1997
 21
52.138668
  0
ARC
  5
DF
100
AcDbEntity
  8
M0
100
AcDbCircle
 10
80.1997
 20
52.138668
 40
2.0
100
AcDbArc
 50
270.0
 51
360.0
  0
ARC
  5
E0
100
AcDbEntity
  8
M0
100
AcDbCircle
 10
44.9997
 20
52.138668
 40
2.0
100
AcDbArc
 50
180.0
 51
270.0
  0
ARC
  5
E1
100
AcDbEntity
  8
M0
100
AcDbCircle
 10
44.4997
 20
51.638668
 40
3.0
100
AcDbArc
 50
180.0
 51
270.0
  0
ARC
  5
E2
100
AcDbEntity
  8
M0
100
AcDbCircle
 10
80.6997
 20
51.638668
 40
3.0
100
AcDbArc
 50
270.0
 51
360.0
  0
ARC
  5
E3
100
AcDbEntity
  8
M0
100
AcDbCircle
 10
44.4997
 20
51.638668
 40
4.0
100
AcDbArc
 50
180.0
 51
270.0
  0
ARC
  5
E4
100
AcDbEntity
  8
M0
100
AcDbCircle
 10
80.6997
 20
51.638668
 40
4.0
100
AcDbArc
 50
270.0
 51
360.0
  0
LINE
  5
E5
100
AcDbEntity
  8
M0
100
AcDbLine
 10
32.4997
 20
138.038668
 11
32.4997
 21
45.638668
  0
LINE
  5
E6
100
AcDbEntity
  8
M0
100
AcDbLine
 10
92.6997
 20
138.038668
 11
92.6997
 21
45.638668
  0
LINE
  5
E7
100
AcDbEntity
  8
M0
100
AcDbLine
 10
38.4997
 20
144.038668
 11
86.6997
 21
144.038668
  0
LINE
  5
E8
100
AcDbEntity
  8
M0
100
AcDbLine
 10
38.4997
 20
39.638668
 11
86.6997
 21
39.638668
  0
ARC
  5
E9
100
AcDbEntity
  8
M0
100
AcDbCircle
 10
38.4997
 20
138.038668
 40
6.0
100
AcDbArc
 50
90.0
 51
180.0
  0
ARC
  5
EA
100
AcDbEntity
  8
M0
100
AcDbCircle
 10
38.4997
 20
45.638668
 40
6.0
100
AcDbArc
 50
180.0
 51
270.0
  0
ARC
  5
EB
100
AcDbEntity
  8
M0
100
AcDbCircle
 10
86.6997
 20
45.638668
 40
6.0
100
AcDbArc
 50
270.0
 51
360.0
  0
ARC
  5
EC
100
AcDbEntity
  8
M0
100
AcDbCircle
 10
86.6997
 20
138.038668
 40
6.0
100
AcDbArc
 50
0.0
 51
90.0
  0
LINE
  5
ED
100
AcDbEntity
  8
M0
100
AcDbLine
 10
38.4997
 20
133.038668
 11
38.4997
 21
50.638668
  0
LINE
  5
EE
100
AcDbEntity
  8
M0
100
AcDbLine
 10
86.6997
 20
133.038668
 11
86.6997
 21
50.638668
  0
LINE
  5
EF
100
AcDbEntity
  8
M0
100
AcDbLine
 10
43.4997
 20
138.038668
 11
81.6997
 21
138.038668
  0
LINE
  5
F0
100
AcDbEntity
  8
M0
100
AcDbLine
 10
43.4997
 20
45.638668
 11
81.6997
 21
45.638668
  0
ARC
  5
F1
100
AcDbEntity
  8
M0
100
AcDbCircle
 10
43.4997
 20
133.038668
 40
5.0
100
AcDbArc
 50
90.0
 51
180.0
  0
ARC
  5
F2
100
AcDbEntity
  8
M0
100
AcDbCircle
 10
81.6997
 20
133.038668
 40
5.0
100
AcDbArc
 50
0.0
 51
90.0
  0
ARC
  5
F3
100
AcDbEntity
  8
M0
100
AcDbCircle
 10
43.4997
 20
50.638668
 40
5.0
100
AcDbArc
 50
180.0
 51
270.0
  0
ARC
  5
F4
100
AcDbEntity
  8
M0
100
AcDbCircle
 10
81.6997
 20
50.638668
 40
5.0
100
AcDbArc
 50
270.0
 51
360.0
  0
ARC
  5
F5
100
AcDbEntity
  8
M0
100
AcDbCircle
 10
37.5997
 20
141.338668
 40
12.0
100
AcDbArc
 50
90.0
 51
180.0
  0
ARC
  5
F6
100
AcDbEntity
  8
M0
100
AcDbCircle
 10
37.5997
 20
42.338668
 40
12.0
100
AcDbArc
 50
180.0
 51
270.0
  0
ARC
  5
F7
100
AcDbEntity
  8
M0
100
AcDbCircle
 10
87.5997
 20
42.338668
 40
12.0
100
AcDbArc
 50
270.0
 51
360.0
  0
ARC
  5
F8
100
AcDbEntity
  8
M0
100
AcDbCircle
 10
87.5997
 20
141.338668
 40
12.0
100
AcDbArc
 50
0.0
 51
90.0
  0
LINE
  5
F9
100
AcDbEntity
  8
M0
 62
     7
100
AcDbLine
 10
285.780637
 20
9.134664
 11
285.780637
 21
13.134664
  0
LINE
  5
FA
100
AcDbEntity
  8
M0
 62
     7
100
AcDbLine
 10
285.780637
 20
198.134664
 11
15.780637
 21
198.134664
  0
LINE
  5
FB
100
AcDbEntity
  8
M0
 62
     7
100
AcDbLine
 10
15.780637
 20
198.134664
 11
15.780637
 21
13.134664
  0
LINE
  5
FC
100
AcDbEntity
  8
M0
 62
     7
100
AcDbLine
 10
15.780637
 20
13.134664
 11
285.780637
 21
13.134664
  0
LINE
  5
FD
100
AcDbEntity
  8
M0
 62
     7
100
AcDbLine
 10
285.780637
 20
9.134664
 11
260.780637
 21
9.134664
  0
LINE
  5
FE
100
AcDbEntity
  8
M0
 62
     7
100
AcDbLine
 10
270.780637
 20
9.134664
 11
270.780637
 21
20.134664
  0
LINE
  5
FF
100
AcDbEntity
  8
M0
 62
     7
100
AcDbLine
 10
260.780637
 20
9.134664
 11
260.780637
 21
20.134664
  0
LINE
  5
100
100
AcDbEntity
  8
M0
 62
     7
100
AcDbLine
 10
285.780637
 20
20.134664
 11
220.780637
 21
20.134664
  0
LINE
  5
101
100
AcDbEntity
  8
M0
 62
     7
100
AcDbLine
 10
285.780637
 20
35.134664
 11
220.780637
 21
35.134664
  0
LINE
  5
102
100
AcDbEntity
  8
M0
 62
     7
100
AcDbLine
 10
285.780637
 20
40.134664
 11
195.780637
 21
40.134664
  0
LINE
  5
103
100
AcDbEntity
  8
M0
 62
     7
100
AcDbLine
 10
285.780637
 20
45.134664
 11
195.780637
 21
45.134664
  0
LINE
  5
104
100
AcDbEntity
  8
M0
 62
     7
100
AcDbLine
 10
195.780637
 20
45.134664
 11
195.780637
 21
13.134664
  0
LINE
  5
105
100
AcDbEntity
  8
M0
 62
     7
100
AcDbLine
 10
220.780637
 20
13.134664
 11
220.780637
 21
45.134664
  0
LINE
  5
106
100
AcDbEntity
  8
M0
 62
     7
100
AcDbLine
 10
230.780637
 20
20.134664
 11
230.780637
 21
45.134664
  0
LINE
  5
107
100
AcDbEntity
  8
M0
 62
     7
100
AcDbLine
 10
260.780637
 20
40.134664
 11
260.780637
 21
45.134664
  0
LINE
  5
108
100
AcDbEntity
  8
M0
 62
     7
100
AcDbLine
 10
270.780637
 20
40.134664
 11
270.780637
 21
45.134664
  0
LINE
  5
109
100
AcDbEntity
  8
M0
 62
     7
100
AcDbLine
 10
285.780637
 20
13.134664
 11
285.780637
 21
198.134664
  0
TEXT
  5
10A
100
AcDbEntity
  8
M0
 62
     7
100
AcDbText
 10
221.905637
 20
41.384664
 40
2.5
  1
納　先
 41
0.9
  7
STANDARD
100
AcDbText
  0
TEXT
  5
10B
100
AcDbEntity
  8
M0
 62
     7
100
AcDbText
 10
221.905637
 20
36.384664
 40
2.5
  1
名　称
 41
0.9
  7
STANDARD
100
AcDbText
  0
TEXT
  5
10C
100
AcDbEntity
  8
M0
 62
     7
100
AcDbText
 10
261.905637
 20
41.384664
 40
2.5
  1
数　量
 41
0.9
  7
STANDARD
100
AcDbText
  0
TEXT
  5
10D
100
AcDbEntity
  8
M0
 62
     7
100
AcDbText
 10
260.98897
 20
15.384664
 40
2.5
  1
作成日付
 41
0.833333
  7
STANDARD
100
AcDbText
  0
TEXT
  5
10E
100
AcDbEntity
  8
M0
 62
     7
100
AcDbText
 10
261.48897
 20
9.884664
 40
2.5
  1
改訂
 41
0.833333
  7
STANDARD
100
AcDbText
  0
TEXT
  5
10F
100
AcDbEntity
  8
M0
 62
     7
100
AcDbText
 10
266.405637
 20
9.884664
 40
2.5
  1
Ｎｏ．
 41
0.5
  7
STANDARD
100
AcDbText
  0
TEXT
  5
110
100
AcDbEntity
  8
M0
 62
     7
100
AcDbText
 10
277.36397
 20
9.884664
 40
2.5
  1
１
 41
0.733333
  7
STANDARD
100
AcDbText
  0
TEXT
  5
111
100
AcDbEntity
  8
M0
 62
     7
100
AcDbText
 10
195.98897
 20
46.134664
 40
2.5
  1
●　本仕様は改良のため変更することがあります。
 41
0.833333
  7
STANDARD
100
AcDbText
  0
TEXT
  5
112
100
AcDbEntity
  8
M0
 62
     7
100
AcDbText
 10
197.905637
 20
41.384664
 40
2.5
  1
　御確認印欄
 41
0.9
  7
STANDARD
100
AcDbText
  0
TEXT
  5
113
100
AcDbEntity
  8
M0
 62
     7
100
AcDbText
 10
270.905637
 20
15.384664
 40
2.5
  1
２０００．０３．０１
 41
0.5
  7
STANDARD
100
AcDbText
  0
LINE
  5
114
100
AcDbEntity
  8
M0
 62
     7
100
AcDbLine
 10
285.780637
 20
27.634664
 11
220.780637
 21
27.634664
  0
LINE
  5
115
100
AcDbEntity
  8
M0
 62
     7
100
AcDbLine
 10
260.780637
 20
27.634664
 11
260.780637
 21
35.134664
  0
LINE
  5
116
100
AcDbEntity
  8
M0
 62
     7
100
AcDbLine
 10
270.780637
 20
27.634664
 11
270.780637
 21
35.134664
  0
TEXT
  5
117
100
AcDbEntity
  8
M0
 62
     7
100
AcDbText
 10
221.905637
 20
29.174898
 40
2.5
  1
形　式
 41
0.9
  7
STANDARD
100
AcDbText
  0
TEXT
  5
118
100
AcDbEntity
  8
M0
 62
     7
100
AcDbText
 10
262.197304
 20
29.174898
 40
2.5
  1
商品番号
 41
0.666667
  7
STANDARD
100
AcDbText
  0
TEXT
  5
119
100
AcDbEntity
  8
M0
 62
     7
100
AcDbText
 10
221.947304
 20
22.153244
 40
2.5
  1
図面番号
 41
0.666667
  7
STANDARD
100
AcDbText
  0
TEXT
  5
11A
100
AcDbEntity
  8
M0
 62
     7
100
AcDbText
 10
232.943998
 20
22.153244
 40
3.0
  1
４ＴＴ９０２４９
 41
0.75
  7
STANDARD
100
AcDbText
  0
TEXT
  5
11B
100
AcDbEntity
  8
M0
 62
     7
100
AcDbText
 10
232.27815
 20
36.384664
 40
2.5
  1
日立換気扇用スイッチ　
 41
0.9
  7
STANDARD
100
AcDbText
  0
TEXT
  5
11C
100
AcDbEntity
  8
M0
 62
     7
100
AcDbText
 10
232.597913
 20
29.174898
 40
3.0
  1
ＶＰ－ＷＢ
 41
0.833333
  7
STANDARD
100
AcDbText
  0
LINE
  5
11D
100
AcDbEntity
  8
M0
 62
     7
100
AcDbLine
 10
285.780637
 20
193.134664
 11
195.780637
 21
193.134664
  0
LINE
  5
11E
100
AcDbEntity
  8
M0
 62
     7
100
AcDbLine
 10
285.780637
 20
188.134664
 11
195.780637
 21
188.134664
  0
LINE
  5
11F
100
AcDbEntity
  8
M0
 62
     7
100
AcDbLine
 10
285.780637
 20
183.134664
 11
195.780637
 21
183.134664
  0
LINE
  5
120
100
AcDbEntity
  8
M0
 62
     7
100
AcDbLine
 10
285.780637
 20
178.134664
 11
195.780637
 21
178.134664
  0
TEXT
  5
121
100
AcDbEntity
  8
M0
 62
     7
100
AcDbText
 10
213.447304
 20
193.634664
 40
4.0
  1
主要部品一覧表
 41
1.666667
  7
STANDARD
100
AcDbText
  0
TEXT
  5
122
100
AcDbEntity
  8
M0
 62
     7
100
AcDbText
 10
196.305631
 20
189.384664
 40
2.5
  1
品番
 41
0.9
  7
STANDARD
100
AcDbText
  0
TEXT
  5
123
100
AcDbEntity
  8
M0
 62
     7
100
AcDbText
 10
197.597298
 20
184.384664
 40
3.0
  1
１
 41
0.888889
  7
STANDARD
100
AcDbText
  0
TEXT
  5
124
100
AcDbEntity
  8
M0
 62
     7
100
AcDbText
 10
256.197304
 20
189.384664
 40
2.5
  1
色仕様・その他
 41
1.066667
  7
STANDARD
100
AcDbText
  0
TEXT
  5
125
100
AcDbEntity
  8
M0
 62
     7
100
AcDbText
 10
206.405637
 20
189.384664
 40
2.5
  1
部　品　名
 41
0.9
  7
STANDARD
100
AcDbText
  0
TEXT
  5
126
100
AcDbEntity
  8
M0
 62
     7
100
AcDbText
 10
229.655637
 20
189.384664
 40
2.5
  1
材　　　質
 41
0.9
  7
STANDARD
100
AcDbText
  0
TEXT
  5
127
100
AcDbEntity
  8
M0
 62
     7
100
AcDbText
 10
197.597298
 20
179.384664
 40
3.0
  1
２
 41
0.888889
  7
STANDARD
100
AcDbText
  0
TEXT
  5
128
100
AcDbEntity
  8
M0
 62
     7
100
AcDbText
 10
197.597298
 20
174.384664
 40
3.0
  1
３
 41
0.888889
  7
STANDARD
100
AcDbText
  0
LINE
  5
129
100
AcDbEntity
  8
M0
 62
     7
100
AcDbLine
 10
195.780637
 20
168.134664
 11
195.780637
 21
198.134664
  0
LINE
  5
12A
100
AcDbEntity
  8
M0
 62
     7
100
AcDbLine
 10
201.780637
 20
193.134664
 11
201.780637
 21
168.134664
  0
LINE
  5
12B
100
AcDbEntity
  8
M0
 62
     7
100
AcDbLine
 10
223.780637
 20
168.134664
 11
223.780637
 21
193.134664
  0
LINE
  5
12C
100
AcDbEntity
  8
M0
 62
     7
100
AcDbLine
 10
248.780637
 20
168.134664
 11
248.780637
 21
193.134664
  0
LINE
  5
12D
100
AcDbEntity
  8
M0
 62
     7
100
AcDbLine
 10
285.780637
 20
173.134664
 11
195.780637
 21
173.134664
  0
LINE
  5
12E
100
AcDbEntity
  8
M0
 62
     7
100
AcDbLine
 10
285.780637
 20
168.134664
 11
195.780637
 21
168.134664
  0
TEXT
  5
12F
100
AcDbEntity
  8
M0
 62
     7
100
AcDbText
 10
197.597298
 20
169.384664
 40
3.0
  1
４
 41
0.888889
  7
STANDARD
100
AcDbText
  0
TEXT
  5
130
100
AcDbEntity
  8
M0
 62
     7
100
AcDbText
 10
273.48897
 20
29.174898
 40
2.5
  1
９９９３
 41
0.833333
  7
STANDARD
100
AcDbText
  0
TEXT
  5
131
100
AcDbEntity
  8
M0
 62
     7
100
AcDbText
 10
202.905637
 20
184.384664
 40
3.0
  1
片切スイッチ
 41
0.75
  7
STANDARD
100
AcDbText
  0
TEXT
  5
132
100
AcDbEntity
  8
M0
 62
     7
100
AcDbText
 10
202.897304
 20
179.384664
 40
3.0
  1
スイッチプレート
 41
0.388889
  7
STANDARD
100
AcDbText
  0
TEXT
  5
133
100
AcDbEntity
  8
M0
 62
     7
100
AcDbText
 10
203.01397
 20
174.384664
 40
3.0
  1
操作板
 41
0.777778
  7
STANDARD
100
AcDbText
  0
TEXT
  5
134
100
AcDbEntity
  8
M0
 62
     7
100
AcDbText
 10
249.880637
 20
184.384664
 40
3.0
  1
４Ａ　３００Ｖ
 41
0.666667
  7
STANDARD
100
AcDbText
  0
TEXT
  5
135
100
AcDbEntity
  8
M0
 62
     7
100
AcDbText
 10
224.91397
 20
174.384664
 40
3.0
  1
合成樹脂
 41
0.777778
  7
STANDARD
100
AcDbText
  0
TEXT
  5
136
100
AcDbEntity
  8
M0
 62
     7
100
AcDbText
 10
202.897304
 20
169.384664
 40
3.0
  1
パイロットランプ
 41
0.388889
  7
STANDARD
100
AcDbText
  0
TEXT
  5
137
100
AcDbEntity
  8
M0
 62
     7
100
AcDbText
 10
224.91397
 20
179.384664
 40
3.0
  1
合成樹脂
 41
0.777778
  7
STANDARD
100
AcDbText
  0
TEXT
  5
138
100
AcDbEntity
  8
M0
 62
     7
100
AcDbText
 10
249.880637
 20
179.384664
 40
3.0
  1
ホワイト
 41
0.666667
  7
STANDARD
100
AcDbText
  0
TEXT
  5
139
100
AcDbEntity
  8
M0
 62
     7
100
AcDbText
 10
249.880637
 20
174.384664
 40
3.0
  1
ホワイト
 41
0.666667
  7
STANDARD
100
AcDbText
  0
TEXT
  5
13A
100
AcDbEntity
  8
M0
 62
     7
100
AcDbText
 10
249.880637
 20
169.384664
 40
3.0
  1
オンライト（緑）
 41
0.666667
  7
STANDARD
100
AcDbText
  0
TEXT
  5
13B
100
AcDbEntity
  8
M0
 62
     7
100
AcDbText
 10
221.26344
 20
15.384664
 40
3.0
  1
日立アプライアンス株式会社
 41
0.833333
  7
STANDARD
100
AcDbText
  0
LINE
  5
13C
100
AcDbEntity
  8
M0
100
AcDbLine
 10
135.835564
 20
30.338668
 11
135.835564
 21
153.338668
  0
LINE
  5
13D
100
AcDbEntity
  8
M0
100
AcDbLine
 10
135.835564
 20
153.338668
 11
133.335564
 21
153.338668
  0
LINE
  5
13E
100
AcDbEntity
  8
M0
100
AcDbLine
 10
125.335564
 20
145.338668
 11
125.335564
 21
38.338668
  0
LINE
  5
13F
100
AcDbEntity
  8
M0
100
AcDbLine
 10
133.335564
 20
30.338668
 11
135.835564
 21
30.338668
  0
LINE
  5
140
100
AcDbEntity
  8
M0
  6
DASHDOT
100
AcDbLine
 10
120.335564
 20
91.838668
 11
168.809774
 21
91.838668
  0
LINE
  5
141
100
AcDbEntity
  8
M0
100
AcDbLine
 10
125.335564
 20
46.638668
 11
121.335564
 21
46.638668
  0
LINE
  5
142
100
AcDbEntity
  8
M0
100
AcDbLine
 10
129.335564
 20
146.764701
 11
129.335564
 21
36.300242
  0
ARC
  5
143
100
AcDbEntity
  8
M0
100
AcDbCircle
 10
133.335564
 20
145.338668
 40
8.0
100
AcDbArc
 50
90.0
 51
180.0
  0
ARC
  5
144
100
AcDbEntity
  8
M0
100
AcDbCircle
 10
133.335564
 20
38.338668
 40
8.0
100
AcDbArc
 50
180.0
 51
270.0
  0
LINE
  5
145
100
AcDbEntity
  8
M0
100
AcDbLine
 10
143.835564
 20
126.838668
 11
143.835564
 21
56.838668
  0
LINE
  5
146
100
AcDbEntity
  8
M0
100
AcDbLine
 10
135.835564
 20
126.838668
 11
143.835564
 21
126.838668
  0
LINE
  5
147
100
AcDbEntity
  8
M0
100
AcDbLine
 10
135.835564
 20
56.838668
 11
143.835564
 21
56.838668
  0
LINE
  5
148
100
AcDbEntity
  8
M0
100
AcDbLine
 10
46.0997
 20
101.838668
 11
79.0997
 21
101.838668
  0
LINE
  5
149
100
AcDbEntity
  8
M0
100
AcDbLine
 10
50.680474
 20
100.838668
 11
74.5997
 21
100.838668
  0
LINE
  5
14A
100
AcDbEntity
  8
M0
100
AcDbLine
 10
50.5997
 20
94.838668
 11
74.5997
 21
94.838668
  0
LINE
  5
14B
100
AcDbEntity
  8
M0
100
AcDbLine
 10
74.5997
 20
100.838668
 11
74.5997
 21
94.838668
  0
LINE
  5
14C
100
AcDbEntity
  8
M0
100
AcDbLine
 10
50.5997
 20
100.838668
 11
50.5997
 21
94.838668
  0
TEXT
  5
14D
100
AcDbEntity
  8
M0
100
AcDbText
 10
47.02682
 20
86.900093
 40
5.0
  1
切
 41
0.783333
  7
STANDARD
100
AcDbText
  0
LINE
  5
14E
100
AcDbEntity
  8
M0
100
AcDbLine
 10
58.5997
 20
90.838668
 11
66.5997
 21
90.838668
  0
LINE
  5
14F
100
AcDbEntity
  8
M0
100
AcDbLine
 10
58.5997
 20
92.838668
 11
66.5997
 21
92.838668
  0
TEXT
  5
150
100
AcDbEntity
  8
M0
100
AcDbText
 10
75.954993
 20
86.811897
 40
5.0
  1
入
 41
0.783333
  7
STANDARD
100
AcDbText
  0
LINE
  5
151
100
AcDbEntity
  8
M0
100
AcDbLine
 10
46.0997
 20
81.838668
 11
79.0997
 21
81.838668
  0
ARC
  5
152
100
AcDbEntity
  8
M0
100
AcDbCircle
 10
46.0997
 20
99.838668
 40
2.0
100
AcDbArc
 50
90.0
 51
180.0
  0
LINE
  5
153
100
AcDbEntity
  8
M0
100
AcDbLine
 10
44.0997
 20
99.838668
 11
44.0997
 21
83.838668
  0
ARC
  5
154
100
AcDbEntity
  8
M0
100
AcDbCircle
 10
46.0997
 20
83.838668
 40
2.0
100
AcDbArc
 50
180.0
 51
270.0
  0
ARC
  5
155
100
AcDbEntity
  8
M0
100
AcDbCircle
 10
58.5997
 20
91.838668
 40
1.0
100
AcDbArc
 50
180.0
 51
270.0
  0
ARC
  5
156
100
AcDbEntity
  8
M0
100
AcDbCircle
 10
66.5997
 20
91.838668
 40
1.0
100
AcDbArc
 50
270.0
 51
360.0
  0
ARC
  5
157
100
AcDbEntity
  8
M0
100
AcDbCircle
 10
66.5997
 20
91.838668
 40
1.0
100
AcDbArc
 50
0.0
 51
90.0
  0
ARC
  5
158
100
AcDbEntity
  8
M0
100
AcDbCircle
 10
58.5997
 20
91.838668
 40
1.0
100
AcDbArc
 50
90.0
 51
180.0
  0
TEXT
  5
159
100
AcDbEntity
  8
M0
100
AcDbText
 10
56.089774
 20
95.799618
 40
5.0
  1
換気扇
 41
0.783333
  7
STANDARD
100
AcDbText
  0
ARC
  5
15A
100
AcDbEntity
  8
M0
100
AcDbCircle
 10
79.0997
 20
99.838668
 40
2.0
100
AcDbArc
 50
0.0
 51
90.0
  0
LINE
  5
15B
100
AcDbEntity
  8
M0
100
AcDbLine
 10
81.0997
 20
99.838668
 11
81.0997
 21
83.838668
  0
ARC
  5
15C
100
AcDbEntity
  8
M0
100
AcDbCircle
 10
79.0997
 20
83.838668
 40
2.0
100
AcDbArc
 50
270.0
 51
360.0
  0
LINE
  5
15D
100
AcDbEntity
  8
M0
100
AcDbLine
 10
125.335564
 20
137.038668
 11
121.335564
 21
137.038668
  0
LINE
  5
15E
100
AcDbEntity
  8
M0
100
AcDbLine
 10
121.335564
 20
137.038668
 11
121.335564
 21
46.638668
  0
LINE
  5
15F
100
AcDbEntity
  8
M0
100
AcDbLine
 10
143.835564
 20
103.188668
 11
164.035564
 21
103.188668
  0
LINE
  5
160
100
AcDbEntity
  8
M0
100
AcDbLine
 10
164.035564
 20
103.188668
 11
164.035564
 21
80.488668
  0
LINE
  5
161
100
AcDbEntity
  8
M0
100
AcDbLine
 10
143.835564
 20
80.488668
 11
164.035564
 21
80.488668
  0
LINE
  5
162
100
AcDbEntity
  8
M47
 62
     5
100
AcDbLine
 10
216.307043
 20
79.794331
 11
213.715043
 21
80.488855
  0
LINE
  5
163
100
AcDbEntity
  8
M47
 62
     5
100
AcDbLine
 10
216.307043
 20
81.18338
 11
213.715043
 21
80.488855
  0
TEXT
  5
164
100
AcDbEntity
  8
M47
 62
     5
100
AcDbText
 10
198.445506
 20
78.370667
 40
3.24
  1
電　源
 41
0.888889
  7
STANDARD
100
AcDbText
  0
TEXT
  5
165
100
AcDbEntity
  8
M47
 62
     5
100
AcDbText
 10
193.445107
 20
74.460747
 40
3.24
  1
ＡＣ１００Ｖ
 41
0.655556
  7
STANDARD
100
AcDbText
  0
LINE
  5
166
100
AcDbEntity
  8
M47
  6
DASHED
 62
     5
100
AcDbLine
 10
225.60342
 20
80.488855
 11
213.715043
 21
80.488855
  0
LINE
  5
167
100
AcDbEntity
  8
M47
 62
     5
100
AcDbLine
 10
254.270413
 20
107.860572
 11
230.366412
 21
107.860572
  0
LINE
  5
168
100
AcDbEntity
  8
M47
 62
     5
100
AcDbLine
 10
230.366412
 20
92.980572
 11
254.270413
 21
92.980572
  0
LINE
  5
169
100
AcDbEntity
  8
M47
 62
     5
100
AcDbLine
 10
256.190413
 20
94.900572
 11
256.190413
 21
105.940572
  0
LINE
  5
16A
100
AcDbEntity
  8
M47
 62
     5
100
AcDbLine
 10
228.446412
 20
105.940572
 11
228.446412
 21
94.900572
  0
ARC
  5
16B
100
AcDbEntity
  8
M47
 62
     5
100
AcDbCircle
 10
254.270413
 20
105.940572
 40
1.92
100
AcDbArc
 50
0.0
 51
90.0
  0
ARC
  5
16C
100
AcDbEntity
  8
M47
 62
     5
100
AcDbCircle
 10
230.366412
 20
105.940572
 40
1.92
100
AcDbArc
 50
90.0
 51
180.0
  0
ARC
  5
16D
100
AcDbEntity
  8
M47
 62
     5
100
AcDbCircle
 10
230.366412
 20
94.900572
 40
1.92
100
AcDbArc
 50
180.0
 51
270.0
  0
ARC
  5
16E
100
AcDbEntity
  8
M47
 62
     5
100
AcDbCircle
 10
254.270413
 20
94.900572
 40
1.92
100
AcDbArc
 50
270.0
 51
360.0
  0
LINE
  5
16F
100
AcDbEntity
  8
M47
 62
     5
100
AcDbLine
 10
231.998412
 20
104.468572
 11
231.998412
 21
96.372572
  0
LINE
  5
170
100
AcDbEntity
  8
M47
 62
     5
100
AcDbLine
 10
252.638413
 20
104.468572
 11
252.638413
 21
96.372572
  0
TEXT
  5
171
100
AcDbEntity
  8
M47
 62
     5
100
AcDbText
 10
229.099661
 20
97.853573
 40
3.24
  1
１
 41
0.888889
  7
STANDARD
100
AcDbText
  0
TEXT
  5
172
100
AcDbEntity
  8
M47
 62
     5
100
AcDbText
 10
252.863961
 20
97.853573
 40
3.24
  1
２
 41
0.888889
  7
STANDARD
100
AcDbText
  0
LINE
  5
173
100
AcDbEntity
  8
M47
  6
DASHED
 62
     5
100
AcDbLine
 10
253.438413
 20
95.572572
 11
260.990413
 21
95.572572
  0
LINE
  5
174
100
AcDbEntity
  8
M47
  6
DASHED
 62
     5
100
AcDbLine
 10
260.990413
 20
89.140572
 11
260.990413
 21
95.572572
  0
LINE
  5
175
100
AcDbEntity
  8
M47
  6
DASHED
 62
     5
100
AcDbLine
 10
260.990413
 20
89.140572
 11
225.60342
 21
89.140572
  0
LINE
  5
176
100
AcDbEntity
  8
M47
 62
     5
100
AcDbLine
 10
216.307043
 20
96.267096
 11
213.715043
 21
95.572572
  0
LINE
  5
177
100
AcDbEntity
  8
M47
 62
     5
100
AcDbLine
 10
216.307043
 20
94.878047
 11
213.715043
 21
95.572572
  0
TEXT
  5
178
100
AcDbEntity
  8
M47
 62
     5
100
AcDbText
 10
196.833299
 20
93.963538
 40
3.24
  1
共通（赤）
 41
0.888889
  7
STANDARD
100
AcDbText
  0
LINE
  5
179
100
AcDbEntity
  8
M47
  6
DASHED
 62
     5
100
AcDbLine
 10
231.198412
 20
95.572572
 11
213.715043
 21
95.572572
  0
LINE
  5
17A
100
AcDbEntity
  8
M47
  6
DASHED
 62
     5
100
AcDbLine
 10
225.60342
 20
89.140572
 11
225.60342
 21
80.488855
  0
ARC
  5
17B
100
AcDbEntity
  8
M47
 62
     5
100
AcDbCircle
 10
215.747868
 20
78.131825
 40
4.738135
100
AcDbArc
 50
229.447538
 51
492.403172
  0
CIRCLE
  5
17C
100
AcDbEntity
  8
M47
 62
     5
100
AcDbCircle
 10
231.998412
 20
95.572572
 40
0.8
  0
CIRCLE
  5
17D
100
AcDbEntity
  8
M47
 62
     5
100
AcDbCircle
 10
231.998412
 20
105.268572
 40
0.8
  0
CIRCLE
  5
17E
100
AcDbEntity
  8
M47
 62
     5
100
AcDbCircle
 10
252.638413
 20
105.268572
 40
0.8
  0
CIRCLE
  5
17F
100
AcDbEntity
  8
M47
 62
     5
100
AcDbCircle
 10
252.638413
 20
95.572572
 40
0.8
  0
TEXT
  5
180
100
AcDbEntity
  8
M47
 62
     5
100
AcDbText
 10
203.235862
 20
106.256289
 40
3.2
  1
■　結線図
 41
0.880208
  7
STANDARD
100
AcDbText
  0
LINE
  5
181
100
AcDbEntity
  8
M47
 62
     5
100
AcDbLine
 10
242.507922
 20
103.760274
 11
240.747922
 21
103.760274
  0
ARC
  5
182
100
AcDbEntity
  8
M47
 62
     5
100
AcDbCircle
 10
239.787922
 20
103.760274
 40
0.96
100
AcDbArc
 50
1.364242E-012
 51
237.465336
  0
ARC
  5
183
100
AcDbEntity
  8
M47
 62
     5
100
AcDbCircle
 10
238.755328
 20
103.760274
 40
0.96
100
AcDbArc
 50
-57.465336
 51
232.074253
  0
ARC
  5
184
100
AcDbEntity
  8
M47
 62
     5
100
AcDbCircle
 10
237.575219
 20
103.760274
 40
0.96
100
AcDbArc
 50
-52.074253
 51
238.593423
  0
ARC
  5
185
100
AcDbEntity
  8
M47
 62
     5
100
AcDbCircle
 10
236.574693
 20
103.760274
 40
0.96
100
AcDbArc
 50
-58.593423
 51
180.0
  0
LINE
  5
186
100
AcDbEntity
  8
M47
 62
     5
100
AcDbLine
 10
235.614693
 20
103.760274
 11
233.854693
 21
103.760274
  0
LINE
  5
187
100
AcDbEntity
  8
M47
 62
     5
100
AcDbLine
 10
233.854693
 20
103.760274
 11
233.854693
 21
105.680274
  0
LINE
  5
188
100
AcDbEntity
  8
M47
 62
     5
100
AcDbLine
 10
233.854693
 20
105.680274
 11
236.574693
 21
105.680274
  0
LINE
  5
189
100
AcDbEntity
  8
M47
 62
     5
100
AcDbLine
 10
236.574693
 20
105.200274
 11
239.934693
 21
105.200274
  0
LINE
  5
18A
100
AcDbEntity
  8
M47
 62
     5
100
AcDbLine
 10
236.574693
 20
106.160274
 11
239.934693
 21
106.160274
  0
LINE
  5
18B
100
AcDbEntity
  8
M47
 62
     5
100
AcDbLine
 10
239.934693
 20
105.200274
 11
239.934693
 21
106.160274
  0
LINE
  5
18C
100
AcDbEntity
  8
M47
 62
     5
100
AcDbLine
 10
239.934693
 20
105.680274
 11
242.507922
 21
105.680274
  0
LINE
  5
18D
100
AcDbEntity
  8
M47
 62
     5
100
AcDbLine
 10
242.507922
 20
103.760274
 11
242.507922
 21
105.680274
  0
LINE
  5
18E
100
AcDbEntity
  8
M47
 62
     5
100
AcDbLine
 10
236.574693
 20
106.160274
 11
236.574693
 21
105.200274
  0
LINE
  5
18F
100
AcDbEntity
  8
M47
 62
     5
100
AcDbLine
 10
240.108604
 20
101.306768
 11
235.849952
 21
101.306768
  0
LINE
  5
190
100
AcDbEntity
  8
M47
 62
     5
100
AcDbLine
 10
240.121431
 20
102.076404
 11
235.901261
 21
102.076404
  0
ARC
  5
191
100
AcDbEntity
  8
M47
 62
     5
100
AcDbCircle
 10
239.787922
 20
99.460572
 40
0.96
100
AcDbArc
 50
6.821210E-013
 51
237.465336
  0
ARC
  5
192
100
AcDbEntity
  8
M47
 62
     5
100
AcDbCircle
 10
238.755328
 20
99.460572
 40
0.96
100
AcDbArc
 50
-57.465336
 51
232.074253
  0
ARC
  5
193
100
AcDbEntity
  8
M47
 62
     5
100
AcDbCircle
 10
237.575219
 20
99.460572
 40
0.96
100
AcDbArc
 50
-52.074253
 51
238.593423
  0
ARC
  5
194
100
AcDbEntity
  8
M47
 62
     5
100
AcDbCircle
 10
236.574693
 20
99.460572
 40
0.96
100
AcDbArc
 50
-58.593423
 51
180.0
  0
LINE
  5
195
100
AcDbEntity
  8
M47
 62
     5
100
AcDbLine
 10
244.766413
 20
99.460572
 11
240.747922
 21
99.460572
  0
CIRCLE
  5
196
100
AcDbEntity
  8
M47
 62
     5
100
AcDbCircle
 10
245.198413
 20
99.460572
 40
0.432
  0
LINE
  5
197
100
AcDbEntity
  8
M47
 62
     5
100
AcDbLine
 10
235.614693
 20
99.460572
 11
231.998412
 21
99.460572
  0
LINE
  5
198
100
AcDbEntity
  8
M47
 62
     5
100
AcDbLine
 10
252.638413
 20
99.460572
 11
244.936365
 21
102.120717
  0
TEXT
  5
199
100
AcDbEntity
  8
M47
 62
     5
100
AcDbText
 10
243.523935
 20
104.378576
 40
2.4
  1
ＬＥＤ
 41
0.797222
  7
STANDARD
100
AcDbText
  0
ENDSEC
  0
SECTION
  2
OBJECTS
  0
DICTIONARY
  5
C
100
AcDbDictionary
  3
ACAD_GROUP
350
D
  3
ACAD_MLINESTYLE
350
E
  0
DICTIONARY
  5
D
102
{ACAD_REACTORS
330
C
102
}
100
AcDbDictionary
  0
DICTIONARY
  5
E
102
{ACAD_REACTORS
330
C
102
}
100
AcDbDictionary
  3
STANDARD
350
13
  0
MLINESTYLE
  5
13
102
{ACAD_REACTORS
330
E
102
}
100
AcDbMlineStyle
  2
STANDARD
 70
     0
  3

 62
     0
 51
90.0
 52
90.0
 71
     2
 49
0.5
 62
   256
  6
BYLAYER
 49
-0.5
 62
   256
  6
BYLAYER
  0
ENDSEC
  0
EOF
