  0
SECTION
  2
HEADER
  9
$ACADVER
  1
AC1012
  9
$INSBASE
 10
0.0
 20
0.0
  9
$VIEWCTR
 10
7.531722
 20
4.5
  9
$VIEWSIZE
 40
9.0
  9
$SNAPMODE
 70
     0
  9
$SNAPUNIT
 10
1.0
 20
1.0
  9
$SNAPBASE
 10
0.0
 20
0.0
  9
$SNAPANG
 50
0.0
  9
$SNAPSTYLE
 70
     0
  9
$SNAPISOPAIR
 70
     0
  9
$GRIDMODE
 70
     0
  9
$GRIDUNIT
 10
0.0
 20
0.0
  9
$ORTHOMODE
 70
     0
  9
$REGENMODE
 70
     1
  9
$FILLMODE
 70
     1
  9
$QTEXTMODE
 70
     0
  9
$DRAGMODE
 70
     2
  9
$LTSCALE
 40
1.0
  9
$OSMODE
 70
     0
  9
$ATTMODE
 70
     1
  9
$TEXTSIZE
 40
0.2
  9
$TRACEWID
 40
0.05
  9
$TEXTSTYLE
  7
STANDARD
  9
$CELTYPE
  6
BYLAYER
  9
$CECOLOR
 62
   256
  9
$DIMSCALE
 40
1.0
  9
$DIMASZ
 40
0.18
  9
$DIMEXO
 40
0.0625
  9
$DIMDLI
 40
0.38
  9
$DIMRND
 40
0.0
  9
$DIMDLE
 40
0.0
  9
$DIMEXE
 40
0.18
  9
$DIMTP
 40
0.0
  9
$DIMTM
 40
0.0
  9
$DIMTXT
 40
0.18
  9
$DIMCEN
 40
0.09
  9
$DIMTSZ
 40
0.0
  9
$DIMTOL
 70
     0
  9
$DIMLIM
 70
     0
  9
$DIMTIH
 70
     1
  9
$DIMTOH
 70
     1
  9
$DIMSE1
 70
     0
  9
$DIMSE2
 70
     0
  9
$DIMTAD
 70
     0
  9
$DIMZIN
 70
     0
  9
$DIMBLK
  1

  9
$LUNITS
 70
     2
  9
$LUPREC
 70
     4
  9
$AXISMODE
 70
     0
  9
$AXISUNIT
 10
0.0
 20
0.0
  9
$SKETCHINC
 40
0.1
  9
$FILLETRAD
 40
0.0
  9
$AUNITS
 70
     0
  9
$AUPREC
 70
     0
  9
$MENU
  1
ACAD
  9
$ELEVATION
 40
0.0
  9
$THICKNESS
 40
0.0
  9
$VIEWDIR
 10
0.0
 20
0.0
 30
1.0
  9
$LIMCHECK
 70
     0
  9
$BLIPMODE
 70
     1
  9
$CHAMFERA
 40
0.0
  9
$CHAMFERB
 40
0.0
  9
$FASTZOOM
 70
     1
  9
$SKPOLY
 70
     0
  9
$TDCREATE
 40
0000000.0000000000
  9
$TDUPDATE
 40
0000000.0000000000
  9
$TDINDWG
 40
0.0000000000
  9
$TDUSRTIMER
 40
0.0000000000
  9
$USRTIMER
 70
     1
  9
$ANGBASE
 50
0.0
  9
$ANGDIR
 70
     0
  9
$PDMODE
 70
     0
  9
$PDSIZE
 40
0.0
  9
$PLINEWID
 40
0.0
  9
$COORDS
 70
     0
  9
$USERI1
 70
     0
  9
$USERI2
 70
     0
  9
$USERI3
 70
     0
  9
$USERI4
 70
     0
  9
$USERI5
 70
     0
  9
$USERR1
 40
0.0
  9
$USERR2
 40
0.0
  9
$USERR3
 40
0.0
  9
$USERR4
 40
0.0
  9
$USERR5
 40
0.0
  9
$CLAYER
  8
M0
  9
$EXTMIN
 10
0.0
 20
0.0
  9
$EXTMAX
 10
297.0
 20
210.0
  9
$LIMMIN
 10
0.0
 20
0.0
  9
$LIMMAX
 10
297.0
 20
210.0
  9
$HANDSEED
  5
A09
  0
ENDSEC
  0
SECTION
  2
CLASSES
  0
ENDSEC
  0
SECTION
  2
TABLES
  0
TABLE
  2
VPORT
  5
8
100
AcDbSymbolTable
 70
     2
  0
VPORT
  5
14
100
AcDbSymbolTableRecord
100
AcDbViewportTableRecord
  2
*ACTIVE
 70
     0
 10
0.0
 20
0.0
 11
1.0
 21
1.0
 12
484.0
 22
297.0
 13
0.0
 23
0.0
 14
1.0
 24
1.0
 15
0.0
 25
0.0
 16
0.0
 26
0.0
 36
1.0
 17
0.0
 27
0.0
 37
0.0
 40
594.0
 41
2.0
 42
50.0
 43
0.0
 44
0.0
 50
0.0
 51
0.0
 71
     0
 72
   100
 73
     1
 74
     1
 75
     0
 76
     0
 77
     0
 78
     0
  0
ENDTAB
  0
TABLE
  2
LTYPE
  5
5
100
AcDbSymbolTable
 70
     5
  0
LTYPE
  5
15
100
AcDbSymbolTableRecord
100
AcDbLinetypeTableRecord
  2
BYBLOCK
 70
     0
  3

 72
    65
 73
     0
 40
0.0
  0
LTYPE
  5
16
100
AcDbSymbolTableRecord
100
AcDbLinetypeTableRecord
  2
BYLAYER
 70
     0
  3

 72
    65
 73
     0
 40
0.0
  0
LTYPE
  5
17
100
AcDbSymbolTableRecord
100
AcDbLinetypeTableRecord
  2
CONTINUOUS
 70
    64
  3
Solid line
 72
    65
 73
     0
 40
0.0
  0
LTYPE
  5
18
100
AcDbSymbolTableRecord
100
AcDbLinetypeTableRecord
  2
DASHED
 70
    64
  3
__ __ __ __ __ __ __ __ __ __ __ __ __ __ __ __
 72
    65
 73
     2
 40
0.75
 49
0.5
 74
     0
 49
-0.25
 74
     0
  0
LTYPE
  5
19
100
AcDbSymbolTableRecord
100
AcDbLinetypeTableRecord
  2
DASHDOT
 70
    64
  3
__ . __ . __ . __ . __ . __ . __ . __ . __ . __
 72
    65
 73
     4
 40
1.0
 49
0.5
 74
     0
 49
-0.25
 74
     0
 49
0.0
 74
     0
 49
-0.25
 74
     0
  0
LTYPE
  5
1A
100
AcDbSymbolTableRecord
100
AcDbLinetypeTableRecord
  2
DIVIDE
 70
    64
  3
____ . . ____ . . ____ . . ____ . . ____ . . __
 72
    65
 73
     6
 40
1.25
 49
0.5
 74
     0
 49
-0.25
 74
     0
 49
0.0
 74
     0
 49
-0.25
 74
     0
 49
0.0
 74
     0
 49
-0.25
 74
     0
  0
LTYPE
  5
1B
100
AcDbSymbolTableRecord
100
AcDbLinetypeTableRecord
  2
DOT
 70
    64
  3
. . . . . . . . . . . . . . . . . . . . . . . .
 72
    65
 73
     2
 40
0.25
 49
0.0
 74
     0
 49
-0.25
 74
     0
  0
ENDTAB
  0
TABLE
  2
LAYER
  5
2
100
AcDbSymbolTable
 70
   102
  0
LAYER
  5
F
100
AcDbSymbolTableRecord
100
AcDbLayerTableRecord
  2
0
 70
     0
 62
     7
  6
CONTINUOUS
  0
LAYER
  5
1C
100
AcDbSymbolTableRecord
100
AcDbLayerTableRecord
  2
DEFPOINTS
 70
     0
 62
     7
  6
CONTINUOUS
  0
LAYER
  5
1D
100
AcDbSymbolTableRecord
100
AcDbLayerTableRecord
  2
M0
 70
     0
 62
     3
  6
CONTINUOUS
  0
LAYER
  5
1E
100
AcDbSymbolTableRecord
100
AcDbLayerTableRecord
  2
DD0
 70
     0
 62
     4
  6
CONTINUOUS
  0
ENDTAB
  0
TABLE
  2
STYLE
  5
3
100
AcDbSymbolTable
 70
     2
  0
STYLE
  5
10
100
AcDbSymbolTableRecord
100
AcDbTextStyleTableRecord
  2
STANDARD
 70
     0
 40
0.0
 41
1.0
 50
0.0
 71
     0
 42
0.2
  3
txt
  4
BIGFONT
  0
ENDTAB
  0
TABLE
  2
VIEW
  5
6
100
AcDbSymbolTable
 70
     0
  0
ENDTAB
  0
TABLE
  2
UCS
  5
7
100
AcDbSymbolTable
 70
     0
  0
ENDTAB
  0
TABLE
  2
APPID
  5
9
100
AcDbSymbolTable
 70
     1
  0
APPID
  5
11
100
AcDbSymbolTableRecord
100
AcDbRegAppTableRecord
  2
ACAD
 70
     0
  0
ENDTAB
  0
TABLE
  2
DIMSTYLE
  5
A
100
AcDbSymbolTable
 70
     2
  0
DIMSTYLE
105
25
100
AcDbSymbolTableRecord
100
AcDbDimStyleTableRecord
  2
STANDARD
 70
     0
  3

  4

  5

  6
_OPEN
  7
_OPEN
 40
1.0
 41
3.0
 42
0.0
 43
8.0
 44
1.5
 45
0.0
 46
0.0
 47
0.0
 48
0.0
140
3.5
141
0.09
142
0.0
143
0.03937
144
1.0
145
0.0
146
1.0
147
1.0
 71
     0
 72
     0
 73
     0
 74
     0
 75
     0
 76
     0
 77
     3
 78
     8
170
     0
171
     2
172
     0
173
     1
174
     0
175
     0
176
     0
177
     0
178
     0
270
     2
271
     2
272
     4
273
     2
274
     2
340
10
275
     0
280
     0
281
     0
282
     0
283
     1
284
     0
285
     0
286
     0
287
     3
288
     0
  0
DIMSTYLE
105
26
100
AcDbSymbolTableRecord
100
AcDbDimStyleTableRecord
  2
LEADSTYL
 70
     0
  3

  4

  5

  6
_OPEN
  7
_OPEN
 40
1.0
 41
3.0
 42
0.0625
 43
0.38
 44
0.18
 45
0.0
 46
0.0
 47
0.0
 48
0.0
140
3.2
141
0.09
142
0.0
143
25.4
144
1.0
145
0.0
146
1.0
147
1.0
 71
     0
 72
     0
 73
     1
 74
     1
 75
     0
 76
     0
 77
     0
 78
     0
170
     0
171
     2
172
     0
173
     1
174
     0
175
     0
176
     0
177
     0
178
     0
270
     2
271
     4
272
     4
273
     2
274
     2
340
10
275
     0
280
     0
281
     0
282
     0
283
     1
284
     0
285
     0
286
     0
287
     3
288
     0
  0
ENDTAB
  0
TABLE
  2
BLOCK_RECORD
  5
1
100
AcDbSymbolTable
 70
    20
  0
BLOCK_RECORD
  5
1F
100
AcDbSymbolTableRecord
100
AcDbBlockTableRecord
  2
*MODEL_SPACE
  0
BLOCK_RECORD
  5
22
100
AcDbSymbolTableRecord
100
AcDbBlockTableRecord
  2
*PAPER_SPACE
  0
BLOCK_RECORD
  5
27
100
AcDbSymbolTableRecord
100
AcDbBlockTableRecord
  2
_NONE
  0
BLOCK_RECORD
  5
2B
100
AcDbSymbolTableRecord
100
AcDbBlockTableRecord
  2
_OPEN
  0
BLOCK_RECORD
  5
31
100
AcDbSymbolTableRecord
100
AcDbBlockTableRecord
  2
_CLOSED
  0
BLOCK_RECORD
  5
38
100
AcDbSymbolTableRecord
100
AcDbBlockTableRecord
  2
_ORIGIN
  0
BLOCK_RECORD
  5
3D
100
AcDbSymbolTableRecord
100
AcDbBlockTableRecord
  2
_DOT
  0
BLOCK_RECORD
  5
45
100
AcDbSymbolTableRecord
100
AcDbBlockTableRecord
  2
_OBLIQUE
  0
BLOCK_RECORD
  5
49
100
AcDbSymbolTableRecord
100
AcDbBlockTableRecord
  2
*D0
  0
BLOCK_RECORD
  5
58
100
AcDbSymbolTableRecord
100
AcDbBlockTableRecord
  2
*D1
  0
BLOCK_RECORD
  5
67
100
AcDbSymbolTableRecord
100
AcDbBlockTableRecord
  2
*D2
  0
BLOCK_RECORD
  5
74
100
AcDbSymbolTableRecord
100
AcDbBlockTableRecord
  2
*D3
  0
BLOCK_RECORD
  5
81
100
AcDbSymbolTableRecord
100
AcDbBlockTableRecord
  2
*D4
  0
BLOCK_RECORD
  5
90
100
AcDbSymbolTableRecord
100
AcDbBlockTableRecord
  2
LEAD0
  0
BLOCK_RECORD
  5
95
100
AcDbSymbolTableRecord
100
AcDbBlockTableRecord
  2
*D5
  0
BLOCK_RECORD
  5
A4
100
AcDbSymbolTableRecord
100
AcDbBlockTableRecord
  2
LEAD1
  0
BLOCK_RECORD
  5
A9
100
AcDbSymbolTableRecord
100
AcDbBlockTableRecord
  2
*D6
  0
BLOCK_RECORD
  5
B6
100
AcDbSymbolTableRecord
100
AcDbBlockTableRecord
  2
*D7
  0
BLOCK_RECORD
  5
C3
100
AcDbSymbolTableRecord
100
AcDbBlockTableRecord
  2
*D8
  0
BLOCK_RECORD
  5
D2
100
AcDbSymbolTableRecord
100
AcDbBlockTableRecord
  2
LEAD2
  0
BLOCK_RECORD
  5
D9
100
AcDbSymbolTableRecord
100
AcDbBlockTableRecord
  2
LEAD3
  0
BLOCK_RECORD
  5
E0
100
AcDbSymbolTableRecord
100
AcDbBlockTableRecord
  2
LEAD4
  0
ENDTAB
  0
ENDSEC
  0
SECTION
  2
BLOCKS
  0
BLOCK
  5
20
100
AcDbEntity
  8
0
100
AcDbBlockBegin
  2
*MODEL_SPACE
 70
     0
 10
0.0
 20
0.0
 30
0.0
  3
*MODEL_SPACE
  1

  0
ENDBLK
  5
21
100
AcDbEntity
  8
0
100
AcDbBlockEnd
  0
BLOCK
  5
23
100
AcDbEntity
 67
     1
  8
0
100
AcDbBlockBegin
  2
*PAPER_SPACE
 70
     0
 10
0.0
 20
0.0
 30
0.0
  3
*PAPER_SPACE
  1

  0
ENDBLK
  5
24
100
AcDbEntity
 67
     1
  8
0
100
AcDbBlockEnd
  0
BLOCK
  5
28
100
AcDbEntity
  8
0
100
AcDbBlockBegin
  2
_NONE
 70
     0
 10
0.0
 20
0.0
  0
CIRCLE
  5
29
100
AcDbEntity
  8
0
 62
     0
100
AcDbCircle
 10
0.0
 20
0.0
 40
0.25
  0
ENDBLK
  5
2A
100
AcDbEntity
  8
0
100
AcDbBlockEnd
  0
BLOCK
  5
2C
100
AcDbEntity
  8
0
100
AcDbBlockBegin
  2
_OPEN
 70
     0
 10
0.0
 20
0.0
  0
LINE
  5
2D
100
AcDbEntity
  8
0
 62
     0
100
AcDbLine
 10
-0.965926
 20
0.258819
 11
0.0
 21
0.0
  0
LINE
  5
2E
100
AcDbEntity
  8
0
 62
     0
100
AcDbLine
 10
0.0
 20
0.0
 11
-0.965926
 21
-0.258819
  0
LINE
  5
2F
100
AcDbEntity
  8
0
 62
     0
100
AcDbLine
 10
0.0
 20
0.0
 11
-1.0
 21
0.0
  0
ENDBLK
  5
30
100
AcDbEntity
  8
0
100
AcDbBlockEnd
  0
BLOCK
  5
32
100
AcDbEntity
  8
0
100
AcDbBlockBegin
  2
_CLOSED
 70
     0
 10
0.0
 20
0.0
  0
LINE
  5
33
100
AcDbEntity
  8
0
 62
     0
100
AcDbLine
 10
-0.965926
 20
0.258819
 11
0.0
 21
0.0
  0
LINE
  5
34
100
AcDbEntity
  8
0
 62
     0
100
AcDbLine
 10
0.0
 20
0.0
 11
-0.965926
 21
-0.258819
  0
LINE
  5
35
100
AcDbEntity
  8
0
 62
     0
100
AcDbLine
 10
-0.965926
 20
0.258819
 11
-0.965926
 21
-0.258819
  0
LINE
  5
36
100
AcDbEntity
  8
0
 62
     0
100
AcDbLine
 10
0.0
 20
0.0
 11
-1.0
 21
0.0
  0
ENDBLK
  5
37
100
AcDbEntity
  8
0
100
AcDbBlockEnd
  0
BLOCK
  5
39
100
AcDbEntity
  8
0
100
AcDbBlockBegin
  2
_ORIGIN
 70
     0
 10
0.0
 20
0.0
  0
CIRCLE
  5
3A
100
AcDbEntity
  8
0
 62
     0
100
AcDbCircle
 10
0.0
 20
0.0
 40
0.5
  0
LINE
  5
3B
100
AcDbEntity
  8
0
 62
     0
100
AcDbLine
 10
0.0
 20
0.0
 11
-1.0
 21
0.0
  0
ENDBLK
  5
3C
100
AcDbEntity
  8
0
100
AcDbBlockEnd
  0
BLOCK
  5
3E
100
AcDbEntity
  8
0
100
AcDbBlockBegin
  2
_DOT
 70
     0
 10
0.0
 20
0.0
  0
POLYLINE
  5
3F
100
AcDbEntity
  8
0
 62
     0
100
AcDb2dPolyline
 66
     1
 70
     1
 40
0.5
 41
0.5
  0
VERTEX
  5
40
100
AcDbEntity
  8
0
 62
     0
100
AcDbVertex
100
AcDb2dVertex
 10
-0.25
 20
0.0
 42
1.0
  0
VERTEX
  5
41
100
AcDbEntity
  8
0
 62
     0
100
AcDbVertex
100
AcDb2dVertex
 10
0.25
 20
0.0
 42
1.0
  0
SEQEND
  5
42
100
AcDbEntity
  8
0
 62
     0
  0
LINE
  5
43
100
AcDbEntity
  8
0
 62
     0
100
AcDbLine
 10
-0.5
 20
0.0
 11
-1.0
 21
0.0
  0
ENDBLK
  5
44
100
AcDbEntity
  8
0
100
AcDbBlockEnd
  0
BLOCK
  5
46
100
AcDbEntity
  8
0
100
AcDbBlockBegin
  2
_OBLIQUE
 70
     0
 10
0.0
 20
0.0
  0
LINE
  5
47
100
AcDbEntity
  8
0
 62
     0
100
AcDbLine
 10
-0.353553
 20
-0.353553
 11
0.353553
 21
0.353553
  0
ENDBLK
  5
48
100
AcDbEntity
  8
0
100
AcDbBlockEnd
  0
BLOCK
  5
4A
100
AcDbEntity
  8
DD0
100
AcDbBlockBegin
  2
*D0
 70
    65
 10
0.0
 20
0.0
  0
POINT
  5
4B
100
AcDbEntity
  8
DEFPOINTS
100
AcDbPoint
 10
135.429733
 20
169.714386
  0
POINT
  5
4C
100
AcDbEntity
  8
DEFPOINTS
100
AcDbPoint
 10
124.929733
 20
145.494095
  0
POINT
  5
4D
100
AcDbEntity
  8
DEFPOINTS
100
AcDbPoint
 10
135.429733
 20
153.494095
  0
LINE
  5
4E
100
AcDbEntity
  8
DD0
100
AcDbLine
 10
124.929733
 20
145.494095
 11
124.929733
 21
171.214386
  0
LINE
  5
4F
100
AcDbEntity
  8
DD0
100
AcDbLine
 10
135.429733
 20
153.494095
 11
135.429733
 21
171.214386
  0
INSERT
  5
50
100
AcDbEntity
  8
DD0
100
AcDbBlockReference
  2
_OPEN
 10
135.429733
 20
169.714386
 41
3.0
 42
3.0
 50
180.0
  0
INSERT
  5
51
100
AcDbEntity
  8
DD0
100
AcDbBlockReference
  2
_OPEN
 10
124.929733
 20
169.714386
 41
3.0
 42
3.0
  0
LINE
  5
52
100
AcDbEntity
  8
DD0
100
AcDbLine
 10
106.629734
 20
169.714386
 11
121.929733
 21
169.714386
  0
LINE
  5
53
100
AcDbEntity
  8
DD0
100
AcDbLine
 10
124.929733
 20
169.714386
 11
135.429733
 21
169.714386
  0
LINE
  5
54
100
AcDbEntity
  8
DD0
100
AcDbLine
 10
138.429733
 20
169.714386
 11
138.729733
 21
169.714386
  0
TEXT
  5
55
100
AcDbEntity
  8
DD0
100
AcDbText
 10
107.421397
 20
170.714386
 40
3.5
  1
１０．５
 41
0.833333
  7
STANDARD
100
AcDbText
  0
ENDBLK
  5
56
100
AcDbEntity
  8
DD0
100
AcDbBlockEnd
  0
BLOCK
  5
59
100
AcDbEntity
  8
DD0
100
AcDbBlockBegin
  2
*D1
 70
    65
 10
0.0
 20
0.0
  0
POINT
  5
5A
100
AcDbEntity
  8
DEFPOINTS
100
AcDbPoint
 10
124.929733
 20
163.40213
  0
POINT
  5
5B
100
AcDbEntity
  8
DEFPOINTS
100
AcDbPoint
 10
120.929733
 20
137.194092
  0
POINT
  5
5C
100
AcDbEntity
  8
DEFPOINTS
100
AcDbPoint
 10
124.929733
 20
145.494095
  0
LINE
  5
5D
100
AcDbEntity
  8
DD0
100
AcDbLine
 10
120.929733
 20
137.194092
 11
120.929733
 21
164.90213
  0
LINE
  5
5E
100
AcDbEntity
  8
DD0
100
AcDbLine
 10
124.929733
 20
145.494095
 11
124.929733
 21
164.90213
  0
INSERT
  5
5F
100
AcDbEntity
  8
DD0
100
AcDbBlockReference
  2
_OPEN
 10
124.929733
 20
163.40213
 41
3.0
 42
3.0
 50
180.0
  0
INSERT
  5
60
100
AcDbEntity
  8
DD0
100
AcDbBlockReference
  2
_OPEN
 10
120.929733
 20
163.40213
 41
3.0
 42
3.0
  0
LINE
  5
61
100
AcDbEntity
  8
DD0
100
AcDbLine
 10
112.248222
 20
163.40213
 11
117.929733
 21
163.40213
  0
LINE
  5
62
100
AcDbEntity
  8
DD0
100
AcDbLine
 10
120.929733
 20
163.40213
 11
124.929733
 21
163.40213
  0
LINE
  5
63
100
AcDbEntity
  8
DD0
100
AcDbLine
 10
127.929733
 20
163.40213
 11
128.229733
 21
163.40213
  0
TEXT
  5
64
100
AcDbEntity
  8
DD0
100
AcDbText
 10
113.539889
 20
164.40213
 40
3.5
  1
４
 41
0.833333
  7
STANDARD
100
AcDbText
  0
ENDBLK
  5
65
100
AcDbEntity
  8
DD0
100
AcDbBlockEnd
  0
BLOCK
  5
68
100
AcDbEntity
  8
DD0
100
AcDbBlockBegin
  2
*D2
 70
    65
 10
0.0
 20
0.0
  0
POINT
  5
69
100
AcDbEntity
  8
DEFPOINTS
100
AcDbPoint
 10
163.62973
 20
169.714386
  0
POINT
  5
6A
100
AcDbEntity
  8
DEFPOINTS
100
AcDbPoint
 10
135.429733
 20
153.494095
  0
POINT
  5
6B
100
AcDbEntity
  8
DEFPOINTS
100
AcDbPoint
 10
163.62973
 20
126.344093
  0
LINE
  5
6C
100
AcDbEntity
  8
DD0
100
AcDbLine
 10
135.429733
 20
153.494095
 11
135.429733
 21
171.214386
  0
LINE
  5
6D
100
AcDbEntity
  8
DD0
100
AcDbLine
 10
163.62973
 20
126.344093
 11
163.62973
 21
171.214386
  0
INSERT
  5
6E
100
AcDbEntity
  8
DD0
100
AcDbBlockReference
  2
_OPEN
 10
163.62973
 20
169.714386
 41
3.0
 42
3.0
  0
INSERT
  5
6F
100
AcDbEntity
  8
DD0
100
AcDbBlockReference
  2
_OPEN
 10
135.429733
 20
169.714386
 41
3.0
 42
3.0
 50
180.0
  0
LINE
  5
70
100
AcDbEntity
  8
DD0
100
AcDbLine
 10
138.429733
 20
169.714386
 11
160.62973
 21
169.714386
  0
TEXT
  5
71
100
AcDbEntity
  8
DD0
100
AcDbText
 10
142.821391
 20
170.714386
 40
3.5
  1
２８．２
 41
0.833333
  7
STANDARD
100
AcDbText
  0
ENDBLK
  5
72
100
AcDbEntity
  8
DD0
100
AcDbBlockEnd
  0
BLOCK
  5
75
100
AcDbEntity
  8
DD0
100
AcDbBlockBegin
  2
*D3
 70
    65
 10
0.0
 20
0.0
  0
POINT
  5
76
100
AcDbEntity
  8
DEFPOINTS
100
AcDbPoint
 10
175.986618
 20
68.994095
  0
POINT
  5
77
100
AcDbEntity
  8
DEFPOINTS
100
AcDbPoint
 10
172.962799
 20
114.994095
  0
POINT
  5
78
100
AcDbEntity
  8
DEFPOINTS
100
AcDbPoint
 10
174.014832
 20
68.994095
  0
LINE
  5
79
100
AcDbEntity
  8
DD0
100
AcDbLine
 10
172.962799
 20
114.994095
 11
177.486618
 21
114.994095
  0
LINE
  5
7A
100
AcDbEntity
  8
DD0
100
AcDbLine
 10
174.014832
 20
68.994095
 11
177.486618
 21
68.994095
  0
INSERT
  5
7B
100
AcDbEntity
  8
DD0
100
AcDbBlockReference
  2
_OPEN
 10
175.986618
 20
68.994095
 41
3.0
 42
3.0
 50
270.0
  0
INSERT
  5
7C
100
AcDbEntity
  8
DD0
100
AcDbBlockReference
  2
_OPEN
 10
175.986618
 20
114.994095
 41
3.0
 42
3.0
 50
90.0
  0
LINE
  5
7D
100
AcDbEntity
  8
DD0
100
AcDbLine
 10
175.986618
 20
111.994095
 11
175.986618
 21
71.994095
  0
TEXT
  5
7E
100
AcDbEntity
  8
DD0
100
AcDbText
 10
174.986618
 20
88.785762
 40
3.5
  1
４６
 50
90.000003
 41
0.833333
  7
STANDARD
100
AcDbText
  0
ENDBLK
  5
7F
100
AcDbEntity
  8
DD0
100
AcDbBlockEnd
  0
BLOCK
  5
82
100
AcDbEntity
  8
DD0
100
AcDbBlockBegin
  2
*D4
 70
    65
 10
0.0
 20
0.0
  0
POINT
  5
83
100
AcDbEntity
  8
DEFPOINTS
100
AcDbPoint
 10
171.427765
 20
126.344093
  0
POINT
  5
84
100
AcDbEntity
  8
DEFPOINTS
100
AcDbPoint
 10
163.62973
 20
103.644089
  0
POINT
  5
85
100
AcDbEntity
  8
DEFPOINTS
100
AcDbPoint
 10
163.62973
 20
126.344093
  0
LINE
  5
86
100
AcDbEntity
  8
DD0
100
AcDbLine
 10
163.62973
 20
103.644089
 11
172.927765
 21
103.644089
  0
LINE
  5
87
100
AcDbEntity
  8
DD0
100
AcDbLine
 10
163.62973
 20
126.344093
 11
172.927765
 21
126.344093
  0
INSERT
  5
88
100
AcDbEntity
  8
DD0
100
AcDbBlockReference
  2
_OPEN
 10
171.427765
 20
126.344093
 41
3.0
 42
3.0
 50
90.0
  0
INSERT
  5
89
100
AcDbEntity
  8
DD0
100
AcDbBlockReference
  2
_OPEN
 10
171.427765
 20
103.644089
 41
3.0
 42
3.0
 50
270.0
  0
LINE
  5
8A
100
AcDbEntity
  8
DD0
100
AcDbLine
 10
171.427765
 20
106.644089
 11
171.427765
 21
123.344093
  0
TEXT
  5
8B
100
AcDbEntity
  8
DD0
100
AcDbText
 10
170.427765
 20
111.330226
 40
3.5
  1
２２．７
 50
90.000003
 41
0.833333
  7
STANDARD
100
AcDbText
  0
ENDBLK
  5
8C
100
AcDbEntity
  8
DD0
100
AcDbBlockEnd
  0
BLOCK
  5
91
100
AcDbEntity
  8
DD0
100
AcDbBlockBegin
  2
LEAD0
 70
     0
 10
0.0
 20
0.0
  0
CIRCLE
  5
92
100
AcDbEntity
  8
DD0
100
AcDbCircle
 10
153.54306
 20
147.013168
 40
5.0
  0
TEXT
  5
93
100
AcDbEntity
  8
DD0
100
AcDbText
 10
151.126393
 20
143.663168
 40
6.7
  1
１
 41
0.721393
  7
STANDARD
100
AcDbText
  0
ENDBLK
  5
94
100
AcDbEntity
  8
DD0
100
AcDbBlockEnd
  0
BLOCK
  5
96
100
AcDbEntity
  8
DD0
100
AcDbBlockBegin
  2
*D5
 70
    65
 10
0.0
 20
0.0
  0
POINT
  5
97
100
AcDbEntity
  8
DEFPOINTS
100
AcDbPoint
 10
171.42778
 20
80.344093
  0
POINT
  5
98
100
AcDbEntity
  8
DEFPOINTS
100
AcDbPoint
 10
163.62973
 20
57.644093
  0
POINT
  5
99
100
AcDbEntity
  8
DEFPOINTS
100
AcDbPoint
 10
163.62973
 20
80.344093
  0
LINE
  5
9A
100
AcDbEntity
  8
DD0
100
AcDbLine
 10
163.62973
 20
57.644093
 11
172.92778
 21
57.644093
  0
LINE
  5
9B
100
AcDbEntity
  8
DD0
100
AcDbLine
 10
163.62973
 20
80.344093
 11
172.92778
 21
80.344093
  0
INSERT
  5
9C
100
AcDbEntity
  8
DD0
100
AcDbBlockReference
  2
_OPEN
 10
171.42778
 20
80.344093
 41
3.0
 42
3.0
 50
90.0
  0
INSERT
  5
9D
100
AcDbEntity
  8
DD0
100
AcDbBlockReference
  2
_OPEN
 10
171.42778
 20
57.644093
 41
3.0
 42
3.0
 50
270.0
  0
LINE
  5
9E
100
AcDbEntity
  8
DD0
100
AcDbLine
 10
171.42778
 20
60.644093
 11
171.42778
 21
77.344093
  0
TEXT
  5
9F
100
AcDbEntity
  8
DD0
100
AcDbText
 10
170.42778
 20
65.771174
 40
3.5
  1
２２．７
 50
90.000003
 41
0.833333
  7
STANDARD
100
AcDbText
  0
ENDBLK
  5
A0
100
AcDbEntity
  8
DD0
100
AcDbBlockEnd
  0
BLOCK
  5
A5
100
AcDbEntity
  8
DD0
100
AcDbBlockBegin
  2
LEAD1
 70
     0
 10
0.0
 20
0.0
  0
CIRCLE
  5
A6
100
AcDbEntity
  8
DD0
100
AcDbCircle
 10
158.101913
 20
36.899372
 40
5.0
  0
TEXT
  5
A7
100
AcDbEntity
  8
DD0
100
AcDbText
 10
155.685246
 20
33.549372
 40
6.7
  1
２
 41
0.721393
  7
STANDARD
100
AcDbText
  0
ENDBLK
  5
A8
100
AcDbEntity
  8
DD0
100
AcDbBlockEnd
  0
BLOCK
  5
AA
100
AcDbEntity
  8
DD0
100
AcDbBlockBegin
  2
*D6
 70
    65
 10
0.0
 20
0.0
  0
POINT
  5
AB
100
AcDbEntity
  8
DEFPOINTS
100
AcDbPoint
 10
99.193871
 20
169.714371
  0
POINT
  5
AC
100
AcDbEntity
  8
DEFPOINTS
100
AcDbPoint
 10
25.193871
 20
141.494095
  0
POINT
  5
AD
100
AcDbEntity
  8
DEFPOINTS
100
AcDbPoint
 10
99.193871
 20
141.494095
  0
LINE
  5
AE
100
AcDbEntity
  8
DD0
100
AcDbLine
 10
25.193871
 20
141.494095
 11
25.193871
 21
171.214371
  0
LINE
  5
AF
100
AcDbEntity
  8
DD0
100
AcDbLine
 10
99.193871
 20
141.494095
 11
99.193871
 21
171.214371
  0
INSERT
  5
B0
100
AcDbEntity
  8
DD0
100
AcDbBlockReference
  2
_OPEN
 10
99.193871
 20
169.714371
 41
3.0
 42
3.0
  0
INSERT
  5
B1
100
AcDbEntity
  8
DD0
100
AcDbBlockReference
  2
_OPEN
 10
25.193871
 20
169.714371
 41
3.0
 42
3.0
 50
180.0
  0
LINE
  5
B2
100
AcDbEntity
  8
DD0
100
AcDbLine
 10
28.193871
 20
169.714371
 11
96.193871
 21
169.714371
  0
TEXT
  5
B3
100
AcDbEntity
  8
DD0
100
AcDbText
 10
58.985537
 20
170.714371
 40
3.5
  1
７４
 41
0.833333
  7
STANDARD
100
AcDbText
  0
ENDBLK
  5
B4
100
AcDbEntity
  8
DD0
100
AcDbBlockEnd
  0
BLOCK
  5
B7
100
AcDbEntity
  8
DD0
100
AcDbBlockBegin
  2
*D7
 70
    65
 10
0.0
 20
0.0
  0
POINT
  5
B8
100
AcDbEntity
  8
DEFPOINTS
100
AcDbPoint
 10
109.357269
 20
30.494091
  0
POINT
  5
B9
100
AcDbEntity
  8
DEFPOINTS
100
AcDbPoint
 10
87.193871
 20
153.494095
  0
POINT
  5
BA
100
AcDbEntity
  8
DEFPOINTS
100
AcDbPoint
 10
87.193871
 20
30.494091
  0
LINE
  5
BB
100
AcDbEntity
  8
DD0
100
AcDbLine
 10
87.193871
 20
153.494095
 11
110.857269
 21
153.494095
  0
LINE
  5
BC
100
AcDbEntity
  8
DD0
100
AcDbLine
 10
87.193871
 20
30.494091
 11
110.857269
 21
30.494091
  0
INSERT
  5
BD
100
AcDbEntity
  8
DD0
100
AcDbBlockReference
  2
_OPEN
 10
109.357269
 20
30.494091
 41
3.0
 42
3.0
 50
270.0
  0
INSERT
  5
BE
100
AcDbEntity
  8
DD0
100
AcDbBlockReference
  2
_OPEN
 10
109.357269
 20
153.494095
 41
3.0
 42
3.0
 50
90.0
  0
LINE
  5
BF
100
AcDbEntity
  8
DD0
100
AcDbLine
 10
109.357269
 20
150.494095
 11
109.357269
 21
33.494091
  0
TEXT
  5
C0
100
AcDbEntity
  8
DD0
100
AcDbText
 10
108.357269
 20
87.035762
 40
3.5
  1
１２３
 50
90.000003
 41
0.833333
  7
STANDARD
100
AcDbText
  0
ENDBLK
  5
C1
100
AcDbEntity
  8
DD0
100
AcDbBlockEnd
  0
BLOCK
  5
C4
100
AcDbEntity
  8
DD0
100
AcDbBlockBegin
  2
*D8
 70
    65
 10
0.0
 20
0.0
  0
POINT
  5
C5
100
AcDbEntity
  8
DEFPOINTS
100
AcDbPoint
 10
84.293869
 20
163.40213
  0
POINT
  5
C6
100
AcDbEntity
  8
DEFPOINTS
100
AcDbPoint
 10
40.093868
 20
132.194092
  0
POINT
  5
C7
100
AcDbEntity
  8
DEFPOINTS
100
AcDbPoint
 10
84.293869
 20
132.194092
  0
LINE
  5
C8
100
AcDbEntity
  8
DD0
100
AcDbLine
 10
40.093868
 20
132.194092
 11
40.093868
 21
164.90213
  0
LINE
  5
C9
100
AcDbEntity
  8
DD0
100
AcDbLine
 10
84.293869
 20
132.194092
 11
84.293869
 21
164.90213
  0
INSERT
  5
CA
100
AcDbEntity
  8
DD0
100
AcDbBlockReference
  2
_OPEN
 10
84.293869
 20
163.40213
 41
3.0
 42
3.0
  0
INSERT
  5
CB
100
AcDbEntity
  8
DD0
100
AcDbBlockReference
  2
_OPEN
 10
40.093868
 20
163.40213
 41
3.0
 42
3.0
 50
180.0
  0
LINE
  5
CC
100
AcDbEntity
  8
DD0
100
AcDbLine
 10
43.093868
 20
163.40213
 11
81.293869
 21
163.40213
  0
TEXT
  5
CD
100
AcDbEntity
  8
DD0
100
AcDbText
 10
55.485537
 20
164.40213
 40
3.5
  1
４４．２
 41
0.833333
  7
STANDARD
100
AcDbText
  0
ENDBLK
  5
CE
100
AcDbEntity
  8
DD0
100
AcDbBlockEnd
  0
BLOCK
  5
D3
100
AcDbEntity
  8
DD0
100
AcDbBlockBegin
  2
LEAD2
 70
     0
 10
0.0
 20
0.0
  0
CIRCLE
  5
D4
100
AcDbEntity
  8
DD0
100
AcDbCircle
 10
76.39328
 20
187.769669
 40
5.0
  0
TEXT
  5
D5
100
AcDbEntity
  8
DD0
100
AcDbText
 10
73.976613
 20
184.419669
 40
6.7
  1
４
 41
0.721393
  7
STANDARD
100
AcDbText
  0
ENDBLK
  5
D6
100
AcDbEntity
  8
DD0
100
AcDbBlockEnd
  0
BLOCK
  5
DA
100
AcDbEntity
  8
DD0
100
AcDbBlockBegin
  2
LEAD3
 70
     0
 10
0.0
 20
0.0
  0
CIRCLE
  5
DB
100
AcDbEntity
  8
DD0
100
AcDbCircle
 10
99.888885
 20
186.717621
 40
5.0
  0
TEXT
  5
DC
100
AcDbEntity
  8
DD0
100
AcDbText
 10
97.472219
 20
183.367621
 40
6.7
  1
３
 41
0.721393
  7
STANDARD
100
AcDbText
  0
ENDBLK
  5
DD
100
AcDbEntity
  8
DD0
100
AcDbBlockEnd
  0
BLOCK
  5
E1
100
AcDbEntity
  8
DD0
100
AcDbBlockBegin
  2
LEAD4
 70
     0
 10
0.0
 20
0.0
  0
CIRCLE
  5
E2
100
AcDbEntity
  8
DD0
100
AcDbCircle
 10
39.922462
 20
187.418991
 40
5.0
  0
TEXT
  5
E3
100
AcDbEntity
  8
DD0
100
AcDbText
 10
37.505795
 20
184.068991
 40
6.7
  1
５
 41
0.721393
  7
STANDARD
100
AcDbText
  0
ENDBLK
  5
E4
100
AcDbEntity
  8
DD0
100
AcDbBlockEnd
  0
ENDSEC
  0
SECTION
  2
ENTITIES
  0
DIMENSION
  5
57
100
AcDbEntity
  8
DD0
100
AcDbDimension
  2
*D0
 10
135.429733
 20
169.714386
 11
130.179733
 21
169.714386
  3
STANDARD
100
AcDbAlignedDimension
 13
124.929733
 23
145.494095
 14
135.429733
 24
153.494095
100
AcDbRotatedDimension
  0
DIMENSION
  5
66
100
AcDbEntity
  8
DD0
100
AcDbDimension
  2
*D1
 10
124.929733
 20
163.40213
 11
122.929733
 21
163.40213
  3
STANDARD
100
AcDbAlignedDimension
 13
120.929733
 23
137.194092
 14
124.929733
 24
145.494095
100
AcDbRotatedDimension
  0
DIMENSION
  5
73
100
AcDbEntity
  8
DD0
100
AcDbDimension
  2
*D2
 10
163.62973
 20
169.714386
 11
149.529732
 21
169.714386
  3
STANDARD
100
AcDbAlignedDimension
 13
135.429733
 23
153.494095
 14
163.62973
 24
126.344093
100
AcDbRotatedDimension
  0
DIMENSION
  5
80
100
AcDbEntity
  8
DD0
100
AcDbDimension
  2
*D3
 10
175.986618
 20
68.994095
 11
175.986618
 21
91.994095
  3
STANDARD
100
AcDbAlignedDimension
 13
172.962799
 23
114.994095
 14
174.014832
 24
68.994095
 50
90.0
100
AcDbRotatedDimension
  0
DIMENSION
  5
8D
100
AcDbEntity
  8
DD0
100
AcDbDimension
  2
*D4
 10
171.427765
 20
126.344093
 11
171.427765
 21
114.994091
  3
STANDARD
100
AcDbAlignedDimension
 13
163.62973
 23
103.644089
 14
163.62973
 24
126.344093
 50
90.0
100
AcDbRotatedDimension
  0
LEADER
  5
8E
100
AcDbEntity
  8
DD0
100
AcDbLeader
  3
LEADSTYL
 76
     2
 10
148.984207
 20
126.344093
 10
152.466125
 20
142.130524
212
152.466125
222
142.130524
340
8F
 77
     4
  0
INSERT
  5
8F
100
AcDbEntity
  8
DD0
100
AcDbBlockReference
  2
LEAD0
 10
0.0
 20
0.0
  0
DIMENSION
  5
A1
100
AcDbEntity
  8
DD0
100
AcDbDimension
  2
*D5
 10
171.42778
 20
80.344093
 11
171.42778
 21
68.994093
  3
STANDARD
100
AcDbAlignedDimension
 13
163.62973
 23
57.644093
 14
163.62973
 24
80.344093
 50
90.0
100
AcDbRotatedDimension
  0
LEADER
  5
A2
100
AcDbEntity
  8
DD0
100
AcDbLeader
  3
LEADSTYL
 76
     2
 10
151.088287
 20
57.644093
 10
156.500504
 20
41.635983
212
156.500504
222
41.635983
340
A3
 77
     4
  0
INSERT
  5
A3
100
AcDbEntity
  8
DD0
100
AcDbBlockReference
  2
LEAD1
 10
0.0
 20
0.0
  0
DIMENSION
  5
B5
100
AcDbEntity
  8
DD0
100
AcDbDimension
  2
*D6
 10
99.193871
 20
169.714371
 11
62.193871
 21
169.714371
  3
STANDARD
100
AcDbAlignedDimension
 13
25.193871
 23
141.494095
 14
99.193871
 24
141.494095
100
AcDbRotatedDimension
  0
DIMENSION
  5
C2
100
AcDbEntity
  8
DD0
100
AcDbDimension
  2
*D7
 10
109.357269
 20
30.494091
 11
109.357269
 21
91.994093
  3
STANDARD
100
AcDbAlignedDimension
 13
87.193871
 23
153.494095
 14
87.193871
 24
30.494091
 50
90.0
100
AcDbRotatedDimension
  0
DIMENSION
  5
CF
100
AcDbEntity
  8
DD0
100
AcDbDimension
  2
*D8
 10
84.293869
 20
163.40213
 11
62.193869
 21
163.40213
  3
STANDARD
100
AcDbAlignedDimension
 13
40.093868
 23
132.194092
 14
84.293869
 24
132.194092
100
AcDbRotatedDimension
  0
LEADER
  5
D0
100
AcDbEntity
  8
DD0
100
AcDbLeader
  3
LEADSTYL
 76
     2
 10
69.028976
 20
135.194092
 10
75.699699
 20
182.818008
212
75.699699
222
182.818008
340
D1
 77
     4
  0
INSERT
  5
D1
100
AcDbEntity
  8
DD0
100
AcDbBlockReference
  2
LEAD2
 10
0.0
 20
0.0
  0
LEADER
  5
D7
100
AcDbEntity
  8
DD0
100
AcDbLeader
  3
LEADSTYL
 76
     2
 10
87.947906
 20
153.470383
 10
98.198799
 20
182.011917
212
98.198799
222
182.011917
340
D8
 77
     4
  0
INSERT
  5
D8
100
AcDbEntity
  8
DD0
100
AcDbBlockReference
  2
LEAD3
 10
0.0
 20
0.0
  0
LEADER
  5
DE
100
AcDbEntity
  8
DD0
100
AcDbLeader
  3
LEADSTYL
 76
     2
 10
58.193871
 20
114.194092
 10
41.132973
 20
182.567734
212
41.132973
222
182.567734
340
DF
 77
     4
  0
INSERT
  5
DF
100
AcDbEntity
  8
DD0
100
AcDbBlockReference
  2
LEAD4
 10
0.0
 20
0.0
  0
LEADER
  5
E5
100
AcDbEntity
  8
DD0
100
AcDbLeader
  3
LEADSTYL
 76
     3
 10
220.817184
 20
71.094322
 10
219.701248
 20
77.853378
 10
208.101242
 20
77.853378
340
E6
 77
     4
  0
TEXT
  5
E6
100
AcDbEntity
  8
DD0
100
AcDbText
 10
209.367904
 20
78.853378
 40
3.2
  1
電圧側
 41
0.833333
  7
STANDARD
100
AcDbText
  0
LEADER
  5
E7
100
AcDbEntity
  8
DD0
100
AcDbLeader
  3
LEADSTYL
 76
     3
 10
223.9505
 20
131.536865
 10
222.834564
 20
138.295929
 10
211.234558
 20
138.295929
340
E8
 77
     4
  0
TEXT
  5
E8
100
AcDbEntity
  8
DD0
100
AcDbText
 10
212.50122
 20
139.295929
 40
3.2
  1
電圧側
 41
0.833333
  7
STANDARD
100
AcDbText
  0
LEADER
  5
E9
100
AcDbEntity
  8
DD0
100
AcDbLeader
  3
LEADSTYL
 76
     3
 10
266.248108
 20
61.891685
 10
280.230133
 20
55.789234
 10
196.720123
 20
55.789234
340
EA
 77
     4
  0
TEXT
  5
EA
100
AcDbEntity
  8
DD0
100
AcDbText
 10
198.771296
 20
56.018005
 40
3.5
  1
スイッチボックス内でジョイントしてください。
 41
0.833333
  7
STANDARD
100
AcDbText
  0
LINE
  5
EB
100
AcDbEntity
  8
M0
 62
     7
100
AcDbLine
 10
285.374807
 20
9.290087
 11
285.374807
 21
13.290087
  0
LINE
  5
EC
100
AcDbEntity
  8
M0
 62
     7
100
AcDbLine
 10
285.374807
 20
198.290087
 11
15.374807
 21
198.290087
  0
LINE
  5
ED
100
AcDbEntity
  8
M0
 62
     7
100
AcDbLine
 10
15.374807
 20
198.290087
 11
15.374807
 21
13.290087
  0
LINE
  5
EE
100
AcDbEntity
  8
M0
 62
     7
100
AcDbLine
 10
15.374807
 20
13.290087
 11
285.374807
 21
13.290087
  0
LINE
  5
EF
100
AcDbEntity
  8
M0
 62
     7
100
AcDbLine
 10
285.374807
 20
9.290087
 11
260.374807
 21
9.290087
  0
LINE
  5
F0
100
AcDbEntity
  8
M0
 62
     7
100
AcDbLine
 10
270.374807
 20
9.290087
 11
270.374807
 21
20.290087
  0
LINE
  5
F1
100
AcDbEntity
  8
M0
 62
     7
100
AcDbLine
 10
260.374807
 20
9.290087
 11
260.374807
 21
20.290087
  0
LINE
  5
F2
100
AcDbEntity
  8
M0
 62
     7
100
AcDbLine
 10
285.374807
 20
20.290087
 11
220.374807
 21
20.290087
  0
LINE
  5
F3
100
AcDbEntity
  8
M0
 62
     7
100
AcDbLine
 10
285.374807
 20
35.290087
 11
220.374807
 21
35.290087
  0
LINE
  5
F4
100
AcDbEntity
  8
M0
 62
     7
100
AcDbLine
 10
285.374807
 20
40.290087
 11
195.374807
 21
40.290087
  0
LINE
  5
F5
100
AcDbEntity
  8
M0
 62
     7
100
AcDbLine
 10
285.374807
 20
45.290087
 11
195.374807
 21
45.290087
  0
LINE
  5
F6
100
AcDbEntity
  8
M0
 62
     7
100
AcDbLine
 10
195.374807
 20
45.290087
 11
195.374807
 21
13.290087
  0
LINE
  5
F7
100
AcDbEntity
  8
M0
 62
     7
100
AcDbLine
 10
220.374807
 20
13.290087
 11
220.374807
 21
45.290087
  0
LINE
  5
F8
100
AcDbEntity
  8
M0
 62
     7
100
AcDbLine
 10
230.374807
 20
20.290087
 11
230.374807
 21
45.290087
  0
LINE
  5
F9
100
AcDbEntity
  8
M0
 62
     7
100
AcDbLine
 10
260.374807
 20
40.290087
 11
260.374807
 21
45.290087
  0
LINE
  5
FA
100
AcDbEntity
  8
M0
 62
     7
100
AcDbLine
 10
270.374807
 20
40.290087
 11
270.374807
 21
45.290087
  0
LINE
  5
FB
100
AcDbEntity
  8
M0
 62
     7
100
AcDbLine
 10
285.374807
 20
13.290087
 11
285.374807
 21
198.290087
  0
TEXT
  5
FC
100
AcDbEntity
  8
M0
 62
     7
100
AcDbText
 10
221.499807
 20
41.540087
 40
2.5
  1
納　先
 41
0.9
  7
STANDARD
100
AcDbText
  0
TEXT
  5
FD
100
AcDbEntity
  8
M0
 62
     7
100
AcDbText
 10
221.499807
 20
36.540087
 40
2.5
  1
名　称
 41
0.9
  7
STANDARD
100
AcDbText
  0
TEXT
  5
FE
100
AcDbEntity
  8
M0
 62
     7
100
AcDbText
 10
261.499807
 20
41.540087
 40
2.5
  1
数　量
 41
0.9
  7
STANDARD
100
AcDbText
  0
TEXT
  5
FF
100
AcDbEntity
  8
M0
 62
     7
100
AcDbText
 10
260.58314
 20
15.540087
 40
2.5
  1
作成日付
 41
0.833333
  7
STANDARD
100
AcDbText
  0
TEXT
  5
100
100
AcDbEntity
  8
M0
 62
     7
100
AcDbText
 10
261.08314
 20
10.040087
 40
2.5
  1
改訂
 41
0.833333
  7
STANDARD
100
AcDbText
  0
TEXT
  5
101
100
AcDbEntity
  8
M0
 62
     7
100
AcDbText
 10
265.999807
 20
10.040087
 40
2.5
  1
Ｎｏ．
 41
0.5
  7
STANDARD
100
AcDbText
  0
TEXT
  5
102
100
AcDbEntity
  8
M0
 62
     7
100
AcDbText
 10
276.95814
 20
10.040087
 40
2.5
  1
０
 41
0.733333
  7
STANDARD
100
AcDbText
  0
TEXT
  5
103
100
AcDbEntity
  8
M0
 62
     7
100
AcDbText
 10
195.58314
 20
46.290087
 40
2.5
  1
●　本仕様は改良のため変更することがあります。
 41
0.833333
  7
STANDARD
100
AcDbText
  0
TEXT
  5
104
100
AcDbEntity
  8
M0
 62
     7
100
AcDbText
 10
197.499807
 20
41.540087
 40
2.5
  1
　御確認印欄
 41
0.9
  7
STANDARD
100
AcDbText
  0
TEXT
  5
105
100
AcDbEntity
  8
M0
 62
     7
100
AcDbText
 10
270.499807
 20
15.540087
 40
2.5
  1
２００６．０６．２０
 41
0.5
  7
STANDARD
100
AcDbText
  0
LINE
  5
106
100
AcDbEntity
  8
M0
 62
     7
100
AcDbLine
 10
285.374807
 20
27.790087
 11
220.374807
 21
27.790087
  0
LINE
  5
107
100
AcDbEntity
  8
M0
 62
     7
100
AcDbLine
 10
260.374807
 20
27.790087
 11
260.374807
 21
35.290087
  0
LINE
  5
108
100
AcDbEntity
  8
M0
 62
     7
100
AcDbLine
 10
270.374807
 20
27.790087
 11
270.374807
 21
35.290087
  0
TEXT
  5
109
100
AcDbEntity
  8
M0
 62
     7
100
AcDbText
 10
221.499807
 20
29.330321
 40
2.5
  1
形　式
 41
0.9
  7
STANDARD
100
AcDbText
  0
TEXT
  5
10A
100
AcDbEntity
  8
M0
 62
     7
100
AcDbText
 10
261.791474
 20
29.330321
 40
2.5
  1
商品番号
 41
0.666667
  7
STANDARD
100
AcDbText
  0
TEXT
  5
10B
100
AcDbEntity
  8
M0
 62
     7
100
AcDbText
 10
221.541474
 20
22.308667
 40
2.5
  1
図面番号
 41
0.666667
  7
STANDARD
100
AcDbText
  0
TEXT
  5
10C
100
AcDbEntity
  8
M0
 62
     7
100
AcDbText
 10
232.538168
 20
22.308667
 40
3.0
  1
４ＴＴ９０３７２
 41
0.75
  7
STANDARD
100
AcDbText
  0
TEXT
  5
10D
100
AcDbEntity
  8
M0
 62
     7
100
AcDbText
 10
231.87232
 20
36.540087
 40
2.5
  1
日立換気扇用速調スイッチ
 41
0.9
  7
STANDARD
100
AcDbText
  0
TEXT
  5
10E
100
AcDbEntity
  8
M0
 62
     7
100
AcDbText
 10
232.192083
 20
29.330321
 40
3.0
  1
ＶＰ－ＷＶＳ
 41
0.833333
  7
STANDARD
100
AcDbText
  0
LINE
  5
10F
100
AcDbEntity
  8
M0
 62
     7
100
AcDbLine
 10
285.374807
 20
193.290087
 11
195.374807
 21
193.290087
  0
LINE
  5
110
100
AcDbEntity
  8
M0
 62
     7
100
AcDbLine
 10
285.374807
 20
188.290087
 11
195.374807
 21
188.290087
  0
LINE
  5
111
100
AcDbEntity
  8
M0
 62
     7
100
AcDbLine
 10
285.374807
 20
183.290087
 11
195.374807
 21
183.290087
  0
LINE
  5
112
100
AcDbEntity
  8
M0
 62
     7
100
AcDbLine
 10
285.374807
 20
178.290087
 11
195.374807
 21
178.290087
  0
TEXT
  5
113
100
AcDbEntity
  8
M0
 62
     7
100
AcDbText
 10
213.041474
 20
193.790087
 40
4.0
  1
主要部品一覧表
 41
1.666667
  7
STANDARD
100
AcDbText
  0
TEXT
  5
114
100
AcDbEntity
  8
M0
 62
     7
100
AcDbText
 10
195.899801
 20
189.540087
 40
2.5
  1
品番
 41
0.9
  7
STANDARD
100
AcDbText
  0
TEXT
  5
115
100
AcDbEntity
  8
M0
 62
     7
100
AcDbText
 10
197.191468
 20
184.540087
 40
3.0
  1
１
 41
0.888889
  7
STANDARD
100
AcDbText
  0
TEXT
  5
116
100
AcDbEntity
  8
M0
 62
     7
100
AcDbText
 10
255.791474
 20
189.540087
 40
2.5
  1
色仕様・その他
 41
1.066667
  7
STANDARD
100
AcDbText
  0
TEXT
  5
117
100
AcDbEntity
  8
M0
 62
     7
100
AcDbText
 10
205.999807
 20
189.540087
 40
2.5
  1
部　品　名
 41
0.9
  7
STANDARD
100
AcDbText
  0
TEXT
  5
118
100
AcDbEntity
  8
M0
 62
     7
100
AcDbText
 10
229.249807
 20
189.540087
 40
2.5
  1
材　　　質
 41
0.9
  7
STANDARD
100
AcDbText
  0
TEXT
  5
119
100
AcDbEntity
  8
M0
 62
     7
100
AcDbText
 10
197.191468
 20
179.540087
 40
3.0
  1
２
 41
0.888889
  7
STANDARD
100
AcDbText
  0
TEXT
  5
11A
100
AcDbEntity
  8
M0
 62
     7
100
AcDbText
 10
197.191468
 20
174.540087
 40
3.0
  1
３
 41
0.888889
  7
STANDARD
100
AcDbText
  0
LINE
  5
11B
100
AcDbEntity
  8
M0
 62
     7
100
AcDbLine
 10
195.374807
 20
163.290087
 11
195.374807
 21
198.290087
  0
LINE
  5
11C
100
AcDbEntity
  8
M0
 62
     7
100
AcDbLine
 10
201.374807
 20
193.290087
 11
201.374807
 21
163.290087
  0
LINE
  5
11D
100
AcDbEntity
  8
M0
 62
     7
100
AcDbLine
 10
223.374807
 20
163.290087
 11
223.374807
 21
193.290087
  0
LINE
  5
11E
100
AcDbEntity
  8
M0
 62
     7
100
AcDbLine
 10
248.374807
 20
163.290087
 11
248.374807
 21
193.290087
  0
LINE
  5
11F
100
AcDbEntity
  8
M0
 62
     7
100
AcDbLine
 10
285.374807
 20
173.290087
 11
195.374807
 21
173.290087
  0
LINE
  5
120
100
AcDbEntity
  8
M0
 62
     7
100
AcDbLine
 10
285.374807
 20
168.290087
 11
195.374807
 21
168.290087
  0
TEXT
  5
121
100
AcDbEntity
  8
M0
 62
     7
100
AcDbText
 10
197.191468
 20
169.540087
 40
3.0
  1
４
 41
0.888889
  7
STANDARD
100
AcDbText
  0
TEXT
  5
122
100
AcDbEntity
  8
M0
 62
     7
100
AcDbText
 10
273.08314
 20
29.330321
 40
2.5
  1
９９６５
 41
0.833333
  7
STANDARD
100
AcDbText
  0
LINE
  5
123
100
AcDbEntity
  8
M0
 62
     7
100
AcDbLine
 10
195.374807
 20
163.290087
 11
285.374807
 21
163.290087
  0
TEXT
  5
124
100
AcDbEntity
  8
M0
 62
     7
100
AcDbText
 10
202.499807
 20
184.540087
 40
3.0
  1
片切スイッチ
 41
0.75
  7
STANDARD
100
AcDbText
  0
TEXT
  5
125
100
AcDbEntity
  8
M0
 62
     7
100
AcDbText
 10
202.48314
 20
179.540087
 40
3.0
  1
３路スイッチ
 41
0.694444
  7
STANDARD
100
AcDbText
  0
TEXT
  5
126
100
AcDbEntity
  8
M0
 62
     7
100
AcDbText
 10
202.491474
 20
174.540087
 40
3.0
  1
スイッチプレート
 41
0.388889
  7
STANDARD
100
AcDbText
  0
TEXT
  5
127
100
AcDbEntity
  8
M0
 62
     7
100
AcDbText
 10
202.60814
 20
169.540087
 40
3.0
  1
操作板
 41
0.777778
  7
STANDARD
100
AcDbText
  0
TEXT
  5
128
100
AcDbEntity
  8
M0
 62
     7
100
AcDbText
 10
249.474807
 20
184.540087
 40
3.0
  1
４Ａ　３００Ｖ
 41
0.666667
  7
STANDARD
100
AcDbText
  0
TEXT
  5
129
100
AcDbEntity
  8
M0
 62
     7
100
AcDbText
 10
249.474807
 20
179.540087
 40
3.0
  1
４Ａ　３００Ｖ
 41
0.666667
  7
STANDARD
100
AcDbText
  0
TEXT
  5
12A
100
AcDbEntity
  8
M0
 62
     7
100
AcDbText
 10
197.191468
 20
164.540087
 40
3.0
  1
５
 41
0.888889
  7
STANDARD
100
AcDbText
  0
TEXT
  5
12B
100
AcDbEntity
  8
M0
 62
     7
100
AcDbText
 10
224.50814
 20
169.540087
 40
3.0
  1
合成樹脂
 41
0.777778
  7
STANDARD
100
AcDbText
  0
TEXT
  5
12C
100
AcDbEntity
  8
M0
 62
     7
100
AcDbText
 10
202.491474
 20
164.540087
 40
3.0
  1
パイロットランプ
 41
0.388889
  7
STANDARD
100
AcDbText
  0
TEXT
  5
12D
100
AcDbEntity
  8
M0
 62
     7
100
AcDbText
 10
224.50814
 20
174.540087
 40
3.0
  1
合成樹脂
 41
0.777778
  7
STANDARD
100
AcDbText
  0
TEXT
  5
12E
100
AcDbEntity
  8
M0
 62
     7
100
AcDbText
 10
249.474807
 20
174.540087
 40
3.0
  1
ホワイト
 41
0.666667
  7
STANDARD
100
AcDbText
  0
TEXT
  5
12F
100
AcDbEntity
  8
M0
 62
     7
100
AcDbText
 10
249.474807
 20
169.540087
 40
3.0
  1
ホワイト
 41
0.666667
  7
STANDARD
100
AcDbText
  0
TEXT
  5
130
100
AcDbEntity
  8
M0
 62
     7
100
AcDbText
 10
249.474807
 20
164.540087
 40
3.0
  1
オンライト（緑）
 41
0.666667
  7
STANDARD
100
AcDbText
  0
TEXT
  5
131
100
AcDbEntity
  8
M0
 62
     7
100
AcDbText
 10
220.85761
 20
15.540087
 40
3.0
  1
日立アプライアンス株式会社
 41
0.833333
  7
STANDARD
100
AcDbText
  0
LINE
  5
132
100
AcDbEntity
  8
M0
100
AcDbLine
 10
135.429734
 20
30.494092
 11
135.429734
 21
153.494092
  0
LINE
  5
133
100
AcDbEntity
  8
M0
100
AcDbLine
 10
135.429734
 20
153.494092
 11
132.929734
 21
153.494092
  0
LINE
  5
134
100
AcDbEntity
  8
M0
100
AcDbLine
 10
124.929734
 20
145.494092
 11
124.929734
 21
38.494092
  0
LINE
  5
135
100
AcDbEntity
  8
M0
100
AcDbLine
 10
132.929734
 20
30.494092
 11
135.429734
 21
30.494092
  0
LINE
  5
136
100
AcDbEntity
  8
M0
  6
DASHDOT
100
AcDbLine
 10
119.929734
 20
91.994092
 11
168.403944
 21
91.994092
  0
LINE
  5
137
100
AcDbEntity
  8
M0
100
AcDbLine
 10
120.929734
 20
92.994092
 11
124.929734
 21
92.994092
  0
LINE
  5
138
100
AcDbEntity
  8
M0
100
AcDbLine
 10
124.929734
 20
137.194092
 11
120.929734
 21
137.194092
  0
LINE
  5
139
100
AcDbEntity
  8
M0
100
AcDbLine
 10
124.929734
 20
90.994092
 11
120.929734
 21
90.994092
  0
LINE
  5
13A
100
AcDbEntity
  8
M0
100
AcDbLine
 10
124.929734
 20
46.794092
 11
120.929734
 21
46.794092
  0
LINE
  5
13B
100
AcDbEntity
  8
M0
100
AcDbLine
 10
120.929734
 20
137.194092
 11
120.929734
 21
92.994092
  0
LINE
  5
13C
100
AcDbEntity
  8
M0
100
AcDbLine
 10
120.929734
 20
90.994092
 11
120.929734
 21
46.794092
  0
LINE
  5
13D
100
AcDbEntity
  8
M0
100
AcDbLine
 10
128.929734
 20
146.920124
 11
128.929734
 21
36.455666
  0
ARC
  5
13E
100
AcDbEntity
  8
M0
100
AcDbCircle
 10
132.929734
 20
145.494092
 40
8.0
100
AcDbArc
 50
90.0
 51
180.0
  0
ARC
  5
13F
100
AcDbEntity
  8
M0
100
AcDbCircle
 10
132.929734
 20
38.494092
 40
8.0
100
AcDbArc
 50
180.0
 51
270.0
  0
LINE
  5
140
100
AcDbEntity
  8
M0
100
AcDbLine
 10
143.429734
 20
126.994092
 11
143.429734
 21
56.994092
  0
LINE
  5
141
100
AcDbEntity
  8
M0
100
AcDbLine
 10
135.429734
 20
126.994092
 11
143.429734
 21
126.994092
  0
LINE
  5
142
100
AcDbEntity
  8
M0
100
AcDbLine
 10
135.429734
 20
56.994092
 11
143.429734
 21
56.994092
  0
LINE
  5
143
100
AcDbEntity
  8
M0
100
AcDbLine
 10
163.629734
 20
126.344092
 11
163.629734
 21
103.644092
  0
LINE
  5
144
100
AcDbEntity
  8
M0
  6
DASHDOT
100
AcDbLine
 10
112.645693
 20
114.994092
 11
172.962795
 21
114.994092
  0
LINE
  5
145
100
AcDbEntity
  8
M0
  6
DASHDOT
100
AcDbLine
 10
113.347055
 20
68.994092
 11
174.014837
 21
68.994092
  0
LINE
  5
146
100
AcDbEntity
  8
M0
100
AcDbLine
 10
143.429734
 20
126.344092
 11
163.629734
 21
126.344092
  0
LINE
  5
147
100
AcDbEntity
  8
M0
100
AcDbLine
 10
143.429734
 20
103.644092
 11
163.629734
 21
103.644092
  0
LINE
  5
148
100
AcDbEntity
  8
M0
100
AcDbLine
 10
143.429734
 20
80.344092
 11
163.629734
 21
80.344092
  0
LINE
  5
149
100
AcDbEntity
  8
M0
100
AcDbLine
 10
143.429734
 20
57.644092
 11
163.629734
 21
57.644092
  0
LINE
  5
14A
100
AcDbEntity
  8
M0
100
AcDbLine
 10
163.629734
 20
80.344092
 11
163.629734
 21
57.644092
  0
LINE
  5
14B
100
AcDbEntity
  8
M0
100
AcDbLine
 10
99.19387
 20
42.494092
 11
99.19387
 21
141.494092
  0
LINE
  5
14C
100
AcDbEntity
  8
M0
100
AcDbLine
 10
87.19387
 20
153.494092
 11
37.19387
 21
153.494092
  0
LINE
  5
14D
100
AcDbEntity
  8
M0
100
AcDbLine
 10
25.19387
 20
141.494092
 11
25.19387
 21
42.494092
  0
LINE
  5
14E
100
AcDbEntity
  8
M0
100
AcDbLine
 10
37.19387
 20
30.494092
 11
87.19387
 21
30.494092
  0
LINE
  5
14F
100
AcDbEntity
  8
M0
  6
DASHDOT
100
AcDbLine
 10
20.19387
 20
91.994092
 11
104.19387
 21
91.994092
  0
LINE
  5
150
100
AcDbEntity
  8
M0
  6
DASHDOT
100
AcDbLine
 10
62.19387
 20
25.494092
 11
62.19387
 21
158.494092
  0
LINE
  5
151
100
AcDbEntity
  8
M0
100
AcDbLine
 10
44.09387
 20
136.194092
 11
80.29387
 21
136.194092
  0
LINE
  5
152
100
AcDbEntity
  8
M0
100
AcDbLine
 10
44.09387
 20
47.794092
 11
80.29387
 21
47.794092
  0
LINE
  5
153
100
AcDbEntity
  8
M0
100
AcDbLine
 10
40.09387
 20
132.194092
 11
40.09387
 21
51.794092
  0
LINE
  5
154
100
AcDbEntity
  8
M0
100
AcDbLine
 10
84.29387
 20
132.194092
 11
84.29387
 21
51.794092
  0
LINE
  5
155
100
AcDbEntity
  8
M0
100
AcDbLine
 10
83.29387
 20
132.194092
 11
83.29387
 21
95.994092
  0
LINE
  5
156
100
AcDbEntity
  8
M0
100
AcDbLine
 10
41.09387
 20
132.194092
 11
41.09387
 21
95.994092
  0
LINE
  5
157
100
AcDbEntity
  8
M0
100
AcDbLine
 10
44.09387
 20
48.794092
 11
80.29387
 21
48.794092
  0
LINE
  5
158
100
AcDbEntity
  8
M0
100
AcDbLine
 10
44.09387
 20
135.194092
 11
80.29387
 21
135.194092
  0
LINE
  5
159
100
AcDbEntity
  8
M0
100
AcDbLine
 10
81.79387
 20
131.694092
 11
81.79387
 21
96.494092
  0
LINE
  5
15A
100
AcDbEntity
  8
M0
100
AcDbLine
 10
42.59387
 20
131.694092
 11
42.59387
 21
96.494092
  0
LINE
  5
15B
100
AcDbEntity
  8
M0
100
AcDbLine
 10
44.59387
 20
50.294092
 11
79.79387
 21
50.294092
  0
LINE
  5
15C
100
AcDbEntity
  8
M0
100
AcDbLine
 10
44.59387
 20
133.694092
 11
79.79387
 21
133.694092
  0
LINE
  5
15D
100
AcDbEntity
  8
M0
100
AcDbLine
 10
44.09387
 20
90.994092
 11
80.29387
 21
90.994092
  0
LINE
  5
15E
100
AcDbEntity
  8
M0
100
AcDbLine
 10
44.09387
 20
92.994092
 11
80.29387
 21
92.994092
  0
LINE
  5
15F
100
AcDbEntity
  8
M0
100
AcDbLine
 10
44.59387
 20
94.494092
 11
79.79387
 21
94.494092
  0
LINE
  5
160
100
AcDbEntity
  8
M0
100
AcDbLine
 10
44.59387
 20
89.494092
 11
79.79387
 21
89.494092
  0
ARC
  5
161
100
AcDbEntity
  8
M0
100
AcDbCircle
 10
79.79387
 20
131.694092
 40
2.0
100
AcDbArc
 50
0.0
 51
90.0
  0
ARC
  5
162
100
AcDbEntity
  8
M0
100
AcDbCircle
 10
44.59387
 20
131.694092
 40
2.0
100
AcDbArc
 50
90.0
 51
180.0
  0
ARC
  5
163
100
AcDbEntity
  8
M0
100
AcDbCircle
 10
44.59387
 20
96.494092
 40
2.0
100
AcDbArc
 50
180.0
 51
270.0
  0
ARC
  5
164
100
AcDbEntity
  8
M0
100
AcDbCircle
 10
79.79387
 20
96.494092
 40
2.0
100
AcDbArc
 50
270.0
 51
360.0
  0
ARC
  5
165
100
AcDbEntity
  8
M0
100
AcDbCircle
 10
80.29387
 20
132.194092
 40
3.0
100
AcDbArc
 50
0.0
 51
90.0
  0
ARC
  5
166
100
AcDbEntity
  8
M0
100
AcDbCircle
 10
44.09387
 20
132.194092
 40
3.0
100
AcDbArc
 50
90.0
 51
180.0
  0
ARC
  5
167
100
AcDbEntity
  8
M0
100
AcDbCircle
 10
44.09387
 20
95.994092
 40
3.0
100
AcDbArc
 50
180.0
 51
270.0
  0
ARC
  5
168
100
AcDbEntity
  8
M0
100
AcDbCircle
 10
80.29387
 20
95.994092
 40
3.0
100
AcDbArc
 50
270.0
 51
360.0
  0
ARC
  5
169
100
AcDbEntity
  8
M0
100
AcDbCircle
 10
44.09387
 20
132.194092
 40
4.0
100
AcDbArc
 50
90.0
 51
180.0
  0
ARC
  5
16A
100
AcDbEntity
  8
M0
100
AcDbCircle
 10
80.29387
 20
132.194092
 40
4.0
100
AcDbArc
 50
0.0
 51
90.0
  0
LINE
  5
16B
100
AcDbEntity
  8
M0
100
AcDbLine
 10
41.09387
 20
87.994092
 11
41.09387
 21
51.794092
  0
LINE
  5
16C
100
AcDbEntity
  8
M0
100
AcDbLine
 10
83.29387
 20
87.994092
 11
83.29387
 21
51.794092
  0
LINE
  5
16D
100
AcDbEntity
  8
M0
100
AcDbLine
 10
42.59387
 20
87.494092
 11
42.59387
 21
52.294092
  0
LINE
  5
16E
100
AcDbEntity
  8
M0
100
AcDbLine
 10
81.79387
 20
87.494092
 11
81.79387
 21
52.294092
  0
ARC
  5
16F
100
AcDbEntity
  8
M0
100
AcDbCircle
 10
44.59387
 20
87.494092
 40
2.0
100
AcDbArc
 50
90.0
 51
180.0
  0
ARC
  5
170
100
AcDbEntity
  8
M0
100
AcDbCircle
 10
79.79387
 20
87.494092
 40
2.0
100
AcDbArc
 50
0.0
 51
90.0
  0
ARC
  5
171
100
AcDbEntity
  8
M0
100
AcDbCircle
 10
79.79387
 20
52.294092
 40
2.0
100
AcDbArc
 50
270.0
 51
360.0
  0
ARC
  5
172
100
AcDbEntity
  8
M0
100
AcDbCircle
 10
44.59387
 20
52.294092
 40
2.0
100
AcDbArc
 50
180.0
 51
270.0
  0
ARC
  5
173
100
AcDbEntity
  8
M0
100
AcDbCircle
 10
44.09387
 20
87.994092
 40
3.0
100
AcDbArc
 50
90.0
 51
180.0
  0
ARC
  5
174
100
AcDbEntity
  8
M0
100
AcDbCircle
 10
44.09387
 20
51.794092
 40
3.0
100
AcDbArc
 50
180.0
 51
270.0
  0
ARC
  5
175
100
AcDbEntity
  8
M0
100
AcDbCircle
 10
80.29387
 20
51.794092
 40
3.0
100
AcDbArc
 50
270.0
 51
360.0
  0
ARC
  5
176
100
AcDbEntity
  8
M0
100
AcDbCircle
 10
44.09387
 20
51.794092
 40
4.0
100
AcDbArc
 50
180.0
 51
270.0
  0
ARC
  5
177
100
AcDbEntity
  8
M0
100
AcDbCircle
 10
80.29387
 20
51.794092
 40
4.0
100
AcDbArc
 50
270.0
 51
360.0
  0
ARC
  5
178
100
AcDbEntity
  8
M0
100
AcDbCircle
 10
80.29387
 20
87.994092
 40
3.0
100
AcDbArc
 50
0.0
 51
90.0
  0
LINE
  5
179
100
AcDbEntity
  8
M0
100
AcDbLine
 10
32.09387
 20
138.194092
 11
32.09387
 21
45.794092
  0
LINE
  5
17A
100
AcDbEntity
  8
M0
100
AcDbLine
 10
92.29387
 20
138.194092
 11
92.29387
 21
45.794092
  0
LINE
  5
17B
100
AcDbEntity
  8
M0
100
AcDbLine
 10
38.09387
 20
144.194092
 11
86.29387
 21
144.194092
  0
LINE
  5
17C
100
AcDbEntity
  8
M0
100
AcDbLine
 10
38.09387
 20
39.794092
 11
86.29387
 21
39.794092
  0
ARC
  5
17D
100
AcDbEntity
  8
M0
100
AcDbCircle
 10
38.09387
 20
138.194092
 40
6.0
100
AcDbArc
 50
90.0
 51
180.0
  0
ARC
  5
17E
100
AcDbEntity
  8
M0
100
AcDbCircle
 10
38.09387
 20
45.794092
 40
6.0
100
AcDbArc
 50
180.0
 51
270.0
  0
ARC
  5
17F
100
AcDbEntity
  8
M0
100
AcDbCircle
 10
86.29387
 20
45.794092
 40
6.0
100
AcDbArc
 50
270.0
 51
360.0
  0
ARC
  5
180
100
AcDbEntity
  8
M0
100
AcDbCircle
 10
86.29387
 20
138.194092
 40
6.0
100
AcDbArc
 50
0.0
 51
90.0
  0
LINE
  5
181
100
AcDbEntity
  8
M0
100
AcDbLine
 10
38.09387
 20
133.194092
 11
38.09387
 21
50.794092
  0
LINE
  5
182
100
AcDbEntity
  8
M0
100
AcDbLine
 10
86.29387
 20
133.194092
 11
86.29387
 21
50.794092
  0
LINE
  5
183
100
AcDbEntity
  8
M0
100
AcDbLine
 10
43.09387
 20
138.194092
 11
81.29387
 21
138.194092
  0
LINE
  5
184
100
AcDbEntity
  8
M0
100
AcDbLine
 10
43.09387
 20
45.794092
 11
81.29387
 21
45.794092
  0
ARC
  5
185
100
AcDbEntity
  8
M0
100
AcDbCircle
 10
43.09387
 20
133.194092
 40
5.0
100
AcDbArc
 50
90.0
 51
180.0
  0
ARC
  5
186
100
AcDbEntity
  8
M0
100
AcDbCircle
 10
81.29387
 20
133.194092
 40
5.0
100
AcDbArc
 50
0.0
 51
90.0
  0
ARC
  5
187
100
AcDbEntity
  8
M0
100
AcDbCircle
 10
43.09387
 20
50.794092
 40
5.0
100
AcDbArc
 50
180.0
 51
270.0
  0
ARC
  5
188
100
AcDbEntity
  8
M0
100
AcDbCircle
 10
81.29387
 20
50.794092
 40
5.0
100
AcDbArc
 50
270.0
 51
360.0
  0
ARC
  5
189
100
AcDbEntity
  8
M0
100
AcDbCircle
 10
37.19387
 20
141.494092
 40
12.0
100
AcDbArc
 50
90.0
 51
180.0
  0
ARC
  5
18A
100
AcDbEntity
  8
M0
100
AcDbCircle
 10
37.19387
 20
42.494092
 40
12.0
100
AcDbArc
 50
180.0
 51
270.0
  0
ARC
  5
18B
100
AcDbEntity
  8
M0
100
AcDbCircle
 10
87.19387
 20
42.494092
 40
12.0
100
AcDbArc
 50
270.0
 51
360.0
  0
ARC
  5
18C
100
AcDbEntity
  8
M0
100
AcDbCircle
 10
87.19387
 20
141.494092
 40
12.0
100
AcDbArc
 50
0.0
 51
90.0
  0
TEXT
  5
18D
100
AcDbEntity
  8
M0
100
AcDbText
 10
46.620988
 20
108.255515
 40
5.0
  1
切
 41
0.783333
  7
STANDARD
100
AcDbText
  0
TEXT
  5
18E
100
AcDbEntity
  8
M0
100
AcDbText
 10
75.549162
 20
108.167319
 40
5.0
  1
入
 41
0.783333
  7
STANDARD
100
AcDbText
  0
TEXT
  5
18F
100
AcDbEntity
  8
M0
100
AcDbText
 10
46.770689
 20
64.236222
 40
5.0
  1
弱
 41
0.783333
  7
STANDARD
100
AcDbText
  0
TEXT
  5
190
100
AcDbEntity
  8
M0
100
AcDbText
 10
74.2691
 20
64.106207
 40
5.0
  1
強
 41
0.783333
  7
STANDARD
100
AcDbText
  0
LINE
  5
191
100
AcDbEntity
  8
M0
100
AcDbLine
 10
80.69387
 20
121.194092
 11
80.69387
 21
105.194092
  0
ARC
  5
192
100
AcDbEntity
  8
M0
100
AcDbCircle
 10
78.69387
 20
121.194092
 40
2.0
100
AcDbArc
 50
0.0
 51
90.0
  0
LINE
  5
193
100
AcDbEntity
  8
M0
100
AcDbLine
 10
45.69387
 20
123.194092
 11
78.69387
 21
123.194092
  0
ARC
  5
194
100
AcDbEntity
  8
M0
100
AcDbCircle
 10
45.69387
 20
121.194092
 40
2.0
100
AcDbArc
 50
90.0
 51
180.0
  0
LINE
  5
195
100
AcDbEntity
  8
M0
100
AcDbLine
 10
43.69387
 20
121.194092
 11
43.69387
 21
105.194092
  0
ARC
  5
196
100
AcDbEntity
  8
M0
100
AcDbCircle
 10
45.69387
 20
105.194092
 40
2.0
100
AcDbArc
 50
180.0
 51
270.0
  0
LINE
  5
197
100
AcDbEntity
  8
M0
100
AcDbLine
 10
45.69387
 20
103.194092
 11
78.69387
 21
103.194092
  0
ARC
  5
198
100
AcDbEntity
  8
M0
100
AcDbCircle
 10
78.69387
 20
105.194092
 40
2.0
100
AcDbArc
 50
270.0
 51
360.0
  0
LINE
  5
199
100
AcDbEntity
  8
M0
100
AcDbLine
 10
80.69387
 20
76.994092
 11
80.69387
 21
60.994092
  0
ARC
  5
19A
100
AcDbEntity
  8
M0
100
AcDbCircle
 10
78.69387
 20
76.994092
 40
2.0
100
AcDbArc
 50
0.0
 51
90.0
  0
LINE
  5
19B
100
AcDbEntity
  8
M0
100
AcDbLine
 10
45.69387
 20
78.994092
 11
78.69387
 21
78.994092
  0
ARC
  5
19C
100
AcDbEntity
  8
M0
100
AcDbCircle
 10
45.69387
 20
76.994092
 40
2.0
100
AcDbArc
 50
90.0
 51
180.0
  0
LINE
  5
19D
100
AcDbEntity
  8
M0
100
AcDbLine
 10
43.69387
 20
76.994092
 11
43.69387
 21
60.994092
  0
ARC
  5
19E
100
AcDbEntity
  8
M0
100
AcDbCircle
 10
45.69387
 20
60.994092
 40
2.0
100
AcDbArc
 50
180.0
 51
270.0
  0
LINE
  5
19F
100
AcDbEntity
  8
M0
100
AcDbLine
 10
45.69387
 20
58.994092
 11
78.69387
 21
58.994092
  0
ARC
  5
1A0
100
AcDbEntity
  8
M0
100
AcDbCircle
 10
78.69387
 20
60.994092
 40
2.0
100
AcDbArc
 50
270.0
 51
360.0
  0
TEXT
  5
1A1
100
AcDbEntity
  8
M0
100
AcDbText
 10
55.683944
 20
117.155039
 40
5.0
  1
換気扇
 41
0.783333
  7
STANDARD
100
AcDbText
  0
ARC
  5
1A2
100
AcDbEntity
  8
M0
100
AcDbCircle
 10
58.19387
 20
113.194092
 40
1.0
100
AcDbArc
 50
90.0
 51
180.0
  0
LINE
  5
1A3
100
AcDbEntity
  8
M0
100
AcDbLine
 10
58.19387
 20
114.194092
 11
66.19387
 21
114.194092
  0
ARC
  5
1A4
100
AcDbEntity
  8
M0
100
AcDbCircle
 10
58.19387
 20
113.194092
 40
1.0
100
AcDbArc
 50
180.0
 51
270.0
  0
LINE
  5
1A5
100
AcDbEntity
  8
M0
100
AcDbLine
 10
58.19387
 20
112.194092
 11
66.19387
 21
112.194092
  0
ARC
  5
1A6
100
AcDbEntity
  8
M0
100
AcDbCircle
 10
66.19387
 20
113.194092
 40
1.0
100
AcDbArc
 50
270.0
 51
360.0
  0
ARC
  5
1A7
100
AcDbEntity
  8
M0
100
AcDbCircle
 10
66.19387
 20
113.194092
 40
1.0
100
AcDbArc
 50
0.0
 51
90.0
  0
LINE
  5
1A8
100
AcDbEntity
  8
M0
 62
     2
100
AcDbLine
 10
195.459412
 20
112.048909
 11
195.459412
 21
53.232109
  0
LINE
  5
1A9
100
AcDbEntity
  8
M0
 62
     2
100
AcDbLine
 10
195.459412
 20
53.232109
 11
282.061012
 21
53.232109
  0
LINE
  5
1AA
100
AcDbEntity
  8
M0
 62
     2
100
AcDbLine
 10
282.061012
 20
112.048909
 11
195.459412
 21
112.048909
  0
LINE
  5
1AB
100
AcDbEntity
  8
M0
 62
     2
100
AcDbLine
 10
282.061012
 20
53.232109
 11
282.061012
 21
112.048909
  0
TEXT
  5
1AC
100
AcDbEntity
  8
M0
 62
     2
100
AcDbText
 10
207.403016
 20
113.725068
 40
2.82852
  1
※破線部分の結線は客先にて施工ください。
 41
0.888889
  7
STANDARD
100
AcDbText
  0
TEXT
  5
1AD
100
AcDbEntity
  8
M0
 62
     2
100
AcDbText
 10
202.453106
 20
107.997365
 40
2.82852
  1
※空調換気扇ＭＮ－１５ＴＦ形、ＭＮ－１５Ｔ形、ＭＮ－１２０ＴＦＣ形
 41
0.67284
  7
STANDARD
100
AcDbText
  0
LINE
  5
1AE
100
AcDbEntity
  8
M0
 62
     2
100
AcDbLine
 10
250.832096
 20
77.296111
 11
229.963904
 21
77.296111
  0
LINE
  5
1AF
100
AcDbEntity
  8
M0
 62
     2
100
AcDbLine
 10
229.963904
 20
64.305871
 11
250.832096
 21
64.305871
  0
LINE
  5
1B0
100
AcDbEntity
  8
M0
 62
     2
100
AcDbLine
 10
231.38864
 20
70.800991
 11
235.346624
 21
70.800991
  0
LINE
  5
1B1
100
AcDbEntity
  8
M0
 62
     2
100
AcDbLine
 10
241.602672
 20
75.033295
 11
248.70896
 21
75.033295
  0
LINE
  5
1B2
100
AcDbEntity
  8
M0
 62
     2
100
AcDbLine
 10
241.602672
 20
66.568687
 11
248.70896
 21
66.568687
  0
LINE
  5
1B3
100
AcDbEntity
  8
M0
 62
     2
100
AcDbLine
 10
241.602672
 20
75.033295
 11
241.602672
 21
73.692367
  0
LINE
  5
1B4
100
AcDbEntity
  8
M0
 62
     2
100
AcDbLine
 10
241.602672
 20
67.909615
 11
241.602672
 21
66.568687
  0
LINE
  5
1B5
100
AcDbEntity
  8
M0
 62
     2
100
AcDbLine
 10
216.293274
 20
70.488
 11
214.030458
 21
71.094319
  0
LINE
  5
1B6
100
AcDbEntity
  8
M0
 62
     2
100
AcDbLine
 10
216.293274
 20
71.700639
 11
214.030458
 21
71.094319
  0
LINE
  5
1B7
100
AcDbEntity
  8
M0
 62
     2
100
AcDbLine
 10
216.293274
 20
65.962368
 11
214.030458
 21
66.568687
  0
LINE
  5
1B8
100
AcDbEntity
  8
M0
 62
     2
100
AcDbLine
 10
216.293274
 20
67.175007
 11
214.030458
 21
66.568687
  0
LINE
  5
1B9
100
AcDbEntity
  8
M0
  6
DASHED
 62
     2
100
AcDbLine
 10
214.030458
 20
66.568687
 11
223.012212
 21
66.568687
  0
LINE
  5
1BA
100
AcDbEntity
  8
M0
  6
DASHED
 62
     2
100
AcDbLine
 10
223.012212
 20
71.094319
 11
214.030458
 21
71.094319
  0
LINE
  5
1BB
100
AcDbEntity
  8
M0
 62
     2
100
AcDbLine
 10
250.832096
 20
96.321828
 11
229.963904
 21
96.321828
  0
LINE
  5
1BC
100
AcDbEntity
  8
M0
 62
     2
100
AcDbLine
 10
229.963904
 20
83.331588
 11
250.832096
 21
83.331588
  0
LINE
  5
1BD
100
AcDbEntity
  8
M0
 62
     2
100
AcDbLine
 10
252.508256
 20
85.007748
 11
252.508256
 21
94.645668
  0
LINE
  5
1BE
100
AcDbEntity
  8
M0
 62
     2
100
AcDbLine
 10
228.287744
 20
94.645668
 11
228.287744
 21
85.007748
  0
LINE
  5
1BF
100
AcDbEntity
  8
M0
 62
     2
100
AcDbLine
 10
231.38864
 20
93.360612
 11
231.38864
 21
86.292804
  0
LINE
  5
1C0
100
AcDbEntity
  8
M0
 62
     2
100
AcDbLine
 10
249.40736
 20
93.360612
 11
249.40736
 21
86.292804
  0
LINE
  5
1C1
100
AcDbEntity
  8
M0
  6
DASHED
 62
     2
100
AcDbLine
 10
250.10576
 20
85.594404
 11
256.698656
 21
85.594404
  0
LINE
  5
1C2
100
AcDbEntity
  8
M0
  6
DASHED
 62
     2
100
AcDbLine
 10
256.698656
 20
80.677668
 11
256.698656
 21
85.594404
  0
LINE
  5
1C3
100
AcDbEntity
  8
M0
  6
DASHED
 62
     2
100
AcDbLine
 10
256.698656
 20
80.677668
 11
223.012212
 21
80.677668
  0
LINE
  5
1C4
100
AcDbEntity
  8
M0
  6
DASHED
 62
     2
100
AcDbLine
 10
250.10576
 20
66.568687
 11
268.25931
 21
66.568687
  0
LINE
  5
1C5
100
AcDbEntity
  8
M0
  6
DASHED
 62
     2
100
AcDbLine
 10
223.012212
 20
80.677668
 11
223.012212
 21
71.094319
  0
LINE
  5
1C6
100
AcDbEntity
  8
M0
 62
     2
100
AcDbLine
 10
228.287744
 20
75.619951
 11
228.287744
 21
65.982031
  0
LINE
  5
1C7
100
AcDbEntity
  8
M0
 62
     2
100
AcDbLine
 10
252.508256
 20
65.982031
 11
252.508256
 21
75.619951
  0
LINE
  5
1C8
100
AcDbEntity
  8
M0
 62
     2
100
AcDbLine
 10
231.38864
 20
74.334895
 11
231.38864
 21
67.267087
  0
LINE
  5
1C9
100
AcDbEntity
  8
M0
 62
     2
100
AcDbLine
 10
236.078659
 20
70.928578
 11
242.783465
 21
73.338961
  0
LINE
  5
1CA
100
AcDbEntity
  8
M0
  6
DASHED
 62
     2
100
AcDbLine
 10
225.805812
 20
75.033295
 11
230.69024
 21
75.033295
  0
LINE
  5
1CB
100
AcDbEntity
  8
M0
  6
DASHED
 62
     2
100
AcDbLine
 10
225.805812
 20
85.594404
 11
225.805812
 21
81.725268
  0
LINE
  5
1CC
100
AcDbEntity
  8
M0
 62
     2
100
AcDbLine
 10
240.563442
 20
92.742268
 11
239.026962
 21
92.742268
  0
CIRCLE
  5
1CD
100
AcDbEntity
  8
M0
 62
     2
100
AcDbCircle
 10
241.602672
 20
73.315231
 40
0.377136
  0
CIRCLE
  5
1CE
100
AcDbEntity
  8
M0
 62
     2
100
AcDbCircle
 10
241.602672
 20
68.286751
 40
0.377136
  0
CIRCLE
  5
1CF
100
AcDbEntity
  8
M0
 62
     2
100
AcDbCircle
 10
235.72376
 20
70.800991
 40
0.377136
  0
CIRCLE
  5
1D0
100
AcDbEntity
  8
M0
 62
     2
100
AcDbCircle
 10
231.38864
 20
85.594404
 40
0.6984
  0
CIRCLE
  5
1D1
100
AcDbEntity
  8
M0
 62
     2
100
AcDbCircle
 10
231.38864
 20
94.059012
 40
0.6984
  0
CIRCLE
  5
1D2
100
AcDbEntity
  8
M0
 62
     2
100
AcDbCircle
 10
249.40736
 20
94.059012
 40
0.6984
  0
CIRCLE
  5
1D3
100
AcDbEntity
  8
M0
 62
     2
100
AcDbCircle
 10
249.40736
 20
85.594404
 40
0.6984
  0
CIRCLE
  5
1D4
100
AcDbEntity
  8
M0
 62
     2
100
AcDbCircle
 10
249.40736
 20
75.033295
 40
0.6984
  0
CIRCLE
  5
1D5
100
AcDbEntity
  8
M0
 62
     2
100
AcDbCircle
 10
249.40736
 20
66.568687
 40
0.6984
  0
CIRCLE
  5
1D6
100
AcDbEntity
  8
M0
 62
     2
100
AcDbCircle
 10
231.38864
 20
75.033295
 40
0.6984
  0
ARC
  5
1D7
100
AcDbEntity
  8
M0
 62
     2
100
AcDbCircle
 10
250.832096
 20
94.645668
 40
1.67616
100
AcDbArc
 50
0.0
 51
90.0
  0
ARC
  5
1D8
100
AcDbEntity
  8
M0
 62
     2
100
AcDbCircle
 10
229.963904
 20
94.645668
 40
1.67616
100
AcDbArc
 50
90.0
 51
180.0
  0
ARC
  5
1D9
100
AcDbEntity
  8
M0
 62
     2
100
AcDbCircle
 10
229.963904
 20
85.007748
 40
1.67616
100
AcDbArc
 50
180.0
 51
270.0
  0
ARC
  5
1DA
100
AcDbEntity
  8
M0
 62
     2
100
AcDbCircle
 10
250.832096
 20
85.007748
 40
1.67616
100
AcDbArc
 50
270.0
 51
360.0
  0
ARC
  5
1DB
100
AcDbEntity
  8
M0
 62
     2
100
AcDbCircle
 10
215.805115
 20
69.036632
 40
4.136392
100
AcDbArc
 50
229.447538
 51
492.403172
  0
ARC
  5
1DC
100
AcDbEntity
  8
M0
 62
     2
100
AcDbCircle
 10
229.963904
 20
75.619951
 40
1.67616
100
AcDbArc
 50
90.0
 51
180.0
  0
ARC
  5
1DD
100
AcDbEntity
  8
M0
 62
     2
100
AcDbCircle
 10
229.963904
 20
65.982031
 40
1.67616
100
AcDbArc
 50
180.0
 51
270.0
  0
ARC
  5
1DE
100
AcDbEntity
  8
M0
 62
     2
100
AcDbCircle
 10
250.832096
 20
75.619951
 40
1.67616
100
AcDbArc
 50
0.0
 51
90.0
  0
ARC
  5
1DF
100
AcDbEntity
  8
M0
 62
     2
100
AcDbCircle
 10
250.832096
 20
65.982031
 40
1.67616
100
AcDbArc
 50
270.0
 51
360.0
  0
TEXT
  5
1E0
100
AcDbEntity
  8
M0
 62
     2
100
AcDbText
 10
203.439628
 20
69.245141
 40
2.82852
  1
電　源
 41
0.833333
  7
STANDARD
100
AcDbText
  0
TEXT
  5
1E1
100
AcDbEntity
  8
M0
 62
     2
100
AcDbText
 10
199.292879
 20
65.83178
 40
2.82852
  1
ＡＣ１００Ｖ
 41
0.617284
  7
STANDARD
100
AcDbText
  0
TEXT
  5
1E2
100
AcDbEntity
  8
M0
 62
     2
100
AcDbText
 10
228.858031
 20
87.585717
 40
2.82852
  1
１
 41
0.888889
  7
STANDARD
100
AcDbText
  0
TEXT
  5
1E3
100
AcDbEntity
  8
M0
 62
     2
100
AcDbText
 10
249.604266
 20
87.585717
 40
2.82852
  1
２
 41
0.888889
  7
STANDARD
100
AcDbText
  0
TEXT
  5
1E4
100
AcDbEntity
  8
M0
 62
     2
100
AcDbText
 10
228.858031
 20
69.238046
 40
2.82852
  1
０
 41
0.888889
  7
STANDARD
100
AcDbText
  0
LINE
  5
1E5
100
AcDbEntity
  8
M0
 62
     2
100
AcDbLine
 10
234.545653
 20
92.742268
 11
233.009173
 21
92.742268
  0
LINE
  5
1E6
100
AcDbEntity
  8
M0
 62
     2
100
AcDbLine
 10
233.009173
 20
92.742268
 11
233.009173
 21
94.418428
  0
LINE
  5
1E7
100
AcDbEntity
  8
M0
 62
     2
100
AcDbLine
 10
233.009173
 20
94.418428
 11
235.383733
 21
94.418428
  0
LINE
  5
1E8
100
AcDbEntity
  8
M0
 62
     2
100
AcDbLine
 10
235.383733
 20
93.999388
 11
238.317013
 21
93.999388
  0
LINE
  5
1E9
100
AcDbEntity
  8
M0
 62
     2
100
AcDbLine
 10
235.383733
 20
94.837468
 11
238.317013
 21
94.837468
  0
LINE
  5
1EA
100
AcDbEntity
  8
M0
 62
     2
100
AcDbLine
 10
238.317013
 20
93.999388
 11
238.317013
 21
94.837468
  0
LINE
  5
1EB
100
AcDbEntity
  8
M0
 62
     2
100
AcDbLine
 10
238.317013
 20
94.418428
 11
240.563442
 21
94.418428
  0
LINE
  5
1EC
100
AcDbEntity
  8
M0
 62
     2
100
AcDbLine
 10
240.563442
 20
92.742268
 11
240.563442
 21
94.418428
  0
LINE
  5
1ED
100
AcDbEntity
  8
M0
 62
     2
100
AcDbLine
 10
235.383733
 20
94.837468
 11
235.383733
 21
93.999388
  0
LINE
  5
1EE
100
AcDbEntity
  8
M0
 62
     2
100
AcDbLine
 10
238.468837
 20
90.600357
 11
234.751034
 21
90.600357
  0
LINE
  5
1EF
100
AcDbEntity
  8
M0
 62
     2
100
AcDbLine
 10
238.480035
 20
91.272249
 11
234.795827
 21
91.272249
  0
LINE
  5
1F0
100
AcDbEntity
  8
M0
 62
     2
100
AcDbLine
 10
242.535104
 20
88.988628
 11
239.026962
 21
88.988628
  0
LINE
  5
1F1
100
AcDbEntity
  8
M0
 62
     2
100
AcDbLine
 10
234.545653
 20
88.988628
 11
231.38864
 21
88.988628
  0
LINE
  5
1F2
100
AcDbEntity
  8
M0
 62
     2
100
AcDbLine
 10
249.40736
 20
88.988628
 11
242.683472
 21
91.310934
  0
LINE
  5
1F3
100
AcDbEntity
  8
M0
  6
DASHED
 62
     2
100
AcDbLine
 10
230.69024
 20
94.059012
 11
222.819986
 21
94.059012
  0
LINE
  5
1F4
100
AcDbEntity
  8
M0
  6
DASHED
 62
     2
100
AcDbLine
 10
225.805812
 20
85.594404
 11
230.69024
 21
85.594404
  0
LINE
  5
1F5
100
AcDbEntity
  8
M0
  6
DASHED
 62
     2
100
AcDbLine
 10
223.012212
 20
62.43507
 11
265.809379
 21
62.43507
  0
LINE
  5
1F6
100
AcDbEntity
  8
M0
  6
DASHED
 62
     2
100
AcDbLine
 10
223.012212
 20
66.568687
 11
223.012212
 21
62.43507
  0
LINE
  5
1F7
100
AcDbEntity
  8
M0
  6
DASHED
 62
     2
100
AcDbLine
 10
225.805812
 20
79.630068
 11
225.805812
 21
75.033295
  0
CIRCLE
  5
1F8
100
AcDbEntity
  8
M0
 62
     2
100
AcDbCircle
 10
231.38864
 20
66.568687
 40
0.6984
  0
CIRCLE
  5
1F9
100
AcDbEntity
  8
M0
 62
     2
100
AcDbCircle
 10
242.91224
 20
88.988628
 40
0.377136
  0
ARC
  5
1FA
100
AcDbEntity
  8
M0
 62
     2
100
AcDbCircle
 10
238.188882
 20
92.742268
 40
0.83808
100
AcDbArc
 50
1.932676E-012
 51
237.465336
  0
ARC
  5
1FB
100
AcDbEntity
  8
M0
 62
     2
100
AcDbCircle
 10
237.287427
 20
92.742268
 40
0.83808
100
AcDbArc
 50
-57.465336
 51
232.074253
  0
ARC
  5
1FC
100
AcDbEntity
  8
M0
 62
     2
100
AcDbCircle
 10
236.257192
 20
92.742268
 40
0.83808
100
AcDbArc
 50
-52.074253
 51
238.593423
  0
ARC
  5
1FD
100
AcDbEntity
  8
M0
 62
     2
100
AcDbCircle
 10
235.383733
 20
92.742268
 40
0.83808
100
AcDbArc
 50
-58.593423
 51
180.0
  0
ARC
  5
1FE
100
AcDbEntity
  8
M0
 62
     2
100
AcDbCircle
 10
238.188882
 20
88.988628
 40
0.83808
100
AcDbArc
 50
0.0
 51
237.465336
  0
ARC
  5
1FF
100
AcDbEntity
  8
M0
 62
     2
100
AcDbCircle
 10
237.287427
 20
88.988628
 40
0.83808
100
AcDbArc
 50
-57.465336
 51
232.074253
  0
ARC
  5
200
100
AcDbEntity
  8
M0
 62
     2
100
AcDbCircle
 10
236.257192
 20
88.988628
 40
0.83808
100
AcDbArc
 50
-52.074253
 51
238.593423
  0
ARC
  5
201
100
AcDbEntity
  8
M0
 62
     2
100
AcDbCircle
 10
235.383733
 20
88.988628
 40
0.83808
100
AcDbArc
 50
-58.593423
 51
180.0
  0
TEXT
  5
202
100
AcDbEntity
  8
M0
 62
     2
100
AcDbText
 10
241.450423
 20
93.282044
 40
2.0952
  1
ＬＥＤ
 41
0.797222
  7
STANDARD
100
AcDbText
  0
LINE
  5
203
100
AcDbEntity
  8
M0
  6
DASHED
 62
     2
100
AcDbLine
 10
222.819986
 20
98.02957
 11
268.25931
 21
98.02957
  0
LINE
  5
204
100
AcDbEntity
  8
M0
  6
DASHED
 62
     2
100
AcDbLine
 10
222.819986
 20
98.02957
 11
222.819986
 21
94.059012
  0
LINE
  5
205
100
AcDbEntity
  8
M0
  6
DASHED
 62
     2
100
AcDbLine
 10
268.25931
 20
86.833474
 11
272.345583
 21
86.833474
  0
LINE
  5
206
100
AcDbEntity
  8
M0
  6
DASHED
 62
     2
100
AcDbLine
 10
268.25931
 20
98.02957
 11
268.25931
 21
86.833474
  0
LINE
  5
207
100
AcDbEntity
  8
M0
  6
DASHED
 62
     2
100
AcDbLine
 10
268.25931
 20
75.659074
 11
272.345583
 21
75.659074
  0
LINE
  5
208
100
AcDbEntity
  8
M0
  6
DASHED
 62
     2
100
AcDbLine
 10
268.25931
 20
75.659074
 11
268.25931
 21
66.568687
  0
LINE
  5
209
100
AcDbEntity
  8
M0
  6
DASHED
 62
     2
100
AcDbLine
 10
265.809379
 20
81.246274
 11
272.345583
 21
81.246274
  0
LINE
  5
20A
100
AcDbEntity
  8
M0
  6
DASHED
 62
     2
100
AcDbLine
 10
265.809379
 20
81.246274
 11
265.809379
 21
67.616287
  0
LINE
  5
20B
100
AcDbEntity
  8
M0
  6
DASHED
 62
     2
100
AcDbLine
 10
265.809379
 20
65.521087
 11
265.809379
 21
62.43507
  0
CIRCLE
  5
20C
100
AcDbEntity
  8
M0
 62
     2
100
AcDbCircle
 10
265.809379
 20
62.43507
 40
0.6984
  0
ARC
  5
20D
100
AcDbEntity
  8
M0
  6
DASHED
 62
     2
100
AcDbCircle
 10
225.805812
 20
80.677668
 40
1.0476
100
AcDbArc
 50
270.0
 51
450.0
  0
ARC
  5
20E
100
AcDbEntity
  8
M0
  6
DASHED
 62
     2
100
AcDbCircle
 10
265.809379
 20
66.568687
 40
1.0476
100
AcDbArc
 50
270.0
 51
450.0
  0
LINE
  5
20F
100
AcDbEntity
  8
M0
 62
     2
100
AcDbLine
 10
277.932783
 20
72.992223
 11
277.932783
 21
89.753823
  0
LINE
  5
210
100
AcDbEntity
  8
M0
 62
     2
100
AcDbLine
 10
277.932783
 20
89.753823
 11
272.345583
 21
89.753823
  0
LINE
  5
211
100
AcDbEntity
  8
M0
 62
     2
100
AcDbLine
 10
272.345583
 20
89.753823
 11
272.345583
 21
72.992223
  0
LINE
  5
212
100
AcDbEntity
  8
M0
 62
     2
100
AcDbLine
 10
272.345583
 20
84.166623
 11
277.932783
 21
84.166623
  0
LINE
  5
213
100
AcDbEntity
  8
M0
 62
     2
100
AcDbLine
 10
277.932783
 20
78.579423
 11
272.345583
 21
78.579423
  0
LINE
  5
214
100
AcDbEntity
  8
M0
 62
     2
100
AcDbLine
 10
272.345583
 20
72.992223
 11
277.932783
 21
72.992223
  0
TEXT
  5
215
100
AcDbEntity
  8
M0
 62
     2
100
AcDbText
 10
273.029532
 20
91.628617
 40
2.82852
  1
本体
 41
0.617284
  7
STANDARD
100
AcDbText
  0
TEXT
  5
216
100
AcDbEntity
  8
M0
 62
     2
100
AcDbText
 10
273.264792
 20
79.856149
 40
2.82852
  1
共通
 41
0.617284
  7
STANDARD
100
AcDbText
  0
TEXT
  5
217
100
AcDbEntity
  8
M0
 62
     2
100
AcDbText
 10
274.27999
 20
74.268952
 40
2.82852
  1
弱
 41
0.617284
  7
STANDARD
100
AcDbText
  0
TEXT
  5
218
100
AcDbEntity
  8
M0
 62
     2
100
AcDbText
 10
274.27999
 20
85.443349
 40
2.82852
  1
強
 41
0.617284
  7
STANDARD
100
AcDbText
  0
LINE
  5
219
100
AcDbEntity
  8
M0
 62
     2
100
AcDbLine
 10
266.092412
 20
61.796591
 11
266.447858
 21
62.152036
  0
LINE
  5
21A
100
AcDbEntity
  8
M0
 62
     2
100
AcDbLine
 10
266.090644
 20
61.79581
 11
266.448639
 21
62.153805
  0
LINE
  5
21B
100
AcDbEntity
  8
M0
 62
     2
100
AcDbLine
 10
266.088885
 20
61.795039
 11
266.44941
 21
62.155564
  0
LINE
  5
21C
100
AcDbEntity
  8
M0
 62
     2
100
AcDbLine
 10
266.087137
 20
61.794278
 11
266.45017
 21
62.157312
  0
LINE
  5
21D
100
AcDbEntity
  8
M0
 62
     2
100
AcDbLine
 10
266.085398
 20
61.793528
 11
266.450921
 21
62.159051
  0
LINE
  5
21E
100
AcDbEntity
  8
M0
 62
     2
100
AcDbLine
 10
266.08367
 20
61.792787
 11
266.451662
 21
62.160779
  0
LINE
  5
21F
100
AcDbEntity
  8
M0
 62
     2
100
AcDbLine
 10
266.08195
 20
61.792055
 11
266.452394
 21
62.162498
  0
LINE
  5
220
100
AcDbEntity
  8
M0
 62
     2
100
AcDbLine
 10
266.080241
 20
61.791333
 11
266.453116
 21
62.164208
  0
LINE
  5
221
100
AcDbEntity
  8
M0
 62
     2
100
AcDbLine
 10
266.07854
 20
61.79062
 11
266.453829
 21
62.165909
  0
LINE
  5
222
100
AcDbEntity
  8
M0
 62
     2
100
AcDbLine
 10
266.076848
 20
61.789916
 11
266.454532
 21
62.1676
  0
LINE
  5
223
100
AcDbEntity
  8
M0
 62
     2
100
AcDbLine
 10
266.075166
 20
61.789221
 11
266.455228
 21
62.169283
  0
LINE
  5
224
100
AcDbEntity
  8
M0
 62
     2
100
AcDbLine
 10
266.073492
 20
61.788535
 11
266.455914
 21
62.170957
  0
LINE
  5
225
100
AcDbEntity
  8
M0
 62
     2
100
AcDbLine
 10
266.071826
 20
61.787857
 11
266.456592
 21
62.172623
  0
LINE
  5
226
100
AcDbEntity
  8
M0
 62
     2
100
AcDbLine
 10
266.070169
 20
61.787187
 11
266.457261
 21
62.17428
  0
LINE
  5
227
100
AcDbEntity
  8
M0
 62
     2
100
AcDbLine
 10
266.06852
 20
61.786526
 11
266.457923
 21
62.175929
  0
LINE
  5
228
100
AcDbEntity
  8
M0
 62
     2
100
AcDbLine
 10
266.066879
 20
61.785873
 11
266.458576
 21
62.17757
  0
LINE
  5
229
100
AcDbEntity
  8
M0
 62
     2
100
AcDbLine
 10
266.065246
 20
61.785227
 11
266.459221
 21
62.179203
  0
LINE
  5
22A
100
AcDbEntity
  8
M0
 62
     2
100
AcDbLine
 10
266.06362
 20
61.78459
 11
266.459859
 21
62.180828
  0
LINE
  5
22B
100
AcDbEntity
  8
M0
 62
     2
100
AcDbLine
 10
266.062003
 20
61.78396
 11
266.460489
 21
62.182446
  0
LINE
  5
22C
100
AcDbEntity
  8
M0
 62
     2
100
AcDbLine
 10
266.060393
 20
61.783338
 11
266.461111
 21
62.184056
  0
LINE
  5
22D
100
AcDbEntity
  8
M0
 62
     2
100
AcDbLine
 10
266.05879
 20
61.782723
 11
266.461726
 21
62.185659
  0
LINE
  5
22E
100
AcDbEntity
  8
M0
 62
     2
100
AcDbLine
 10
266.057195
 20
61.782115
 11
266.462334
 21
62.187254
  0
LINE
  5
22F
100
AcDbEntity
  8
M0
 62
     2
100
AcDbLine
 10
266.055606
 20
61.781514
 11
266.462935
 21
62.188842
  0
LINE
  5
230
100
AcDbEntity
  8
M0
 62
     2
100
AcDbLine
 10
266.054025
 20
61.780921
 11
266.463528
 21
62.190424
  0
LINE
  5
231
100
AcDbEntity
  8
M0
 62
     2
100
AcDbLine
 10
266.052451
 20
61.780334
 11
266.464115
 21
62.191998
  0
LINE
  5
232
100
AcDbEntity
  8
M0
 62
     2
100
AcDbLine
 10
266.050883
 20
61.779754
 11
266.464695
 21
62.193565
  0
LINE
  5
233
100
AcDbEntity
  8
M0
 62
     2
100
AcDbLine
 10
266.049323
 20
61.779181
 11
266.465268
 21
62.195126
  0
LINE
  5
234
100
AcDbEntity
  8
M0
 62
     2
100
AcDbLine
 10
266.047768
 20
61.778615
 11
266.465834
 21
62.19668
  0
LINE
  5
235
100
AcDbEntity
  8
M0
 62
     2
100
AcDbLine
 10
266.046221
 20
61.778055
 11
266.466394
 21
62.198228
  0
LINE
  5
236
100
AcDbEntity
  8
M0
 62
     2
100
AcDbLine
 10
266.04468
 20
61.777501
 11
266.466948
 21
62.199769
  0
LINE
  5
237
100
AcDbEntity
  8
M0
 62
     2
100
AcDbLine
 10
266.043145
 20
61.776954
 11
266.467495
 21
62.201304
  0
LINE
  5
238
100
AcDbEntity
  8
M0
 62
     2
100
AcDbLine
 10
266.041616
 20
61.776413
 11
266.468036
 21
62.202833
  0
LINE
  5
239
100
AcDbEntity
  8
M0
 62
     2
100
AcDbLine
 10
266.040093
 20
61.775878
 11
266.468571
 21
62.204355
  0
LINE
  5
23A
100
AcDbEntity
  8
M0
 62
     2
100
AcDbLine
 10
266.038577
 20
61.775349
 11
266.4691
 21
62.205872
  0
LINE
  5
23B
100
AcDbEntity
  8
M0
 62
     2
100
AcDbLine
 10
266.037066
 20
61.774826
 11
266.469622
 21
62.207382
  0
LINE
  5
23C
100
AcDbEntity
  8
M0
 62
     2
100
AcDbLine
 10
266.035562
 20
61.774309
 11
266.470139
 21
62.208887
  0
LINE
  5
23D
100
AcDbEntity
  8
M0
 62
     2
100
AcDbLine
 10
266.034063
 20
61.773798
 11
266.470651
 21
62.210386
  0
LINE
  5
23E
100
AcDbEntity
  8
M0
 62
     2
100
AcDbLine
 10
266.03257
 20
61.773293
 11
266.471156
 21
62.211879
  0
LINE
  5
23F
100
AcDbEntity
  8
M0
 62
     2
100
AcDbLine
 10
266.031082
 20
61.772793
 11
266.471656
 21
62.213367
  0
LINE
  5
240
100
AcDbEntity
  8
M0
 62
     2
100
AcDbLine
 10
266.0296
 20
61.772299
 11
266.47215
 21
62.214849
  0
LINE
  5
241
100
AcDbEntity
  8
M0
 62
     2
100
AcDbLine
 10
266.028124
 20
61.77181
 11
266.472639
 21
62.216325
  0
LINE
  5
242
100
AcDbEntity
  8
M0
 62
     2
100
AcDbLine
 10
266.026653
 20
61.771327
 11
266.473122
 21
62.217796
  0
LINE
  5
243
100
AcDbEntity
  8
M0
 62
     2
100
AcDbLine
 10
266.025187
 20
61.770849
 11
266.4736
 21
62.219262
  0
LINE
  5
244
100
AcDbEntity
  8
M0
 62
     2
100
AcDbLine
 10
266.023727
 20
61.770376
 11
266.474073
 21
62.220722
  0
LINE
  5
245
100
AcDbEntity
  8
M0
 62
     2
100
AcDbLine
 10
266.022272
 20
61.769908
 11
266.47454
 21
62.222177
  0
LINE
  5
246
100
AcDbEntity
  8
M0
 62
     2
100
AcDbLine
 10
266.020821
 20
61.769446
 11
266.475003
 21
62.223627
  0
LINE
  5
247
100
AcDbEntity
  8
M0
 62
     2
100
AcDbLine
 10
266.019376
 20
61.768989
 11
266.47546
 21
62.225072
  0
LINE
  5
248
100
AcDbEntity
  8
M0
 62
     2
100
AcDbLine
 10
266.017937
 20
61.768537
 11
266.475912
 21
62.226512
  0
LINE
  5
249
100
AcDbEntity
  8
M0
 62
     2
100
AcDbLine
 10
266.016502
 20
61.768089
 11
266.47636
 21
62.227947
  0
LINE
  5
24A
100
AcDbEntity
  8
M0
 62
     2
100
AcDbLine
 10
266.015071
 20
61.767647
 11
266.476802
 21
62.229377
  0
LINE
  5
24B
100
AcDbEntity
  8
M0
 62
     2
100
AcDbLine
 10
266.013646
 20
61.767209
 11
266.47724
 21
62.230803
  0
LINE
  5
24C
100
AcDbEntity
  8
M0
 62
     2
100
AcDbLine
 10
266.012226
 20
61.766776
 11
266.477672
 21
62.232223
  0
LINE
  5
24D
100
AcDbEntity
  8
M0
 62
     2
100
AcDbLine
 10
266.01081
 20
61.766348
 11
266.478101
 21
62.233639
  0
LINE
  5
24E
100
AcDbEntity
  8
M0
 62
     2
100
AcDbLine
 10
266.009399
 20
61.765925
 11
266.478524
 21
62.23505
  0
LINE
  5
24F
100
AcDbEntity
  8
M0
 62
     2
100
AcDbLine
 10
266.007992
 20
61.765506
 11
266.478943
 21
62.236457
  0
LINE
  5
250
100
AcDbEntity
  8
M0
 62
     2
100
AcDbLine
 10
266.00659
 20
61.765092
 11
266.479357
 21
62.237859
  0
LINE
  5
251
100
AcDbEntity
  8
M0
 62
     2
100
AcDbLine
 10
266.005193
 20
61.764682
 11
266.479767
 21
62.239256
  0
LINE
  5
252
100
AcDbEntity
  8
M0
 62
     2
100
AcDbLine
 10
266.0038
 20
61.764277
 11
266.480172
 21
62.240649
  0
LINE
  5
253
100
AcDbEntity
  8
M0
 62
     2
100
AcDbLine
 10
266.002411
 20
61.763876
 11
266.480573
 21
62.242038
  0
LINE
  5
254
100
AcDbEntity
  8
M0
 62
     2
100
AcDbLine
 10
266.001027
 20
61.763479
 11
266.48097
 21
62.243422
  0
LINE
  5
255
100
AcDbEntity
  8
M0
 62
     2
100
AcDbLine
 10
265.999647
 20
61.763087
 11
266.481362
 21
62.244802
  0
LINE
  5
256
100
AcDbEntity
  8
M0
 62
     2
100
AcDbLine
 10
265.998271
 20
61.762699
 11
266.48175
 21
62.246177
  0
LINE
  5
257
100
AcDbEntity
  8
M0
 62
     2
100
AcDbLine
 10
265.9969
 20
61.762315
 11
266.482134
 21
62.247549
  0
LINE
  5
258
100
AcDbEntity
  8
M0
 62
     2
100
AcDbLine
 10
265.995533
 20
61.761936
 11
266.482513
 21
62.248916
  0
LINE
  5
259
100
AcDbEntity
  8
M0
 62
     2
100
AcDbLine
 10
265.994169
 20
61.76156
 11
266.482889
 21
62.250279
  0
LINE
  5
25A
100
AcDbEntity
  8
M0
 62
     2
100
AcDbLine
 10
265.99281
 20
61.761189
 11
266.48326
 21
62.251639
  0
LINE
  5
25B
100
AcDbEntity
  8
M0
 62
     2
100
AcDbLine
 10
265.991455
 20
61.760821
 11
266.483628
 21
62.252994
  0
LINE
  5
25C
100
AcDbEntity
  8
M0
 62
     2
100
AcDbLine
 10
265.990104
 20
61.760458
 11
266.483991
 21
62.254345
  0
LINE
  5
25D
100
AcDbEntity
  8
M0
 62
     2
100
AcDbLine
 10
265.988757
 20
61.760098
 11
266.48435
 21
62.255692
  0
LINE
  5
25E
100
AcDbEntity
  8
M0
 62
     2
100
AcDbLine
 10
265.987414
 20
61.759743
 11
266.484706
 21
62.257035
  0
LINE
  5
25F
100
AcDbEntity
  8
M0
 62
     2
100
AcDbLine
 10
265.986074
 20
61.759391
 11
266.485058
 21
62.258374
  0
LINE
  5
260
100
AcDbEntity
  8
M0
 62
     2
100
AcDbLine
 10
265.984739
 20
61.759043
 11
266.485405
 21
62.25971
  0
LINE
  5
261
100
AcDbEntity
  8
M0
 62
     2
100
AcDbLine
 10
265.983407
 20
61.758699
 11
266.48575
 21
62.261042
  0
LINE
  5
262
100
AcDbEntity
  8
M0
 62
     2
100
AcDbLine
 10
265.982079
 20
61.758359
 11
266.48609
 21
62.26237
  0
LINE
  5
263
100
AcDbEntity
  8
M0
 62
     2
100
AcDbLine
 10
265.980755
 20
61.758022
 11
266.486426
 21
62.263694
  0
LINE
  5
264
100
AcDbEntity
  8
M0
 62
     2
100
AcDbLine
 10
265.979434
 20
61.75769
 11
266.486759
 21
62.265015
  0
LINE
  5
265
100
AcDbEntity
  8
M0
 62
     2
100
AcDbLine
 10
265.978117
 20
61.75736
 11
266.487089
 21
62.266331
  0
LINE
  5
266
100
AcDbEntity
  8
M0
 62
     2
100
AcDbLine
 10
265.976804
 20
61.757035
 11
266.487414
 21
62.267645
  0
LINE
  5
267
100
AcDbEntity
  8
M0
 62
     2
100
AcDbLine
 10
265.975494
 20
61.756713
 11
266.487736
 21
62.268955
  0
LINE
  5
268
100
AcDbEntity
  8
M0
 62
     2
100
AcDbLine
 10
265.974188
 20
61.756394
 11
266.488055
 21
62.270261
  0
LINE
  5
269
100
AcDbEntity
  8
M0
 62
     2
100
AcDbLine
 10
265.972885
 20
61.756079
 11
266.48837
 21
62.271563
  0
LINE
  5
26A
100
AcDbEntity
  8
M0
 62
     2
100
AcDbLine
 10
265.971586
 20
61.755767
 11
266.488681
 21
62.272863
  0
LINE
  5
26B
100
AcDbEntity
  8
M0
 62
     2
100
AcDbLine
 10
265.97029
 20
61.755459
 11
266.488989
 21
62.274159
  0
LINE
  5
26C
100
AcDbEntity
  8
M0
 62
     2
100
AcDbLine
 10
265.968998
 20
61.755155
 11
266.489294
 21
62.275451
  0
LINE
  5
26D
100
AcDbEntity
  8
M0
 62
     2
100
AcDbLine
 10
265.967709
 20
61.754853
 11
266.489596
 21
62.27674
  0
LINE
  5
26E
100
AcDbEntity
  8
M0
 62
     2
100
AcDbLine
 10
265.966423
 20
61.754555
 11
266.489893
 21
62.278026
  0
LINE
  5
26F
100
AcDbEntity
  8
M0
 62
     2
100
AcDbLine
 10
265.965141
 20
61.754261
 11
266.490188
 21
62.279308
  0
LINE
  5
270
100
AcDbEntity
  8
M0
 62
     2
100
AcDbLine
 10
265.963862
 20
61.753969
 11
266.49048
 21
62.280587
  0
LINE
  5
271
100
AcDbEntity
  8
M0
 62
     2
100
AcDbLine
 10
265.962586
 20
61.753681
 11
266.490768
 21
62.281863
  0
LINE
  5
272
100
AcDbEntity
  8
M0
 62
     2
100
AcDbLine
 10
265.961313
 20
61.753396
 11
266.491053
 21
62.283135
  0
LINE
  5
273
100
AcDbEntity
  8
M0
 62
     2
100
AcDbLine
 10
265.960044
 20
61.753115
 11
266.491334
 21
62.284405
  0
LINE
  5
274
100
AcDbEntity
  8
M0
 62
     2
100
AcDbLine
 10
265.958778
 20
61.752836
 11
266.491613
 21
62.285671
  0
LINE
  5
275
100
AcDbEntity
  8
M0
 62
     2
100
AcDbLine
 10
265.957515
 20
61.752561
 11
266.491888
 21
62.286934
  0
LINE
  5
276
100
AcDbEntity
  8
M0
 62
     2
100
AcDbLine
 10
265.956255
 20
61.752289
 11
266.49216
 21
62.288194
  0
LINE
  5
277
100
AcDbEntity
  8
M0
 62
     2
100
AcDbLine
 10
265.954998
 20
61.752019
 11
266.492429
 21
62.289451
  0
LINE
  5
278
100
AcDbEntity
  8
M0
 62
     2
100
AcDbLine
 10
265.953744
 20
61.751753
 11
266.492696
 21
62.290705
  0
LINE
  5
279
100
AcDbEntity
  8
M0
 62
     2
100
AcDbLine
 10
265.952494
 20
61.75149
 11
266.492959
 21
62.291955
  0
LINE
  5
27A
100
AcDbEntity
  8
M0
 62
     2
100
AcDbLine
 10
265.951246
 20
61.75123
 11
266.493219
 21
62.293203
  0
LINE
  5
27B
100
AcDbEntity
  8
M0
 62
     2
100
AcDbLine
 10
265.950001
 20
61.750973
 11
266.493476
 21
62.294448
  0
LINE
  5
27C
100
AcDbEntity
  8
M0
 62
     2
100
AcDbLine
 10
265.948759
 20
61.750719
 11
266.49373
 21
62.295689
  0
LINE
  5
27D
100
AcDbEntity
  8
M0
 62
     2
100
AcDbLine
 10
265.947521
 20
61.750468
 11
266.493981
 21
62.296928
  0
LINE
  5
27E
100
AcDbEntity
  8
M0
 62
     2
100
AcDbLine
 10
265.946285
 20
61.75022
 11
266.494229
 21
62.298164
  0
LINE
  5
27F
100
AcDbEntity
  8
M0
 62
     2
100
AcDbLine
 10
265.945052
 20
61.749974
 11
266.494474
 21
62.299397
  0
LINE
  5
280
100
AcDbEntity
  8
M0
 62
     2
100
AcDbLine
 10
265.943821
 20
61.749732
 11
266.494717
 21
62.300627
  0
LINE
  5
281
100
AcDbEntity
  8
M0
 62
     2
100
AcDbLine
 10
265.942594
 20
61.749492
 11
266.494957
 21
62.301855
  0
LINE
  5
282
100
AcDbEntity
  8
M0
 62
     2
100
AcDbLine
 10
265.94137
 20
61.749255
 11
266.495193
 21
62.303079
  0
LINE
  5
283
100
AcDbEntity
  8
M0
 62
     2
100
AcDbLine
 10
265.940148
 20
61.749021
 11
266.495427
 21
62.304301
  0
LINE
  5
284
100
AcDbEntity
  8
M0
 62
     2
100
AcDbLine
 10
265.938929
 20
61.74879
 11
266.495659
 21
62.30552
  0
LINE
  5
285
100
AcDbEntity
  8
M0
 62
     2
100
AcDbLine
 10
265.937713
 20
61.748562
 11
266.495887
 21
62.306736
  0
LINE
  5
286
100
AcDbEntity
  8
M0
 62
     2
100
AcDbLine
 10
265.936499
 20
61.748336
 11
266.496113
 21
62.307949
  0
LINE
  5
287
100
AcDbEntity
  8
M0
 62
     2
100
AcDbLine
 10
265.935289
 20
61.748113
 11
266.496336
 21
62.30916
  0
LINE
  5
288
100
AcDbEntity
  8
M0
 62
     2
100
AcDbLine
 10
265.934081
 20
61.747893
 11
266.496556
 21
62.310368
  0
LINE
  5
289
100
AcDbEntity
  8
M0
 62
     2
100
AcDbLine
 10
265.932875
 20
61.747675
 11
266.496774
 21
62.311573
  0
LINE
  5
28A
100
AcDbEntity
  8
M0
 62
     2
100
AcDbLine
 10
265.931673
 20
61.74746
 11
266.496989
 21
62.312776
  0
LINE
  5
28B
100
AcDbEntity
  8
M0
 62
     2
100
AcDbLine
 10
265.930473
 20
61.747248
 11
266.497201
 21
62.313976
  0
LINE
  5
28C
100
AcDbEntity
  8
M0
 62
     2
100
AcDbLine
 10
265.929275
 20
61.747038
 11
266.497411
 21
62.315173
  0
LINE
  5
28D
100
AcDbEntity
  8
M0
 62
     2
100
AcDbLine
 10
265.928081
 20
61.746831
 11
266.497618
 21
62.316368
  0
LINE
  5
28E
100
AcDbEntity
  8
M0
 62
     2
100
AcDbLine
 10
265.926888
 20
61.746626
 11
266.497822
 21
62.317561
  0
LINE
  5
28F
100
AcDbEntity
  8
M0
 62
     2
100
AcDbLine
 10
265.925699
 20
61.746424
 11
266.498024
 21
62.31875
  0
LINE
  5
290
100
AcDbEntity
  8
M0
 62
     2
100
AcDbLine
 10
265.924511
 20
61.746225
 11
266.498224
 21
62.319937
  0
LINE
  5
291
100
AcDbEntity
  8
M0
 62
     2
100
AcDbLine
 10
265.923327
 20
61.746028
 11
266.498421
 21
62.321122
  0
LINE
  5
292
100
AcDbEntity
  8
M0
 62
     2
100
AcDbLine
 10
265.922145
 20
61.745833
 11
266.498615
 21
62.322304
  0
LINE
  5
293
100
AcDbEntity
  8
M0
 62
     2
100
AcDbLine
 10
265.920965
 20
61.745641
 11
266.498807
 21
62.323484
  0
LINE
  5
294
100
AcDbEntity
  8
M0
 62
     2
100
AcDbLine
 10
265.919788
 20
61.745452
 11
266.498997
 21
62.324661
  0
LINE
  5
295
100
AcDbEntity
  8
M0
 62
     2
100
AcDbLine
 10
265.918613
 20
61.745265
 11
266.499184
 21
62.325836
  0
LINE
  5
296
100
AcDbEntity
  8
M0
 62
     2
100
AcDbLine
 10
265.917441
 20
61.74508
 11
266.499368
 21
62.327008
  0
LINE
  5
297
100
AcDbEntity
  8
M0
 62
     2
100
AcDbLine
 10
265.916271
 20
61.744898
 11
266.499551
 21
62.328178
  0
LINE
  5
298
100
AcDbEntity
  8
M0
 62
     2
100
AcDbLine
 10
265.915103
 20
61.744718
 11
266.499731
 21
62.329345
  0
LINE
  5
299
100
AcDbEntity
  8
M0
 62
     2
100
AcDbLine
 10
265.913938
 20
61.744541
 11
266.499908
 21
62.330511
  0
LINE
  5
29A
100
AcDbEntity
  8
M0
 62
     2
100
AcDbLine
 10
265.912776
 20
61.744366
 11
266.500083
 21
62.331673
  0
LINE
  5
29B
100
AcDbEntity
  8
M0
 62
     2
100
AcDbLine
 10
265.911615
 20
61.744193
 11
266.500256
 21
62.332834
  0
LINE
  5
29C
100
AcDbEntity
  8
M0
 62
     2
100
AcDbLine
 10
265.910457
 20
61.744023
 11
266.500426
 21
62.333992
  0
LINE
  5
29D
100
AcDbEntity
  8
M0
 62
     2
100
AcDbLine
 10
265.909301
 20
61.743855
 11
266.500594
 21
62.335148
  0
LINE
  5
29E
100
AcDbEntity
  8
M0
 62
     2
100
AcDbLine
 10
265.908148
 20
61.743689
 11
266.50076
 21
62.336301
  0
LINE
  5
29F
100
AcDbEntity
  8
M0
 62
     2
100
AcDbLine
 10
265.906997
 20
61.743525
 11
266.500923
 21
62.337452
  0
LINE
  5
2A0
100
AcDbEntity
  8
M0
 62
     2
100
AcDbLine
 10
265.905848
 20
61.743364
 11
266.501085
 21
62.338601
  0
LINE
  5
2A1
100
AcDbEntity
  8
M0
 62
     2
100
AcDbLine
 10
265.904701
 20
61.743205
 11
266.501244
 21
62.339748
  0
LINE
  5
2A2
100
AcDbEntity
  8
M0
 62
     2
100
AcDbLine
 10
265.903557
 20
61.743049
 11
266.5014
 21
62.340892
  0
LINE
  5
2A3
100
AcDbEntity
  8
M0
 62
     2
100
AcDbLine
 10
265.902415
 20
61.742894
 11
266.501555
 21
62.342034
  0
LINE
  5
2A4
100
AcDbEntity
  8
M0
 62
     2
100
AcDbLine
 10
265.901275
 20
61.742742
 11
266.501707
 21
62.343174
  0
LINE
  5
2A5
100
AcDbEntity
  8
M0
 62
     2
100
AcDbLine
 10
265.900137
 20
61.742592
 11
266.501857
 21
62.344312
  0
LINE
  5
2A6
100
AcDbEntity
  8
M0
 62
     2
100
AcDbLine
 10
265.899001
 20
61.742444
 11
266.502005
 21
62.345447
  0
LINE
  5
2A7
100
AcDbEntity
  8
M0
 62
     2
100
AcDbLine
 10
265.897868
 20
61.742298
 11
266.502151
 21
62.346581
  0
LINE
  5
2A8
100
AcDbEntity
  8
M0
 62
     2
100
AcDbLine
 10
265.896737
 20
61.742155
 11
266.502294
 21
62.347712
  0
LINE
  5
2A9
100
AcDbEntity
  8
M0
 62
     2
100
AcDbLine
 10
265.895608
 20
61.742013
 11
266.502436
 21
62.348841
  0
LINE
  5
2AA
100
AcDbEntity
  8
M0
 62
     2
100
AcDbLine
 10
265.894481
 20
61.741874
 11
266.502575
 21
62.349968
  0
LINE
  5
2AB
100
AcDbEntity
  8
M0
 62
     2
100
AcDbLine
 10
265.893356
 20
61.741737
 11
266.502712
 21
62.351093
  0
LINE
  5
2AC
100
AcDbEntity
  8
M0
 62
     2
100
AcDbLine
 10
265.892233
 20
61.741602
 11
266.502847
 21
62.352216
  0
LINE
  5
2AD
100
AcDbEntity
  8
M0
 62
     2
100
AcDbLine
 10
265.891112
 20
61.741469
 11
266.50298
 21
62.353336
  0
LINE
  5
2AE
100
AcDbEntity
  8
M0
 62
     2
100
AcDbLine
 10
265.889994
 20
61.741338
 11
266.503111
 21
62.354455
  0
LINE
  5
2AF
100
AcDbEntity
  8
M0
 62
     2
100
AcDbLine
 10
265.888877
 20
61.741209
 11
266.50324
 21
62.355572
  0
LINE
  5
2B0
100
AcDbEntity
  8
M0
 62
     2
100
AcDbLine
 10
265.887763
 20
61.741082
 11
266.503367
 21
62.356686
  0
LINE
  5
2B1
100
AcDbEntity
  8
M0
 62
     2
100
AcDbLine
 10
265.88665
 20
61.740957
 11
266.503491
 21
62.357798
  0
LINE
  5
2B2
100
AcDbEntity
  8
M0
 62
     2
100
AcDbLine
 10
265.88554
 20
61.740835
 11
266.503614
 21
62.358909
  0
LINE
  5
2B3
100
AcDbEntity
  8
M0
 62
     2
100
AcDbLine
 10
265.884432
 20
61.740714
 11
266.503735
 21
62.360017
  0
LINE
  5
2B4
100
AcDbEntity
  8
M0
 62
     2
100
AcDbLine
 10
265.883325
 20
61.740595
 11
266.503853
 21
62.361124
  0
LINE
  5
2B5
100
AcDbEntity
  8
M0
 62
     2
100
AcDbLine
 10
265.882221
 20
61.740479
 11
266.50397
 21
62.362228
  0
LINE
  5
2B6
100
AcDbEntity
  8
M0
 62
     2
100
AcDbLine
 10
265.881118
 20
61.740364
 11
266.504085
 21
62.36333
  0
LINE
  5
2B7
100
AcDbEntity
  8
M0
 62
     2
100
AcDbLine
 10
265.880018
 20
61.740251
 11
266.504198
 21
62.364431
  0
LINE
  5
2B8
100
AcDbEntity
  8
M0
 62
     2
100
AcDbLine
 10
265.878919
 20
61.74014
 11
266.504308
 21
62.365529
  0
LINE
  5
2B9
100
AcDbEntity
  8
M0
 62
     2
100
AcDbLine
 10
265.877823
 20
61.740031
 11
266.504417
 21
62.366626
  0
LINE
  5
2BA
100
AcDbEntity
  8
M0
 62
     2
100
AcDbLine
 10
265.876728
 20
61.739925
 11
266.504524
 21
62.367721
  0
LINE
  5
2BB
100
AcDbEntity
  8
M0
 62
     2
100
AcDbLine
 10
265.875636
 20
61.73982
 11
266.504629
 21
62.368813
  0
LINE
  5
2BC
100
AcDbEntity
  8
M0
 62
     2
100
AcDbLine
 10
265.874545
 20
61.739716
 11
266.504732
 21
62.369904
  0
LINE
  5
2BD
100
AcDbEntity
  8
M0
 62
     2
100
AcDbLine
 10
265.873456
 20
61.739615
 11
266.504834
 21
62.370993
  0
LINE
  5
2BE
100
AcDbEntity
  8
M0
 62
     2
100
AcDbLine
 10
265.872369
 20
61.739516
 11
266.504933
 21
62.37208
  0
LINE
  5
2BF
100
AcDbEntity
  8
M0
 62
     2
100
AcDbLine
 10
265.871284
 20
61.739419
 11
266.50503
 21
62.373165
  0
LINE
  5
2C0
100
AcDbEntity
  8
M0
 62
     2
100
AcDbLine
 10
265.870201
 20
61.739323
 11
266.505126
 21
62.374248
  0
LINE
  5
2C1
100
AcDbEntity
  8
M0
 62
     2
100
AcDbLine
 10
265.869119
 20
61.739229
 11
266.505219
 21
62.37533
  0
LINE
  5
2C2
100
AcDbEntity
  8
M0
 62
     2
100
AcDbLine
 10
265.86804
 20
61.739138
 11
266.505311
 21
62.376409
  0
LINE
  5
2C3
100
AcDbEntity
  8
M0
 62
     2
100
AcDbLine
 10
265.866962
 20
61.739048
 11
266.505401
 21
62.377487
  0
LINE
  5
2C4
100
AcDbEntity
  8
M0
 62
     2
100
AcDbLine
 10
265.865886
 20
61.738959
 11
266.505489
 21
62.378563
  0
LINE
  5
2C5
100
AcDbEntity
  8
M0
 62
     2
100
AcDbLine
 10
265.864812
 20
61.738873
 11
266.505576
 21
62.379637
  0
LINE
  5
2C6
100
AcDbEntity
  8
M0
 62
     2
100
AcDbLine
 10
265.86374
 20
61.738788
 11
266.50566
 21
62.380709
  0
LINE
  5
2C7
100
AcDbEntity
  8
M0
 62
     2
100
AcDbLine
 10
265.86267
 20
61.738706
 11
266.505743
 21
62.381779
  0
LINE
  5
2C8
100
AcDbEntity
  8
M0
 62
     2
100
AcDbLine
 10
265.861601
 20
61.738625
 11
266.505824
 21
62.382848
  0
LINE
  5
2C9
100
AcDbEntity
  8
M0
 62
     2
100
AcDbLine
 10
265.860534
 20
61.738546
 11
266.505903
 21
62.383915
  0
LINE
  5
2CA
100
AcDbEntity
  8
M0
 62
     2
100
AcDbLine
 10
265.859469
 20
61.738468
 11
266.505981
 21
62.38498
  0
LINE
  5
2CB
100
AcDbEntity
  8
M0
 62
     2
100
AcDbLine
 10
265.858406
 20
61.738393
 11
266.506056
 21
62.386043
  0
LINE
  5
2CC
100
AcDbEntity
  8
M0
 62
     2
100
AcDbLine
 10
265.857344
 20
61.738319
 11
266.50613
 21
62.387105
  0
LINE
  5
2CD
100
AcDbEntity
  8
M0
 62
     2
100
AcDbLine
 10
265.856284
 20
61.738247
 11
266.506202
 21
62.388165
  0
LINE
  5
2CE
100
AcDbEntity
  8
M0
 62
     2
100
AcDbLine
 10
265.855226
 20
61.738176
 11
266.506273
 21
62.389223
  0
LINE
  5
2CF
100
AcDbEntity
  8
M0
 62
     2
100
AcDbLine
 10
265.85417
 20
61.738107
 11
266.506341
 21
62.390279
  0
LINE
  5
2D0
100
AcDbEntity
  8
M0
 62
     2
100
AcDbLine
 10
265.853115
 20
61.73804
 11
266.506408
 21
62.391334
  0
LINE
  5
2D1
100
AcDbEntity
  8
M0
 62
     2
100
AcDbLine
 10
265.852062
 20
61.737975
 11
266.506474
 21
62.392387
  0
LINE
  5
2D2
100
AcDbEntity
  8
M0
 62
     2
100
AcDbLine
 10
265.851011
 20
61.737912
 11
266.506537
 21
62.393438
  0
LINE
  5
2D3
100
AcDbEntity
  8
M0
 62
     2
100
AcDbLine
 10
265.849961
 20
61.73785
 11
266.506599
 21
62.394488
  0
LINE
  5
2D4
100
AcDbEntity
  8
M0
 62
     2
100
AcDbLine
 10
265.848913
 20
61.737789
 11
266.506659
 21
62.395535
  0
LINE
  5
2D5
100
AcDbEntity
  8
M0
 62
     2
100
AcDbLine
 10
265.847867
 20
61.737731
 11
266.506718
 21
62.396582
  0
LINE
  5
2D6
100
AcDbEntity
  8
M0
 62
     2
100
AcDbLine
 10
265.846823
 20
61.737674
 11
266.506775
 21
62.397626
  0
LINE
  5
2D7
100
AcDbEntity
  8
M0
 62
     2
100
AcDbLine
 10
265.84578
 20
61.737619
 11
266.50683
 21
62.398669
  0
LINE
  5
2D8
100
AcDbEntity
  8
M0
 62
     2
100
AcDbLine
 10
265.844738
 20
61.737565
 11
266.506884
 21
62.39971
  0
LINE
  5
2D9
100
AcDbEntity
  8
M0
 62
     2
100
AcDbLine
 10
265.843699
 20
61.737513
 11
266.506935
 21
62.40075
  0
LINE
  5
2DA
100
AcDbEntity
  8
M0
 62
     2
100
AcDbLine
 10
265.842661
 20
61.737463
 11
266.506986
 21
62.401788
  0
LINE
  5
2DB
100
AcDbEntity
  8
M0
 62
     2
100
AcDbLine
 10
265.841624
 20
61.737414
 11
266.507034
 21
62.402824
  0
LINE
  5
2DC
100
AcDbEntity
  8
M0
 62
     2
100
AcDbLine
 10
265.84059
 20
61.737367
 11
266.507081
 21
62.403859
  0
LINE
  5
2DD
100
AcDbEntity
  8
M0
 62
     2
100
AcDbLine
 10
265.839557
 20
61.737322
 11
266.507127
 21
62.404892
  0
LINE
  5
2DE
100
AcDbEntity
  8
M0
 62
     2
100
AcDbLine
 10
265.838525
 20
61.737278
 11
266.507171
 21
62.405924
  0
LINE
  5
2DF
100
AcDbEntity
  8
M0
 62
     2
100
AcDbLine
 10
265.837495
 20
61.737236
 11
266.507213
 21
62.406954
  0
LINE
  5
2E0
100
AcDbEntity
  8
M0
 62
     2
100
AcDbLine
 10
265.836467
 20
61.737195
 11
266.507254
 21
62.407982
  0
LINE
  5
2E1
100
AcDbEntity
  8
M0
 62
     2
100
AcDbLine
 10
265.83544
 20
61.737156
 11
266.507293
 21
62.409009
  0
LINE
  5
2E2
100
AcDbEntity
  8
M0
 62
     2
100
AcDbLine
 10
265.834415
 20
61.737119
 11
266.50733
 21
62.410034
  0
LINE
  5
2E3
100
AcDbEntity
  8
M0
 62
     2
100
AcDbLine
 10
265.833391
 20
61.737083
 11
266.507366
 21
62.411058
  0
LINE
  5
2E4
100
AcDbEntity
  8
M0
 62
     2
100
AcDbLine
 10
265.832369
 20
61.737048
 11
266.507401
 21
62.41208
  0
LINE
  5
2E5
100
AcDbEntity
  8
M0
 62
     2
100
AcDbLine
 10
265.831348
 20
61.737015
 11
266.507434
 21
62.4131
  0
LINE
  5
2E6
100
AcDbEntity
  8
M0
 62
     2
100
AcDbLine
 10
265.830329
 20
61.736984
 11
266.507465
 21
62.414119
  0
LINE
  5
2E7
100
AcDbEntity
  8
M0
 62
     2
100
AcDbLine
 10
265.829312
 20
61.736954
 11
266.507495
 21
62.415137
  0
LINE
  5
2E8
100
AcDbEntity
  8
M0
 62
     2
100
AcDbLine
 10
265.828296
 20
61.736926
 11
266.507523
 21
62.416153
  0
LINE
  5
2E9
100
AcDbEntity
  8
M0
 62
     2
100
AcDbLine
 10
265.827282
 20
61.736899
 11
266.50755
 21
62.417167
  0
LINE
  5
2EA
100
AcDbEntity
  8
M0
 62
     2
100
AcDbLine
 10
265.826269
 20
61.736874
 11
266.507575
 21
62.41818
  0
LINE
  5
2EB
100
AcDbEntity
  8
M0
 62
     2
100
AcDbLine
 10
265.825257
 20
61.73685
 11
266.507599
 21
62.419192
  0
LINE
  5
2EC
100
AcDbEntity
  8
M0
 62
     2
100
AcDbLine
 10
265.824247
 20
61.736828
 11
266.507621
 21
62.420202
  0
LINE
  5
2ED
100
AcDbEntity
  8
M0
 62
     2
100
AcDbLine
 10
265.823239
 20
61.736807
 11
266.507642
 21
62.42121
  0
LINE
  5
2EE
100
AcDbEntity
  8
M0
 62
     2
100
AcDbLine
 10
265.822232
 20
61.736788
 11
266.507661
 21
62.422217
  0
LINE
  5
2EF
100
AcDbEntity
  8
M0
 62
     2
100
AcDbLine
 10
265.821226
 20
61.73677
 11
266.507679
 21
62.423222
  0
LINE
  5
2F0
100
AcDbEntity
  8
M0
 62
     2
100
AcDbLine
 10
265.820222
 20
61.736754
 11
266.507695
 21
62.424226
  0
LINE
  5
2F1
100
AcDbEntity
  8
M0
 62
     2
100
AcDbLine
 10
265.81922
 20
61.736739
 11
266.50771
 21
62.425229
  0
LINE
  5
2F2
100
AcDbEntity
  8
M0
 62
     2
100
AcDbLine
 10
265.818219
 20
61.736726
 11
266.507723
 21
62.42623
  0
LINE
  5
2F3
100
AcDbEntity
  8
M0
 62
     2
100
AcDbLine
 10
265.817219
 20
61.736714
 11
266.507735
 21
62.42723
  0
LINE
  5
2F4
100
AcDbEntity
  8
M0
 62
     2
100
AcDbLine
 10
265.816221
 20
61.736703
 11
266.507746
 21
62.428228
  0
LINE
  5
2F5
100
AcDbEntity
  8
M0
 62
     2
100
AcDbLine
 10
265.815224
 20
61.736694
 11
266.507755
 21
62.429225
  0
LINE
  5
2F6
100
AcDbEntity
  8
M0
 62
     2
100
AcDbLine
 10
265.814229
 20
61.736686
 11
266.507762
 21
62.43022
  0
LINE
  5
2F7
100
AcDbEntity
  8
M0
 62
     2
100
AcDbLine
 10
265.813235
 20
61.73668
 11
266.507769
 21
62.431214
  0
LINE
  5
2F8
100
AcDbEntity
  8
M0
 62
     2
100
AcDbLine
 10
265.812243
 20
61.736676
 11
266.507773
 21
62.432206
  0
LINE
  5
2F9
100
AcDbEntity
  8
M0
 62
     2
100
AcDbLine
 10
265.811252
 20
61.736672
 11
266.507777
 21
62.433197
  0
LINE
  5
2FA
100
AcDbEntity
  8
M0
 62
     2
100
AcDbLine
 10
265.810262
 20
61.73667
 11
266.507779
 21
62.434187
  0
LINE
  5
2FB
100
AcDbEntity
  8
M0
 62
     2
100
AcDbLine
 10
265.809274
 20
61.73667
 11
266.507779
 21
62.435175
  0
LINE
  5
2FC
100
AcDbEntity
  8
M0
 62
     2
100
AcDbLine
 10
265.808287
 20
61.73667
 11
266.507778
 21
62.436162
  0
LINE
  5
2FD
100
AcDbEntity
  8
M0
 62
     2
100
AcDbLine
 10
265.807301
 20
61.736673
 11
266.507776
 21
62.437147
  0
LINE
  5
2FE
100
AcDbEntity
  8
M0
 62
     2
100
AcDbLine
 10
265.806317
 20
61.736676
 11
266.507772
 21
62.438131
  0
LINE
  5
2FF
100
AcDbEntity
  8
M0
 62
     2
100
AcDbLine
 10
265.805335
 20
61.736681
 11
266.507767
 21
62.439114
  0
LINE
  5
300
100
AcDbEntity
  8
M0
 62
     2
100
AcDbLine
 10
265.804353
 20
61.736688
 11
266.507761
 21
62.440095
  0
LINE
  5
301
100
AcDbEntity
  8
M0
 62
     2
100
AcDbLine
 10
265.803373
 20
61.736695
 11
266.507753
 21
62.441075
  0
LINE
  5
302
100
AcDbEntity
  8
M0
 62
     2
100
AcDbLine
 10
265.802395
 20
61.736705
 11
266.507744
 21
62.442054
  0
LINE
  5
303
100
AcDbEntity
  8
M0
 62
     2
100
AcDbLine
 10
265.801418
 20
61.736715
 11
266.507734
 21
62.443031
  0
LINE
  5
304
100
AcDbEntity
  8
M0
 62
     2
100
AcDbLine
 10
265.800442
 20
61.736727
 11
266.507722
 21
62.444007
  0
LINE
  5
305
100
AcDbEntity
  8
M0
 62
     2
100
AcDbLine
 10
265.799467
 20
61.73674
 11
266.507709
 21
62.444982
  0
LINE
  5
306
100
AcDbEntity
  8
M0
 62
     2
100
AcDbLine
 10
265.798494
 20
61.736754
 11
266.507694
 21
62.445955
  0
LINE
  5
307
100
AcDbEntity
  8
M0
 62
     2
100
AcDbLine
 10
265.797522
 20
61.73677
 11
266.507679
 21
62.446927
  0
LINE
  5
308
100
AcDbEntity
  8
M0
 62
     2
100
AcDbLine
 10
265.796552
 20
61.736787
 11
266.507661
 21
62.447897
  0
LINE
  5
309
100
AcDbEntity
  8
M0
 62
     2
100
AcDbLine
 10
265.795582
 20
61.736806
 11
266.507643
 21
62.448866
  0
LINE
  5
30A
100
AcDbEntity
  8
M0
 62
     2
100
AcDbLine
 10
265.794614
 20
61.736826
 11
266.507623
 21
62.449834
  0
LINE
  5
30B
100
AcDbEntity
  8
M0
 62
     2
100
AcDbLine
 10
265.793648
 20
61.736847
 11
266.507602
 21
62.450801
  0
LINE
  5
30C
100
AcDbEntity
  8
M0
 62
     2
100
AcDbLine
 10
265.792683
 20
61.736869
 11
266.50758
 21
62.451766
  0
LINE
  5
30D
100
AcDbEntity
  8
M0
 62
     2
100
AcDbLine
 10
265.791719
 20
61.736893
 11
266.507556
 21
62.45273
  0
LINE
  5
30E
100
AcDbEntity
  8
M0
 62
     2
100
AcDbLine
 10
265.790756
 20
61.736918
 11
266.507531
 21
62.453693
  0
LINE
  5
30F
100
AcDbEntity
  8
M0
 62
     2
100
AcDbLine
 10
265.789795
 20
61.736944
 11
266.507505
 21
62.454654
  0
LINE
  5
310
100
AcDbEntity
  8
M0
 62
     2
100
AcDbLine
 10
265.788835
 20
61.736972
 11
266.507477
 21
62.455614
  0
LINE
  5
311
100
AcDbEntity
  8
M0
 62
     2
100
AcDbLine
 10
265.787876
 20
61.737001
 11
266.507448
 21
62.456573
  0
LINE
  5
312
100
AcDbEntity
  8
M0
 62
     2
100
AcDbLine
 10
265.786918
 20
61.737031
 11
266.507418
 21
62.457531
  0
LINE
  5
313
100
AcDbEntity
  8
M0
 62
     2
100
AcDbLine
 10
265.785962
 20
61.737062
 11
266.507386
 21
62.458487
  0
LINE
  5
314
100
AcDbEntity
  8
M0
 62
     2
100
AcDbLine
 10
265.785007
 20
61.737095
 11
266.507354
 21
62.459442
  0
LINE
  5
315
100
AcDbEntity
  8
M0
 62
     2
100
AcDbLine
 10
265.784053
 20
61.737129
 11
266.50732
 21
62.460396
  0
LINE
  5
316
100
AcDbEntity
  8
M0
 62
     2
100
AcDbLine
 10
265.783101
 20
61.737164
 11
266.507285
 21
62.461348
  0
LINE
  5
317
100
AcDbEntity
  8
M0
 62
     2
100
AcDbLine
 10
265.78215
 20
61.737201
 11
266.507248
 21
62.462299
  0
LINE
  5
318
100
AcDbEntity
  8
M0
 62
     2
100
AcDbLine
 10
265.7812
 20
61.737238
 11
266.50721
 21
62.463249
  0
LINE
  5
319
100
AcDbEntity
  8
M0
 62
     2
100
AcDbLine
 10
265.780251
 20
61.737277
 11
266.507171
 21
62.464198
  0
LINE
  5
31A
100
AcDbEntity
  8
M0
 62
     2
100
AcDbLine
 10
265.779303
 20
61.737318
 11
266.507131
 21
62.465146
  0
LINE
  5
31B
100
AcDbEntity
  8
M0
 62
     2
100
AcDbLine
 10
265.778357
 20
61.737359
 11
266.50709
 21
62.466092
  0
LINE
  5
31C
100
AcDbEntity
  8
M0
 62
     2
100
AcDbLine
 10
265.777412
 20
61.737402
 11
266.507047
 21
62.467037
  0
LINE
  5
31D
100
AcDbEntity
  8
M0
 62
     2
100
AcDbLine
 10
265.776468
 20
61.737446
 11
266.507003
 21
62.467981
  0
LINE
  5
31E
100
AcDbEntity
  8
M0
 62
     2
100
AcDbLine
 10
265.775526
 20
61.737491
 11
266.506958
 21
62.468923
  0
LINE
  5
31F
100
AcDbEntity
  8
M0
 62
     2
100
AcDbLine
 10
265.774584
 20
61.737537
 11
266.506912
 21
62.469865
  0
LINE
  5
320
100
AcDbEntity
  8
M0
 62
     2
100
AcDbLine
 10
265.773644
 20
61.737584
 11
266.506864
 21
62.470805
  0
LINE
  5
321
100
AcDbEntity
  8
M0
 62
     2
100
AcDbLine
 10
265.772705
 20
61.737633
 11
266.506816
 21
62.471744
  0
LINE
  5
322
100
AcDbEntity
  8
M0
 62
     2
100
AcDbLine
 10
265.771767
 20
61.737683
 11
266.506766
 21
62.472681
  0
LINE
  5
323
100
AcDbEntity
  8
M0
 62
     2
100
AcDbLine
 10
265.770831
 20
61.737734
 11
266.506715
 21
62.473618
  0
LINE
  5
324
100
AcDbEntity
  8
M0
 62
     2
100
AcDbLine
 10
265.769896
 20
61.737787
 11
266.506662
 21
62.474553
  0
LINE
  5
325
100
AcDbEntity
  8
M0
 62
     2
100
AcDbLine
 10
265.768961
 20
61.73784
 11
266.506609
 21
62.475487
  0
LINE
  5
326
100
AcDbEntity
  8
M0
 62
     2
100
AcDbLine
 10
265.768028
 20
61.737895
 11
266.506554
 21
62.47642
  0
LINE
  5
327
100
AcDbEntity
  8
M0
 62
     2
100
AcDbLine
 10
265.767097
 20
61.737951
 11
266.506498
 21
62.477352
  0
LINE
  5
328
100
AcDbEntity
  8
M0
 62
     2
100
AcDbLine
 10
265.766166
 20
61.738008
 11
266.506441
 21
62.478283
  0
LINE
  5
329
100
AcDbEntity
  8
M0
 62
     2
100
AcDbLine
 10
265.765237
 20
61.738066
 11
266.506383
 21
62.479212
  0
LINE
  5
32A
100
AcDbEntity
  8
M0
 62
     2
100
AcDbLine
 10
265.764308
 20
61.738125
 11
266.506323
 21
62.480141
  0
LINE
  5
32B
100
AcDbEntity
  8
M0
 62
     2
100
AcDbLine
 10
265.763381
 20
61.738186
 11
266.506263
 21
62.481068
  0
LINE
  5
32C
100
AcDbEntity
  8
M0
 62
     2
100
AcDbLine
 10
265.762455
 20
61.738248
 11
266.506201
 21
62.481994
  0
LINE
  5
32D
100
AcDbEntity
  8
M0
 62
     2
100
AcDbLine
 10
265.76153
 20
61.738311
 11
266.506138
 21
62.482918
  0
LINE
  5
32E
100
AcDbEntity
  8
M0
 62
     2
100
AcDbLine
 10
265.760607
 20
61.738375
 11
266.506074
 21
62.483842
  0
LINE
  5
32F
100
AcDbEntity
  8
M0
 62
     2
100
AcDbLine
 10
265.759684
 20
61.73844
 11
266.506009
 21
62.484765
  0
LINE
  5
330
100
AcDbEntity
  8
M0
 62
     2
100
AcDbLine
 10
265.758763
 20
61.738506
 11
266.505943
 21
62.485686
  0
LINE
  5
331
100
AcDbEntity
  8
M0
 62
     2
100
AcDbLine
 10
265.757843
 20
61.738574
 11
266.505875
 21
62.486606
  0
LINE
  5
332
100
AcDbEntity
  8
M0
 62
     2
100
AcDbLine
 10
265.756924
 20
61.738642
 11
266.505806
 21
62.487525
  0
LINE
  5
333
100
AcDbEntity
  8
M0
 62
     2
100
AcDbLine
 10
265.756006
 20
61.738712
 11
266.505737
 21
62.488443
  0
LINE
  5
334
100
AcDbEntity
  8
M0
 62
     2
100
AcDbLine
 10
265.755089
 20
61.738783
 11
266.505666
 21
62.48936
  0
LINE
  5
335
100
AcDbEntity
  8
M0
 62
     2
100
AcDbLine
 10
265.754173
 20
61.738855
 11
266.505594
 21
62.490276
  0
LINE
  5
336
100
AcDbEntity
  8
M0
 62
     2
100
AcDbLine
 10
265.753259
 20
61.738928
 11
266.505521
 21
62.49119
  0
LINE
  5
337
100
AcDbEntity
  8
M0
 62
     2
100
AcDbLine
 10
265.752345
 20
61.739002
 11
266.505446
 21
62.492104
  0
LINE
  5
338
100
AcDbEntity
  8
M0
 62
     2
100
AcDbLine
 10
265.751433
 20
61.739078
 11
266.505371
 21
62.493016
  0
LINE
  5
339
100
AcDbEntity
  8
M0
 62
     2
100
AcDbLine
 10
265.750522
 20
61.739154
 11
266.505295
 21
62.493927
  0
LINE
  5
33A
100
AcDbEntity
  8
M0
 62
     2
100
AcDbLine
 10
265.749612
 20
61.739232
 11
266.505217
 21
62.494837
  0
LINE
  5
33B
100
AcDbEntity
  8
M0
 62
     2
100
AcDbLine
 10
265.748703
 20
61.73931
 11
266.505138
 21
62.495746
  0
LINE
  5
33C
100
AcDbEntity
  8
M0
 62
     2
100
AcDbLine
 10
265.747795
 20
61.73939
 11
266.505059
 21
62.496654
  0
LINE
  5
33D
100
AcDbEntity
  8
M0
 62
     2
100
AcDbLine
 10
265.746888
 20
61.739471
 11
266.504978
 21
62.497561
  0
LINE
  5
33E
100
AcDbEntity
  8
M0
 62
     2
100
AcDbLine
 10
265.745982
 20
61.739553
 11
266.504896
 21
62.498467
  0
LINE
  5
33F
100
AcDbEntity
  8
M0
 62
     2
100
AcDbLine
 10
265.745077
 20
61.739636
 11
266.504813
 21
62.499371
  0
LINE
  5
340
100
AcDbEntity
  8
M0
 62
     2
100
AcDbLine
 10
265.744174
 20
61.73972
 11
266.504729
 21
62.500275
  0
LINE
  5
341
100
AcDbEntity
  8
M0
 62
     2
100
AcDbLine
 10
265.743271
 20
61.739805
 11
266.504643
 21
62.501177
  0
LINE
  5
342
100
AcDbEntity
  8
M0
 62
     2
100
AcDbLine
 10
265.74237
 20
61.739892
 11
266.504557
 21
62.502079
  0
LINE
  5
343
100
AcDbEntity
  8
M0
 62
     2
100
AcDbLine
 10
265.74147
 20
61.739979
 11
266.50447
 21
62.502979
  0
LINE
  5
344
100
AcDbEntity
  8
M0
 62
     2
100
AcDbLine
 10
265.74057
 20
61.740068
 11
266.504381
 21
62.503878
  0
LINE
  5
345
100
AcDbEntity
  8
M0
 62
     2
100
AcDbLine
 10
265.739672
 20
61.740157
 11
266.504292
 21
62.504777
  0
LINE
  5
346
100
AcDbEntity
  8
M0
 62
     2
100
AcDbLine
 10
265.738775
 20
61.740248
 11
266.504201
 21
62.505674
  0
LINE
  5
347
100
AcDbEntity
  8
M0
 62
     2
100
AcDbLine
 10
265.737879
 20
61.740339
 11
266.50411
 21
62.50657
  0
LINE
  5
348
100
AcDbEntity
  8
M0
 62
     2
100
AcDbLine
 10
265.736984
 20
61.740432
 11
266.504017
 21
62.507465
  0
LINE
  5
349
100
AcDbEntity
  8
M0
 62
     2
100
AcDbLine
 10
265.73609
 20
61.740526
 11
266.503923
 21
62.508359
  0
LINE
  5
34A
100
AcDbEntity
  8
M0
 62
     2
100
AcDbLine
 10
265.735197
 20
61.74062
 11
266.503828
 21
62.509252
  0
LINE
  5
34B
100
AcDbEntity
  8
M0
 62
     2
100
AcDbLine
 10
265.734305
 20
61.740716
 11
266.503732
 21
62.510143
  0
LINE
  5
34C
100
AcDbEntity
  8
M0
 62
     2
100
AcDbLine
 10
265.733415
 20
61.740813
 11
266.503636
 21
62.511034
  0
LINE
  5
34D
100
AcDbEntity
  8
M0
 62
     2
100
AcDbLine
 10
265.732525
 20
61.740911
 11
266.503538
 21
62.511924
  0
LINE
  5
34E
100
AcDbEntity
  8
M0
 62
     2
100
AcDbLine
 10
265.731636
 20
61.74101
 11
266.503439
 21
62.512813
  0
LINE
  5
34F
100
AcDbEntity
  8
M0
 62
     2
100
AcDbLine
 10
265.730749
 20
61.74111
 11
266.503339
 21
62.5137
  0
LINE
  5
350
100
AcDbEntity
  8
M0
 62
     2
100
AcDbLine
 10
265.729862
 20
61.741211
 11
266.503238
 21
62.514587
  0
LINE
  5
351
100
AcDbEntity
  8
M0
 62
     2
100
AcDbLine
 10
265.728976
 20
61.741313
 11
266.503136
 21
62.515473
  0
LINE
  5
352
100
AcDbEntity
  8
M0
 62
     2
100
AcDbLine
 10
265.728092
 20
61.741416
 11
266.503032
 21
62.516357
  0
LINE
  5
353
100
AcDbEntity
  8
M0
 62
     2
100
AcDbLine
 10
265.727208
 20
61.74152
 11
266.502928
 21
62.517241
  0
LINE
  5
354
100
AcDbEntity
  8
M0
 62
     2
100
AcDbLine
 10
265.726326
 20
61.741626
 11
266.502823
 21
62.518123
  0
LINE
  5
355
100
AcDbEntity
  8
M0
 62
     2
100
AcDbLine
 10
265.725444
 20
61.741732
 11
266.502717
 21
62.519005
  0
LINE
  5
356
100
AcDbEntity
  8
M0
 62
     2
100
AcDbLine
 10
265.724563
 20
61.741839
 11
266.50261
 21
62.519885
  0
LINE
  5
357
100
AcDbEntity
  8
M0
 62
     2
100
AcDbLine
 10
265.723684
 20
61.741947
 11
266.502502
 21
62.520765
  0
LINE
  5
358
100
AcDbEntity
  8
M0
 62
     2
100
AcDbLine
 10
265.722805
 20
61.742056
 11
266.502393
 21
62.521643
  0
LINE
  5
359
100
AcDbEntity
  8
M0
 62
     2
100
AcDbLine
 10
265.721928
 20
61.742166
 11
266.502282
 21
62.522521
  0
LINE
  5
35A
100
AcDbEntity
  8
M0
 62
     2
100
AcDbLine
 10
265.721051
 20
61.742278
 11
266.502171
 21
62.523397
  0
LINE
  5
35B
100
AcDbEntity
  8
M0
 62
     2
100
AcDbLine
 10
265.720176
 20
61.74239
 11
266.502059
 21
62.524273
  0
LINE
  5
35C
100
AcDbEntity
  8
M0
 62
     2
100
AcDbLine
 10
265.719301
 20
61.742503
 11
266.501946
 21
62.525147
  0
LINE
  5
35D
100
AcDbEntity
  8
M0
 62
     2
100
AcDbLine
 10
265.718428
 20
61.742617
 11
266.501832
 21
62.526021
  0
LINE
  5
35E
100
AcDbEntity
  8
M0
 62
     2
100
AcDbLine
 10
265.717555
 20
61.742732
 11
266.501716
 21
62.526893
  0
LINE
  5
35F
100
AcDbEntity
  8
M0
 62
     2
100
AcDbLine
 10
265.716684
 20
61.742848
 11
266.5016
 21
62.527765
  0
LINE
  5
360
100
AcDbEntity
  8
M0
 62
     2
100
AcDbLine
 10
265.715813
 20
61.742966
 11
266.501483
 21
62.528635
  0
LINE
  5
361
100
AcDbEntity
  8
M0
 62
     2
100
AcDbLine
 10
265.714944
 20
61.743084
 11
266.501365
 21
62.529505
  0
LINE
  5
362
100
AcDbEntity
  8
M0
 62
     2
100
AcDbLine
 10
265.714075
 20
61.743203
 11
266.501246
 21
62.530374
  0
LINE
  5
363
100
AcDbEntity
  8
M0
 62
     2
100
AcDbLine
 10
265.713208
 20
61.743323
 11
266.501126
 21
62.531241
  0
LINE
  5
364
100
AcDbEntity
  8
M0
 62
     2
100
AcDbLine
 10
265.712341
 20
61.743444
 11
266.501005
 21
62.532108
  0
LINE
  5
365
100
AcDbEntity
  8
M0
 62
     2
100
AcDbLine
 10
265.711475
 20
61.743566
 11
266.500883
 21
62.532974
  0
LINE
  5
366
100
AcDbEntity
  8
M0
 62
     2
100
AcDbLine
 10
265.710611
 20
61.743689
 11
266.50076
 21
62.533838
  0
LINE
  5
367
100
AcDbEntity
  8
M0
 62
     2
100
AcDbLine
 10
265.709747
 20
61.743813
 11
266.500636
 21
62.534702
  0
LINE
  5
368
100
AcDbEntity
  8
M0
 62
     2
100
AcDbLine
 10
265.708884
 20
61.743938
 11
266.500511
 21
62.535565
  0
LINE
  5
369
100
AcDbEntity
  8
M0
 62
     2
100
AcDbLine
 10
265.708022
 20
61.744064
 11
266.500385
 21
62.536427
  0
LINE
  5
36A
100
AcDbEntity
  8
M0
 62
     2
100
AcDbLine
 10
265.707161
 20
61.74419
 11
266.500258
 21
62.537288
  0
LINE
  5
36B
100
AcDbEntity
  8
M0
 62
     2
100
AcDbLine
 10
265.706301
 20
61.744318
 11
266.500131
 21
62.538147
  0
LINE
  5
36C
100
AcDbEntity
  8
M0
 62
     2
100
AcDbLine
 10
265.705442
 20
61.744447
 11
266.500002
 21
62.539006
  0
LINE
  5
36D
100
AcDbEntity
  8
M0
 62
     2
100
AcDbLine
 10
265.704584
 20
61.744577
 11
266.499872
 21
62.539864
  0
LINE
  5
36E
100
AcDbEntity
  8
M0
 62
     2
100
AcDbLine
 10
265.703727
 20
61.744707
 11
266.499742
 21
62.540721
  0
LINE
  5
36F
100
AcDbEntity
  8
M0
 62
     2
100
AcDbLine
 10
265.702871
 20
61.744839
 11
266.49961
 21
62.541578
  0
LINE
  5
370
100
AcDbEntity
  8
M0
 62
     2
100
AcDbLine
 10
265.702016
 20
61.744971
 11
266.499478
 21
62.542433
  0
LINE
  5
371
100
AcDbEntity
  8
M0
 62
     2
100
AcDbLine
 10
265.701162
 20
61.745105
 11
266.499344
 21
62.543287
  0
LINE
  5
372
100
AcDbEntity
  8
M0
 62
     2
100
AcDbLine
 10
265.700308
 20
61.745239
 11
266.49921
 21
62.54414
  0
LINE
  5
373
100
AcDbEntity
  8
M0
 62
     2
100
AcDbLine
 10
265.699456
 20
61.745374
 11
266.499074
 21
62.544993
  0
LINE
  5
374
100
AcDbEntity
  8
M0
 62
     2
100
AcDbLine
 10
265.698605
 20
61.745511
 11
266.498938
 21
62.545844
  0
LINE
  5
375
100
AcDbEntity
  8
M0
 62
     2
100
AcDbLine
 10
265.697754
 20
61.745648
 11
266.498801
 21
62.546695
  0
LINE
  5
376
100
AcDbEntity
  8
M0
 62
     2
100
AcDbLine
 10
265.696905
 20
61.745786
 11
266.498663
 21
62.547544
  0
LINE
  5
377
100
AcDbEntity
  8
M0
 62
     2
100
AcDbLine
 10
265.696056
 20
61.745925
 11
266.498524
 21
62.548393
  0
LINE
  5
378
100
AcDbEntity
  8
M0
 62
     2
100
AcDbLine
 10
265.695208
 20
61.746065
 11
266.498384
 21
62.549241
  0
LINE
  5
379
100
AcDbEntity
  8
M0
 62
     2
100
AcDbLine
 10
265.694361
 20
61.746206
 11
266.498243
 21
62.550088
  0
LINE
  5
37A
100
AcDbEntity
  8
M0
 62
     2
100
AcDbLine
 10
265.693515
 20
61.746348
 11
266.498101
 21
62.550933
  0
LINE
  5
37B
100
AcDbEntity
  8
M0
 62
     2
100
AcDbLine
 10
265.69267
 20
61.74649
 11
266.497959
 21
62.551778
  0
LINE
  5
37C
100
AcDbEntity
  8
M0
 62
     2
100
AcDbLine
 10
265.691826
 20
61.746634
 11
266.497815
 21
62.552623
  0
LINE
  5
37D
100
AcDbEntity
  8
M0
 62
     2
100
AcDbLine
 10
265.690983
 20
61.746778
 11
266.49767
 21
62.553466
  0
LINE
  5
37E
100
AcDbEntity
  8
M0
 62
     2
100
AcDbLine
 10
265.690141
 20
61.746924
 11
266.497525
 21
62.554308
  0
LINE
  5
37F
100
AcDbEntity
  8
M0
 62
     2
100
AcDbLine
 10
265.689299
 20
61.74707
 11
266.497379
 21
62.555149
  0
LINE
  5
380
100
AcDbEntity
  8
M0
 62
     2
100
AcDbLine
 10
265.688459
 20
61.747217
 11
266.497232
 21
62.55599
  0
LINE
  5
381
100
AcDbEntity
  8
M0
 62
     2
100
AcDbLine
 10
265.687619
 20
61.747365
 11
266.497083
 21
62.556829
  0
LINE
  5
382
100
AcDbEntity
  8
M0
 62
     2
100
AcDbLine
 10
265.686781
 20
61.747514
 11
266.496934
 21
62.557668
  0
LINE
  5
383
100
AcDbEntity
  8
M0
 62
     2
100
AcDbLine
 10
265.685943
 20
61.747664
 11
266.496784
 21
62.558506
  0
LINE
  5
384
100
AcDbEntity
  8
M0
 62
     2
100
AcDbLine
 10
265.685106
 20
61.747815
 11
266.496634
 21
62.559343
  0
LINE
  5
385
100
AcDbEntity
  8
M0
 62
     2
100
AcDbLine
 10
265.68427
 20
61.747967
 11
266.496482
 21
62.560179
  0
LINE
  5
386
100
AcDbEntity
  8
M0
 62
     2
100
AcDbLine
 10
265.683435
 20
61.748119
 11
266.496329
 21
62.561014
  0
LINE
  5
387
100
AcDbEntity
  8
M0
 62
     2
100
AcDbLine
 10
265.682601
 20
61.748273
 11
266.496176
 21
62.561848
  0
LINE
  5
388
100
AcDbEntity
  8
M0
 62
     2
100
AcDbLine
 10
265.681767
 20
61.748427
 11
266.496022
 21
62.562681
  0
LINE
  5
389
100
AcDbEntity
  8
M0
 62
     2
100
AcDbLine
 10
265.680935
 20
61.748582
 11
266.495866
 21
62.563514
  0
LINE
  5
38A
100
AcDbEntity
  8
M0
 62
     2
100
AcDbLine
 10
265.680103
 20
61.748739
 11
266.49571
 21
62.564345
  0
LINE
  5
38B
100
AcDbEntity
  8
M0
 62
     2
100
AcDbLine
 10
265.679273
 20
61.748896
 11
266.495553
 21
62.565176
  0
LINE
  5
38C
100
AcDbEntity
  8
M0
 62
     2
100
AcDbLine
 10
265.678443
 20
61.749053
 11
266.495395
 21
62.566006
  0
LINE
  5
38D
100
AcDbEntity
  8
M0
 62
     2
100
AcDbLine
 10
265.677614
 20
61.749212
 11
266.495237
 21
62.566835
  0
LINE
  5
38E
100
AcDbEntity
  8
M0
 62
     2
100
AcDbLine
 10
265.676786
 20
61.749372
 11
266.495077
 21
62.567663
  0
LINE
  5
38F
100
AcDbEntity
  8
M0
 62
     2
100
AcDbLine
 10
265.675959
 20
61.749532
 11
266.494917
 21
62.56849
  0
LINE
  5
390
100
AcDbEntity
  8
M0
 62
     2
100
AcDbLine
 10
265.675132
 20
61.749694
 11
266.494755
 21
62.569316
  0
LINE
  5
391
100
AcDbEntity
  8
M0
 62
     2
100
AcDbLine
 10
265.674307
 20
61.749856
 11
266.494593
 21
62.570142
  0
LINE
  5
392
100
AcDbEntity
  8
M0
 62
     2
100
AcDbLine
 10
265.673482
 20
61.750019
 11
266.49443
 21
62.570967
  0
LINE
  5
393
100
AcDbEntity
  8
M0
 62
     2
100
AcDbLine
 10
265.672658
 20
61.750183
 11
266.494266
 21
62.57179
  0
LINE
  5
394
100
AcDbEntity
  8
M0
 62
     2
100
AcDbLine
 10
265.671836
 20
61.750348
 11
266.494101
 21
62.572613
  0
LINE
  5
395
100
AcDbEntity
  8
M0
 62
     2
100
AcDbLine
 10
265.671014
 20
61.750513
 11
266.493936
 21
62.573435
  0
LINE
  5
396
100
AcDbEntity
  8
M0
 62
     2
100
AcDbLine
 10
265.670192
 20
61.75068
 11
266.493769
 21
62.574256
  0
LINE
  5
397
100
AcDbEntity
  8
M0
 62
     2
100
AcDbLine
 10
265.669372
 20
61.750847
 11
266.493602
 21
62.575077
  0
LINE
  5
398
100
AcDbEntity
  8
M0
 62
     2
100
AcDbLine
 10
265.668552
 20
61.751015
 11
266.493434
 21
62.575896
  0
LINE
  5
399
100
AcDbEntity
  8
M0
 62
     2
100
AcDbLine
 10
265.667734
 20
61.751184
 11
266.493265
 21
62.576715
  0
LINE
  5
39A
100
AcDbEntity
  8
M0
 62
     2
100
AcDbLine
 10
265.666916
 20
61.751354
 11
266.493095
 21
62.577533
  0
LINE
  5
39B
100
AcDbEntity
  8
M0
 62
     2
100
AcDbLine
 10
265.666099
 20
61.751525
 11
266.492924
 21
62.57835
  0
LINE
  5
39C
100
AcDbEntity
  8
M0
 62
     2
100
AcDbLine
 10
265.665283
 20
61.751696
 11
266.492752
 21
62.579166
  0
LINE
  5
39D
100
AcDbEntity
  8
M0
 62
     2
100
AcDbLine
 10
265.664468
 20
61.751869
 11
266.49258
 21
62.579981
  0
LINE
  5
39E
100
AcDbEntity
  8
M0
 62
     2
100
AcDbLine
 10
265.663653
 20
61.752042
 11
266.492407
 21
62.580796
  0
LINE
  5
39F
100
AcDbEntity
  8
M0
 62
     2
100
AcDbLine
 10
265.66284
 20
61.752216
 11
266.492233
 21
62.581609
  0
LINE
  5
3A0
100
AcDbEntity
  8
M0
 62
     2
100
AcDbLine
 10
265.662027
 20
61.752391
 11
266.492058
 21
62.582422
  0
LINE
  5
3A1
100
AcDbEntity
  8
M0
 62
     2
100
AcDbLine
 10
265.661215
 20
61.752567
 11
266.491882
 21
62.583234
  0
LINE
  5
3A2
100
AcDbEntity
  8
M0
 62
     2
100
AcDbLine
 10
265.660404
 20
61.752744
 11
266.491705
 21
62.584045
  0
LINE
  5
3A3
100
AcDbEntity
  8
M0
 62
     2
100
AcDbLine
 10
265.659594
 20
61.752921
 11
266.491528
 21
62.584855
  0
LINE
  5
3A4
100
AcDbEntity
  8
M0
 62
     2
100
AcDbLine
 10
265.658784
 20
61.753099
 11
266.49135
 21
62.585665
  0
LINE
  5
3A5
100
AcDbEntity
  8
M0
 62
     2
100
AcDbLine
 10
265.657976
 20
61.753278
 11
266.491171
 21
62.586473
  0
LINE
  5
3A6
100
AcDbEntity
  8
M0
 62
     2
100
AcDbLine
 10
265.657168
 20
61.753458
 11
266.490991
 21
62.587281
  0
LINE
  5
3A7
100
AcDbEntity
  8
M0
 62
     2
100
AcDbLine
 10
265.656361
 20
61.753639
 11
266.49081
 21
62.588088
  0
LINE
  5
3A8
100
AcDbEntity
  8
M0
 62
     2
100
AcDbLine
 10
265.655555
 20
61.75382
 11
266.490628
 21
62.588894
  0
LINE
  5
3A9
100
AcDbEntity
  8
M0
 62
     2
100
AcDbLine
 10
265.654749
 20
61.754003
 11
266.490446
 21
62.5897
  0
LINE
  5
3AA
100
AcDbEntity
  8
M0
 62
     2
100
AcDbLine
 10
265.653945
 20
61.754186
 11
266.490263
 21
62.590504
  0
LINE
  5
3AB
100
AcDbEntity
  8
M0
 62
     2
100
AcDbLine
 10
265.653141
 20
61.75437
 11
266.490079
 21
62.591308
  0
LINE
  5
3AC
100
AcDbEntity
  8
M0
 62
     2
100
AcDbLine
 10
265.652338
 20
61.754555
 11
266.489894
 21
62.592111
  0
LINE
  5
3AD
100
AcDbEntity
  8
M0
 62
     2
100
AcDbLine
 10
265.651536
 20
61.75474
 11
266.489709
 21
62.592913
  0
LINE
  5
3AE
100
AcDbEntity
  8
M0
 62
     2
100
AcDbLine
 10
265.650735
 20
61.754927
 11
266.489522
 21
62.593714
  0
LINE
  5
3AF
100
AcDbEntity
  8
M0
 62
     2
100
AcDbLine
 10
265.649934
 20
61.755114
 11
266.489335
 21
62.594515
  0
LINE
  5
3B0
100
AcDbEntity
  8
M0
 62
     2
100
AcDbLine
 10
265.649135
 20
61.755302
 11
266.489147
 21
62.595314
  0
LINE
  5
3B1
100
AcDbEntity
  8
M0
 62
     2
100
AcDbLine
 10
265.648336
 20
61.755491
 11
266.488958
 21
62.596113
  0
LINE
  5
3B2
100
AcDbEntity
  8
M0
 62
     2
100
AcDbLine
 10
265.647538
 20
61.75568
 11
266.488769
 21
62.596911
  0
LINE
  5
3B3
100
AcDbEntity
  8
M0
 62
     2
100
AcDbLine
 10
265.64674
 20
61.755871
 11
266.488578
 21
62.597708
  0
LINE
  5
3B4
100
AcDbEntity
  8
M0
 62
     2
100
AcDbLine
 10
265.645944
 20
61.756062
 11
266.488387
 21
62.598505
  0
LINE
  5
3B5
100
AcDbEntity
  8
M0
 62
     2
100
AcDbLine
 10
265.645148
 20
61.756254
 11
266.488195
 21
62.599301
  0
LINE
  5
3B6
100
AcDbEntity
  8
M0
 62
     2
100
AcDbLine
 10
265.644353
 20
61.756447
 11
266.488002
 21
62.600095
  0
LINE
  5
3B7
100
AcDbEntity
  8
M0
 62
     2
100
AcDbLine
 10
265.643559
 20
61.75664
 11
266.487808
 21
62.60089
  0
LINE
  5
3B8
100
AcDbEntity
  8
M0
 62
     2
100
AcDbLine
 10
265.642766
 20
61.756835
 11
266.487614
 21
62.601683
  0
LINE
  5
3B9
100
AcDbEntity
  8
M0
 62
     2
100
AcDbLine
 10
265.641973
 20
61.75703
 11
266.487419
 21
62.602475
  0
LINE
  5
3BA
100
AcDbEntity
  8
M0
 62
     2
100
AcDbLine
 10
265.641182
 20
61.757226
 11
266.487223
 21
62.603267
  0
LINE
  5
3BB
100
AcDbEntity
  8
M0
 62
     2
100
AcDbLine
 10
265.640391
 20
61.757423
 11
266.487026
 21
62.604058
  0
LINE
  5
3BC
100
AcDbEntity
  8
M0
 62
     2
100
AcDbLine
 10
265.639601
 20
61.75762
 11
266.486829
 21
62.604848
  0
LINE
  5
3BD
100
AcDbEntity
  8
M0
 62
     2
100
AcDbLine
 10
265.638811
 20
61.757818
 11
266.48663
 21
62.605638
  0
LINE
  5
3BE
100
AcDbEntity
  8
M0
 62
     2
100
AcDbLine
 10
265.638023
 20
61.758018
 11
266.486431
 21
62.606426
  0
LINE
  5
3BF
100
AcDbEntity
  8
M0
 62
     2
100
AcDbLine
 10
265.637235
 20
61.758217
 11
266.486231
 21
62.607214
  0
LINE
  5
3C0
100
AcDbEntity
  8
M0
 62
     2
100
AcDbLine
 10
265.636448
 20
61.758418
 11
266.486031
 21
62.608001
  0
LINE
  5
3C1
100
AcDbEntity
  8
M0
 62
     2
100
AcDbLine
 10
265.635662
 20
61.75862
 11
266.485829
 21
62.608787
  0
LINE
  5
3C2
100
AcDbEntity
  8
M0
 62
     2
100
AcDbLine
 10
265.634876
 20
61.758822
 11
266.485627
 21
62.609573
  0
LINE
  5
3C3
100
AcDbEntity
  8
M0
 62
     2
100
AcDbLine
 10
265.634091
 20
61.759025
 11
266.485424
 21
62.610357
  0
LINE
  5
3C4
100
AcDbEntity
  8
M0
 62
     2
100
AcDbLine
 10
265.633307
 20
61.759228
 11
266.48522
 21
62.611141
  0
LINE
  5
3C5
100
AcDbEntity
  8
M0
 62
     2
100
AcDbLine
 10
265.632524
 20
61.759433
 11
266.485016
 21
62.611925
  0
LINE
  5
3C6
100
AcDbEntity
  8
M0
 62
     2
100
AcDbLine
 10
265.631742
 20
61.759638
 11
266.484811
 21
62.612707
  0
LINE
  5
3C7
100
AcDbEntity
  8
M0
 62
     2
100
AcDbLine
 10
265.63096
 20
61.759844
 11
266.484605
 21
62.613489
  0
LINE
  5
3C8
100
AcDbEntity
  8
M0
 62
     2
100
AcDbLine
 10
265.630179
 20
61.760051
 11
266.484398
 21
62.614269
  0
LINE
  5
3C9
100
AcDbEntity
  8
M0
 62
     2
100
AcDbLine
 10
265.629399
 20
61.760259
 11
266.48419
 21
62.61505
  0
LINE
  5
3CA
100
AcDbEntity
  8
M0
 62
     2
100
AcDbLine
 10
265.62862
 20
61.760467
 11
266.483982
 21
62.615829
  0
LINE
  5
3CB
100
AcDbEntity
  8
M0
 62
     2
100
AcDbLine
 10
265.627841
 20
61.760676
 11
266.483773
 21
62.616607
  0
LINE
  5
3CC
100
AcDbEntity
  8
M0
 62
     2
100
AcDbLine
 10
265.627064
 20
61.760886
 11
266.483563
 21
62.617385
  0
LINE
  5
3CD
100
AcDbEntity
  8
M0
 62
     2
100
AcDbLine
 10
265.626286
 20
61.761097
 11
266.483352
 21
62.618162
  0
LINE
  5
3CE
100
AcDbEntity
  8
M0
 62
     2
100
AcDbLine
 10
265.62551
 20
61.761308
 11
266.483141
 21
62.618939
  0
LINE
  5
3CF
100
AcDbEntity
  8
M0
 62
     2
100
AcDbLine
 10
265.624735
 20
61.76152
 11
266.482929
 21
62.619714
  0
LINE
  5
3D0
100
AcDbEntity
  8
M0
 62
     2
100
AcDbLine
 10
265.62396
 20
61.761733
 11
266.482716
 21
62.620489
  0
LINE
  5
3D1
100
AcDbEntity
  8
M0
 62
     2
100
AcDbLine
 10
265.623186
 20
61.761947
 11
266.482502
 21
62.621263
  0
LINE
  5
3D2
100
AcDbEntity
  8
M0
 62
     2
100
AcDbLine
 10
265.622412
 20
61.762161
 11
266.482288
 21
62.622036
  0
LINE
  5
3D3
100
AcDbEntity
  8
M0
 62
     2
100
AcDbLine
 10
265.62164
 20
61.762376
 11
266.482073
 21
62.622809
  0
LINE
  5
3D4
100
AcDbEntity
  8
M0
 62
     2
100
AcDbLine
 10
265.620868
 20
61.762592
 11
266.481857
 21
62.623581
  0
LINE
  5
3D5
100
AcDbEntity
  8
M0
 62
     2
100
AcDbLine
 10
265.620097
 20
61.762809
 11
266.48164
 21
62.624352
  0
LINE
  5
3D6
100
AcDbEntity
  8
M0
 62
     2
100
AcDbLine
 10
265.619327
 20
61.763026
 11
266.481423
 21
62.625122
  0
LINE
  5
3D7
100
AcDbEntity
  8
M0
 62
     2
100
AcDbLine
 10
265.618557
 20
61.763244
 11
266.481205
 21
62.625892
  0
LINE
  5
3D8
100
AcDbEntity
  8
M0
 62
     2
100
AcDbLine
 10
265.617788
 20
61.763463
 11
266.480986
 21
62.626661
  0
LINE
  5
3D9
100
AcDbEntity
  8
M0
 62
     2
100
AcDbLine
 10
265.61702
 20
61.763683
 11
266.480766
 21
62.627429
  0
LINE
  5
3DA
100
AcDbEntity
  8
M0
 62
     2
100
AcDbLine
 10
265.616253
 20
61.763903
 11
266.480546
 21
62.628196
  0
LINE
  5
3DB
100
AcDbEntity
  8
M0
 62
     2
100
AcDbLine
 10
265.615486
 20
61.764124
 11
266.480325
 21
62.628963
  0
LINE
  5
3DC
100
AcDbEntity
  8
M0
 62
     2
100
AcDbLine
 10
265.61472
 20
61.764346
 11
266.480103
 21
62.629728
  0
LINE
  5
3DD
100
AcDbEntity
  8
M0
 62
     2
100
AcDbLine
 10
265.613955
 20
61.764568
 11
266.47988
 21
62.630494
  0
LINE
  5
3DE
100
AcDbEntity
  8
M0
 62
     2
100
AcDbLine
 10
265.613191
 20
61.764792
 11
266.479657
 21
62.631258
  0
LINE
  5
3DF
100
AcDbEntity
  8
M0
 62
     2
100
AcDbLine
 10
265.612427
 20
61.765016
 11
266.479433
 21
62.632022
  0
LINE
  5
3E0
100
AcDbEntity
  8
M0
 62
     2
100
AcDbLine
 10
265.611664
 20
61.76524
 11
266.479208
 21
62.632785
  0
LINE
  5
3E1
100
AcDbEntity
  8
M0
 62
     2
100
AcDbLine
 10
265.610902
 20
61.765466
 11
266.478983
 21
62.633547
  0
LINE
  5
3E2
100
AcDbEntity
  8
M0
 62
     2
100
AcDbLine
 10
265.61014
 20
61.765692
 11
266.478757
 21
62.634308
  0
LINE
  5
3E3
100
AcDbEntity
  8
M0
 62
     2
100
AcDbLine
 10
265.60938
 20
61.765919
 11
266.47853
 21
62.635069
  0
LINE
  5
3E4
100
AcDbEntity
  8
M0
 62
     2
100
AcDbLine
 10
265.60862
 20
61.766147
 11
266.478302
 21
62.635829
  0
LINE
  5
3E5
100
AcDbEntity
  8
M0
 62
     2
100
AcDbLine
 10
265.60786
 20
61.766375
 11
266.478074
 21
62.636589
  0
LINE
  5
3E6
100
AcDbEntity
  8
M0
 62
     2
100
AcDbLine
 10
265.607102
 20
61.766604
 11
266.477845
 21
62.637347
  0
LINE
  5
3E7
100
AcDbEntity
  8
M0
 62
     2
100
AcDbLine
 10
265.606344
 20
61.766834
 11
266.477615
 21
62.638105
  0
LINE
  5
3E8
100
AcDbEntity
  8
M0
 62
     2
100
AcDbLine
 10
265.605587
 20
61.767064
 11
266.477385
 21
62.638862
  0
LINE
  5
3E9
100
AcDbEntity
  8
M0
 62
     2
100
AcDbLine
 10
265.60483
 20
61.767296
 11
266.477153
 21
62.639619
  0
LINE
  5
3EA
100
AcDbEntity
  8
M0
 62
     2
100
AcDbLine
 10
265.604074
 20
61.767527
 11
266.476921
 21
62.640374
  0
LINE
  5
3EB
100
AcDbEntity
  8
M0
 62
     2
100
AcDbLine
 10
265.603319
 20
61.76776
 11
266.476689
 21
62.641129
  0
LINE
  5
3EC
100
AcDbEntity
  8
M0
 62
     2
100
AcDbLine
 10
265.602565
 20
61.767994
 11
266.476455
 21
62.641884
  0
LINE
  5
3ED
100
AcDbEntity
  8
M0
 62
     2
100
AcDbLine
 10
265.601812
 20
61.768228
 11
266.476221
 21
62.642637
  0
LINE
  5
3EE
100
AcDbEntity
  8
M0
 62
     2
100
AcDbLine
 10
265.601059
 20
61.768462
 11
266.475986
 21
62.64339
  0
LINE
  5
3EF
100
AcDbEntity
  8
M0
 62
     2
100
AcDbLine
 10
265.600306
 20
61.768698
 11
266.475751
 21
62.644142
  0
LINE
  5
3F0
100
AcDbEntity
  8
M0
 62
     2
100
AcDbLine
 10
265.599555
 20
61.768934
 11
266.475515
 21
62.644894
  0
LINE
  5
3F1
100
AcDbEntity
  8
M0
 62
     2
100
AcDbLine
 10
265.598804
 20
61.769171
 11
266.475278
 21
62.645645
  0
LINE
  5
3F2
100
AcDbEntity
  8
M0
 62
     2
100
AcDbLine
 10
265.598054
 20
61.769409
 11
266.47504
 21
62.646395
  0
LINE
  5
3F3
100
AcDbEntity
  8
M0
 62
     2
100
AcDbLine
 10
265.597305
 20
61.769647
 11
266.474802
 21
62.647144
  0
LINE
  5
3F4
100
AcDbEntity
  8
M0
 62
     2
100
AcDbLine
 10
265.596556
 20
61.769886
 11
266.474563
 21
62.647893
  0
LINE
  5
3F5
100
AcDbEntity
  8
M0
 62
     2
100
AcDbLine
 10
265.595808
 20
61.770126
 11
266.474323
 21
62.64864
  0
LINE
  5
3F6
100
AcDbEntity
  8
M0
 62
     2
100
AcDbLine
 10
265.595061
 20
61.770366
 11
266.474082
 21
62.649388
  0
LINE
  5
3F7
100
AcDbEntity
  8
M0
 62
     2
100
AcDbLine
 10
265.594315
 20
61.770608
 11
266.473841
 21
62.650134
  0
LINE
  5
3F8
100
AcDbEntity
  8
M0
 62
     2
100
AcDbLine
 10
265.593569
 20
61.770849
 11
266.473599
 21
62.65088
  0
LINE
  5
3F9
100
AcDbEntity
  8
M0
 62
     2
100
AcDbLine
 10
265.592824
 20
61.771092
 11
266.473357
 21
62.651625
  0
LINE
  5
3FA
100
AcDbEntity
  8
M0
 62
     2
100
AcDbLine
 10
265.592079
 20
61.771335
 11
266.473114
 21
62.65237
  0
LINE
  5
3FB
100
AcDbEntity
  8
M0
 62
     2
100
AcDbLine
 10
265.591335
 20
61.771579
 11
266.47287
 21
62.653113
  0
LINE
  5
3FC
100
AcDbEntity
  8
M0
 62
     2
100
AcDbLine
 10
265.590592
 20
61.771824
 11
266.472625
 21
62.653856
  0
LINE
  5
3FD
100
AcDbEntity
  8
M0
 62
     2
100
AcDbLine
 10
265.58985
 20
61.772069
 11
266.47238
 21
62.654599
  0
LINE
  5
3FE
100
AcDbEntity
  8
M0
 62
     2
100
AcDbLine
 10
265.589108
 20
61.772315
 11
266.472134
 21
62.65534
  0
LINE
  5
3FF
100
AcDbEntity
  8
M0
 62
     2
100
AcDbLine
 10
265.588367
 20
61.772562
 11
266.471887
 21
62.656081
  0
LINE
  5
400
100
AcDbEntity
  8
M0
 62
     2
100
AcDbLine
 10
265.587627
 20
61.772809
 11
266.471639
 21
62.656822
  0
LINE
  5
401
100
AcDbEntity
  8
M0
 62
     2
100
AcDbLine
 10
265.586888
 20
61.773057
 11
266.471391
 21
62.657561
  0
LINE
  5
402
100
AcDbEntity
  8
M0
 62
     2
100
AcDbLine
 10
265.586149
 20
61.773306
 11
266.471143
 21
62.6583
  0
LINE
  5
403
100
AcDbEntity
  8
M0
 62
     2
100
AcDbLine
 10
265.585411
 20
61.773556
 11
266.470893
 21
62.659038
  0
LINE
  5
404
100
AcDbEntity
  8
M0
 62
     2
100
AcDbLine
 10
265.584673
 20
61.773806
 11
266.470643
 21
62.659776
  0
LINE
  5
405
100
AcDbEntity
  8
M0
 62
     2
100
AcDbLine
 10
265.583936
 20
61.774057
 11
266.470392
 21
62.660513
  0
LINE
  5
406
100
AcDbEntity
  8
M0
 62
     2
100
AcDbLine
 10
265.5832
 20
61.774308
 11
266.470141
 21
62.661249
  0
LINE
  5
407
100
AcDbEntity
  8
M0
 62
     2
100
AcDbLine
 10
265.582465
 20
61.774561
 11
266.469888
 21
62.661984
  0
LINE
  5
408
100
AcDbEntity
  8
M0
 62
     2
100
AcDbLine
 10
265.58173
 20
61.774813
 11
266.469635
 21
62.662719
  0
LINE
  5
409
100
AcDbEntity
  8
M0
 62
     2
100
AcDbLine
 10
265.580996
 20
61.775067
 11
266.469382
 21
62.663453
  0
LINE
  5
40A
100
AcDbEntity
  8
M0
 62
     2
100
AcDbLine
 10
265.580262
 20
61.775321
 11
266.469128
 21
62.664187
  0
LINE
  5
40B
100
AcDbEntity
  8
M0
 62
     2
100
AcDbLine
 10
265.579529
 20
61.775576
 11
266.468873
 21
62.664919
  0
LINE
  5
40C
100
AcDbEntity
  8
M0
 62
     2
100
AcDbLine
 10
265.578797
 20
61.775832
 11
266.468617
 21
62.665651
  0
LINE
  5
40D
100
AcDbEntity
  8
M0
 62
     2
100
AcDbLine
 10
265.578066
 20
61.776088
 11
266.468361
 21
62.666383
  0
LINE
  5
40E
100
AcDbEntity
  8
M0
 62
     2
100
AcDbLine
 10
265.577335
 20
61.776345
 11
266.468104
 21
62.667114
  0
LINE
  5
40F
100
AcDbEntity
  8
M0
 62
     2
100
AcDbLine
 10
265.576605
 20
61.776603
 11
266.467846
 21
62.667844
  0
LINE
  5
410
100
AcDbEntity
  8
M0
 62
     2
100
AcDbLine
 10
265.575876
 20
61.776861
 11
266.467588
 21
62.668573
  0
LINE
  5
411
100
AcDbEntity
  8
M0
 62
     2
100
AcDbLine
 10
265.575147
 20
61.77712
 11
266.467329
 21
62.669302
  0
LINE
  5
412
100
AcDbEntity
  8
M0
 62
     2
100
AcDbLine
 10
265.574419
 20
61.77738
 11
266.467069
 21
62.67003
  0
LINE
  5
413
100
AcDbEntity
  8
M0
 62
     2
100
AcDbLine
 10
265.573692
 20
61.77764
 11
266.466809
 21
62.670757
  0
LINE
  5
414
100
AcDbEntity
  8
M0
 62
     2
100
AcDbLine
 10
265.572965
 20
61.777901
 11
266.466548
 21
62.671484
  0
LINE
  5
415
100
AcDbEntity
  8
M0
 62
     2
100
AcDbLine
 10
265.572239
 20
61.778162
 11
266.466286
 21
62.67221
  0
LINE
  5
416
100
AcDbEntity
  8
M0
 62
     2
100
AcDbLine
 10
265.571513
 20
61.778425
 11
266.466024
 21
62.672935
  0
LINE
  5
417
100
AcDbEntity
  8
M0
 62
     2
100
AcDbLine
 10
265.570789
 20
61.778688
 11
266.465761
 21
62.67366
  0
LINE
  5
418
100
AcDbEntity
  8
M0
 62
     2
100
AcDbLine
 10
265.570065
 20
61.778951
 11
266.465497
 21
62.674384
  0
LINE
  5
419
100
AcDbEntity
  8
M0
 62
     2
100
AcDbLine
 10
265.569341
 20
61.779216
 11
266.465233
 21
62.675107
  0
LINE
  5
41A
100
AcDbEntity
  8
M0
 62
     2
100
AcDbLine
 10
265.568619
 20
61.779481
 11
266.464968
 21
62.67583
  0
LINE
  5
41B
100
AcDbEntity
  8
M0
 62
     2
100
AcDbLine
 10
265.567897
 20
61.779746
 11
266.464703
 21
62.676552
  0
LINE
  5
41C
100
AcDbEntity
  8
M0
 62
     2
100
AcDbLine
 10
265.567175
 20
61.780013
 11
266.464436
 21
62.677274
  0
LINE
  5
41D
100
AcDbEntity
  8
M0
 62
     2
100
AcDbLine
 10
265.566454
 20
61.78028
 11
266.464169
 21
62.677994
  0
LINE
  5
41E
100
AcDbEntity
  8
M0
 62
     2
100
AcDbLine
 10
265.565734
 20
61.780547
 11
266.463902
 21
62.678714
  0
LINE
  5
41F
100
AcDbEntity
  8
M0
 62
     2
100
AcDbLine
 10
265.565015
 20
61.780815
 11
266.463633
 21
62.679434
  0
LINE
  5
420
100
AcDbEntity
  8
M0
 62
     2
100
AcDbLine
 10
265.564296
 20
61.781084
 11
266.463365
 21
62.680153
  0
LINE
  5
421
100
AcDbEntity
  8
M0
 62
     2
100
AcDbLine
 10
265.563578
 20
61.781354
 11
266.463095
 21
62.680871
  0
LINE
  5
422
100
AcDbEntity
  8
M0
 62
     2
100
AcDbLine
 10
265.562861
 20
61.781624
 11
266.462825
 21
62.681588
  0
LINE
  5
423
100
AcDbEntity
  8
M0
 62
     2
100
AcDbLine
 10
265.562144
 20
61.781895
 11
266.462554
 21
62.682305
  0
LINE
  5
424
100
AcDbEntity
  8
M0
 62
     2
100
AcDbLine
 10
265.561428
 20
61.782166
 11
266.462282
 21
62.683021
  0
LINE
  5
425
100
AcDbEntity
  8
M0
 62
     2
100
AcDbLine
 10
265.560712
 20
61.782439
 11
266.46201
 21
62.683737
  0
LINE
  5
426
100
AcDbEntity
  8
M0
 62
     2
100
AcDbLine
 10
265.559997
 20
61.782711
 11
266.461737
 21
62.684452
  0
LINE
  5
427
100
AcDbEntity
  8
M0
 62
     2
100
AcDbLine
 10
265.559283
 20
61.782985
 11
266.461464
 21
62.685166
  0
LINE
  5
428
100
AcDbEntity
  8
M0
 62
     2
100
AcDbLine
 10
265.558569
 20
61.783259
 11
266.46119
 21
62.685879
  0
LINE
  5
429
100
AcDbEntity
  8
M0
 62
     2
100
AcDbLine
 10
265.557857
 20
61.783534
 11
266.460915
 21
62.686592
  0
LINE
  5
42A
100
AcDbEntity
  8
M0
 62
     2
100
AcDbLine
 10
265.557144
 20
61.783809
 11
266.46064
 21
62.687305
  0
LINE
  5
42B
100
AcDbEntity
  8
M0
 62
     2
100
AcDbLine
 10
265.556433
 20
61.784085
 11
266.460364
 21
62.688016
  0
LINE
  5
42C
100
AcDbEntity
  8
M0
 62
     2
100
AcDbLine
 10
265.555722
 20
61.784362
 11
266.460087
 21
62.688727
  0
LINE
  5
42D
100
AcDbEntity
  8
M0
 62
     2
100
AcDbLine
 10
265.555011
 20
61.784639
 11
266.459809
 21
62.689438
  0
LINE
  5
42E
100
AcDbEntity
  8
M0
 62
     2
100
AcDbLine
 10
265.554302
 20
61.784917
 11
266.459531
 21
62.690147
  0
LINE
  5
42F
100
AcDbEntity
  8
M0
 62
     2
100
AcDbLine
 10
265.553593
 20
61.785196
 11
266.459253
 21
62.690856
  0
LINE
  5
430
100
AcDbEntity
  8
M0
 62
     2
100
AcDbLine
 10
265.552884
 20
61.785475
 11
266.458974
 21
62.691565
  0
LINE
  5
431
100
AcDbEntity
  8
M0
 62
     2
100
AcDbLine
 10
265.552176
 20
61.785755
 11
266.458694
 21
62.692272
  0
LINE
  5
432
100
AcDbEntity
  8
M0
 62
     2
100
AcDbLine
 10
265.551469
 20
61.786036
 11
266.458413
 21
62.69298
  0
LINE
  5
433
100
AcDbEntity
  8
M0
 62
     2
100
AcDbLine
 10
265.550763
 20
61.786317
 11
266.458132
 21
62.693686
  0
LINE
  5
434
100
AcDbEntity
  8
M0
 62
     2
100
AcDbLine
 10
265.550057
 20
61.786599
 11
266.45785
 21
62.694392
  0
LINE
  5
435
100
AcDbEntity
  8
M0
 62
     2
100
AcDbLine
 10
265.549352
 20
61.786881
 11
266.457568
 21
62.695097
  0
LINE
  5
436
100
AcDbEntity
  8
M0
 62
     2
100
AcDbLine
 10
265.548647
 20
61.787164
 11
266.457285
 21
62.695802
  0
LINE
  5
437
100
AcDbEntity
  8
M0
 62
     2
100
AcDbLine
 10
265.547943
 20
61.787448
 11
266.457001
 21
62.696506
  0
LINE
  5
438
100
AcDbEntity
  8
M0
 62
     2
100
AcDbLine
 10
265.54724
 20
61.787732
 11
266.456716
 21
62.697209
  0
LINE
  5
439
100
AcDbEntity
  8
M0
 62
     2
100
AcDbLine
 10
265.546537
 20
61.788017
 11
266.456431
 21
62.697912
  0
LINE
  5
43A
100
AcDbEntity
  8
M0
 62
     2
100
AcDbLine
 10
265.545835
 20
61.788303
 11
266.456146
 21
62.698614
  0
LINE
  5
43B
100
AcDbEntity
  8
M0
 62
     2
100
AcDbLine
 10
265.545134
 20
61.788589
 11
266.45586
 21
62.699315
  0
LINE
  5
43C
100
AcDbEntity
  8
M0
 62
     2
100
AcDbLine
 10
265.544433
 20
61.788876
 11
266.455573
 21
62.700016
  0
LINE
  5
43D
100
AcDbEntity
  8
M0
 62
     2
100
AcDbLine
 10
265.543733
 20
61.789164
 11
266.455285
 21
62.700716
  0
LINE
  5
43E
100
AcDbEntity
  8
M0
 62
     2
100
AcDbLine
 10
265.543033
 20
61.789452
 11
266.454997
 21
62.701416
  0
LINE
  5
43F
100
AcDbEntity
  8
M0
 62
     2
100
AcDbLine
 10
265.542334
 20
61.789741
 11
266.454708
 21
62.702115
  0
LINE
  5
440
100
AcDbEntity
  8
M0
 62
     2
100
AcDbLine
 10
265.541636
 20
61.79003
 11
266.454419
 21
62.702813
  0
LINE
  5
441
100
AcDbEntity
  8
M0
 62
     2
100
AcDbLine
 10
265.540938
 20
61.79032
 11
266.454129
 21
62.703511
  0
LINE
  5
442
100
AcDbEntity
  8
M0
 62
     2
100
AcDbLine
 10
265.540241
 20
61.790611
 11
266.453838
 21
62.704208
  0
LINE
  5
443
100
AcDbEntity
  8
M0
 62
     2
100
AcDbLine
 10
265.539545
 20
61.790902
 11
266.453547
 21
62.704904
  0
LINE
  5
444
100
AcDbEntity
  8
M0
 62
     2
100
AcDbLine
 10
265.538849
 20
61.791194
 11
266.453255
 21
62.7056
  0
LINE
  5
445
100
AcDbEntity
  8
M0
 62
     2
100
AcDbLine
 10
265.538154
 20
61.791486
 11
266.452962
 21
62.706295
  0
LINE
  5
446
100
AcDbEntity
  8
M0
 62
     2
100
AcDbLine
 10
265.537459
 20
61.79178
 11
266.452669
 21
62.70699
  0
LINE
  5
447
100
AcDbEntity
  8
M0
 62
     2
100
AcDbLine
 10
265.536765
 20
61.792073
 11
266.452376
 21
62.707683
  0
LINE
  5
448
100
AcDbEntity
  8
M0
 62
     2
100
AcDbLine
 10
265.536072
 20
61.792368
 11
266.452081
 21
62.708377
  0
LINE
  5
449
100
AcDbEntity
  8
M0
 62
     2
100
AcDbLine
 10
265.535379
 20
61.792663
 11
266.451786
 21
62.709069
  0
LINE
  5
44A
100
AcDbEntity
  8
M0
 62
     2
100
AcDbLine
 10
265.534687
 20
61.792958
 11
266.45149
 21
62.709761
  0
LINE
  5
44B
100
AcDbEntity
  8
M0
 62
     2
100
AcDbLine
 10
265.533996
 20
61.793255
 11
266.451194
 21
62.710453
  0
LINE
  5
44C
100
AcDbEntity
  8
M0
 62
     2
100
AcDbLine
 10
265.533305
 20
61.793551
 11
266.450897
 21
62.711144
  0
LINE
  5
44D
100
AcDbEntity
  8
M0
 62
     2
100
AcDbLine
 10
265.532615
 20
61.793849
 11
266.4506
 21
62.711834
  0
LINE
  5
44E
100
AcDbEntity
  8
M0
 62
     2
100
AcDbLine
 10
265.531925
 20
61.794147
 11
266.450302
 21
62.712524
  0
LINE
  5
44F
100
AcDbEntity
  8
M0
 62
     2
100
AcDbLine
 10
265.531236
 20
61.794446
 11
266.450003
 21
62.713213
  0
LINE
  5
450
100
AcDbEntity
  8
M0
 62
     2
100
AcDbLine
 10
265.530548
 20
61.794745
 11
266.449704
 21
62.713901
  0
LINE
  5
451
100
AcDbEntity
  8
M0
 62
     2
100
AcDbLine
 10
265.52986
 20
61.795045
 11
266.449404
 21
62.714589
  0
LINE
  5
452
100
AcDbEntity
  8
M0
 62
     2
100
AcDbLine
 10
265.529173
 20
61.795345
 11
266.449103
 21
62.715276
  0
LINE
  5
453
100
AcDbEntity
  8
M0
 62
     2
100
AcDbLine
 10
265.528486
 20
61.795647
 11
266.448802
 21
62.715962
  0
LINE
  5
454
100
AcDbEntity
  8
M0
 62
     2
100
AcDbLine
 10
265.527801
 20
61.795948
 11
266.4485
 21
62.716648
  0
LINE
  5
455
100
AcDbEntity
  8
M0
 62
     2
100
AcDbLine
 10
265.527115
 20
61.796251
 11
266.448198
 21
62.717334
  0
LINE
  5
456
100
AcDbEntity
  8
M0
 62
     2
100
AcDbLine
 10
265.52643
 20
61.796554
 11
266.447895
 21
62.718018
  0
LINE
  5
457
100
AcDbEntity
  8
M0
 62
     2
100
AcDbLine
 10
265.525746
 20
61.796857
 11
266.447592
 21
62.718702
  0
LINE
  5
458
100
AcDbEntity
  8
M0
 62
     2
100
AcDbLine
 10
265.525063
 20
61.797161
 11
266.447287
 21
62.719386
  0
LINE
  5
459
100
AcDbEntity
  8
M0
 62
     2
100
AcDbLine
 10
265.52438
 20
61.797466
 11
266.446983
 21
62.720069
  0
LINE
  5
45A
100
AcDbEntity
  8
M0
 62
     2
100
AcDbLine
 10
265.523698
 20
61.797772
 11
266.446677
 21
62.720751
  0
LINE
  5
45B
100
AcDbEntity
  8
M0
 62
     2
100
AcDbLine
 10
265.523016
 20
61.798078
 11
266.446371
 21
62.721433
  0
LINE
  5
45C
100
AcDbEntity
  8
M0
 62
     2
100
AcDbLine
 10
265.522335
 20
61.798384
 11
266.446064
 21
62.722114
  0
LINE
  5
45D
100
AcDbEntity
  8
M0
 62
     2
100
AcDbLine
 10
265.521655
 20
61.798692
 11
266.445757
 21
62.722794
  0
LINE
  5
45E
100
AcDbEntity
  8
M0
 62
     2
100
AcDbLine
 10
265.520975
 20
61.798999
 11
266.445449
 21
62.723474
  0
LINE
  5
45F
100
AcDbEntity
  8
M0
 62
     2
100
AcDbLine
 10
265.520295
 20
61.799308
 11
266.445141
 21
62.724153
  0
LINE
  5
460
100
AcDbEntity
  8
M0
 62
     2
100
AcDbLine
 10
265.519617
 20
61.799617
 11
266.444832
 21
62.724832
  0
LINE
  5
461
100
AcDbEntity
  8
M0
 62
     2
100
AcDbLine
 10
265.518939
 20
61.799926
 11
266.444522
 21
62.72551
  0
LINE
  5
462
100
AcDbEntity
  8
M0
 62
     2
100
AcDbLine
 10
265.518261
 20
61.800237
 11
266.444212
 21
62.726188
  0
LINE
  5
463
100
AcDbEntity
  8
M0
 62
     2
100
AcDbLine
 10
265.517584
 20
61.800548
 11
266.443901
 21
62.726864
  0
LINE
  5
464
100
AcDbEntity
  8
M0
 62
     2
100
AcDbLine
 10
265.516908
 20
61.800859
 11
266.44359
 21
62.727541
  0
LINE
  5
465
100
AcDbEntity
  8
M0
 62
     2
100
AcDbLine
 10
265.516232
 20
61.801171
 11
266.443278
 21
62.728216
  0
LINE
  5
466
100
AcDbEntity
  8
M0
 62
     2
100
AcDbLine
 10
265.515557
 20
61.801484
 11
266.442965
 21
62.728891
  0
LINE
  5
467
100
AcDbEntity
  8
M0
 62
     2
100
AcDbLine
 10
265.514883
 20
61.801797
 11
266.442652
 21
62.729566
  0
LINE
  5
468
100
AcDbEntity
  8
M0
 62
     2
100
AcDbLine
 10
265.514209
 20
61.802111
 11
266.442338
 21
62.73024
  0
LINE
  5
469
100
AcDbEntity
  8
M0
 62
     2
100
AcDbLine
 10
265.513536
 20
61.802425
 11
266.442024
 21
62.730913
  0
LINE
  5
46A
100
AcDbEntity
  8
M0
 62
     2
100
AcDbLine
 10
265.512863
 20
61.80274
 11
266.441709
 21
62.731586
  0
LINE
  5
46B
100
AcDbEntity
  8
M0
 62
     2
100
AcDbLine
 10
265.512191
 20
61.803056
 11
266.441393
 21
62.732258
  0
LINE
  5
46C
100
AcDbEntity
  8
M0
 62
     2
100
AcDbLine
 10
265.511519
 20
61.803372
 11
266.441077
 21
62.732929
  0
LINE
  5
46D
100
AcDbEntity
  8
M0
 62
     2
100
AcDbLine
 10
265.510849
 20
61.803689
 11
266.44076
 21
62.7336
  0
LINE
  5
46E
100
AcDbEntity
  8
M0
 62
     2
100
AcDbLine
 10
265.510178
 20
61.804006
 11
266.440443
 21
62.734271
  0
LINE
  5
46F
100
AcDbEntity
  8
M0
 62
     2
100
AcDbLine
 10
265.509509
 20
61.804324
 11
266.440125
 21
62.73494
  0
LINE
  5
470
100
AcDbEntity
  8
M0
 62
     2
100
AcDbLine
 10
265.508839
 20
61.804642
 11
266.439806
 21
62.735609
  0
LINE
  5
471
100
AcDbEntity
  8
M0
 62
     2
100
AcDbLine
 10
265.508171
 20
61.804962
 11
266.439487
 21
62.736278
  0
LINE
  5
472
100
AcDbEntity
  8
M0
 62
     2
100
AcDbLine
 10
265.507503
 20
61.805281
 11
266.439167
 21
62.736946
  0
LINE
  5
473
100
AcDbEntity
  8
M0
 62
     2
100
AcDbLine
 10
265.506836
 20
61.805602
 11
266.438847
 21
62.737613
  0
LINE
  5
474
100
AcDbEntity
  8
M0
 62
     2
100
AcDbLine
 10
265.506169
 20
61.805923
 11
266.438526
 21
62.73828
  0
LINE
  5
475
100
AcDbEntity
  8
M0
 62
     2
100
AcDbLine
 10
265.505503
 20
61.806244
 11
266.438205
 21
62.738946
  0
LINE
  5
476
100
AcDbEntity
  8
M0
 62
     2
100
AcDbLine
 10
265.504837
 20
61.806566
 11
266.437883
 21
62.739612
  0
LINE
  5
477
100
AcDbEntity
  8
M0
 62
     2
100
AcDbLine
 10
265.504172
 20
61.806889
 11
266.43756
 21
62.740277
  0
LINE
  5
478
100
AcDbEntity
  8
M0
 62
     2
100
AcDbLine
 10
265.503508
 20
61.807212
 11
266.437237
 21
62.740941
  0
LINE
  5
479
100
AcDbEntity
  8
M0
 62
     2
100
AcDbLine
 10
265.502844
 20
61.807536
 11
266.436913
 21
62.741605
  0
LINE
  5
47A
100
AcDbEntity
  8
M0
 62
     2
100
AcDbLine
 10
265.50218
 20
61.80786
 11
266.436588
 21
62.742268
  0
LINE
  5
47B
100
AcDbEntity
  8
M0
 62
     2
100
AcDbLine
 10
265.501518
 20
61.808185
 11
266.436263
 21
62.742931
  0
LINE
  5
47C
100
AcDbEntity
  8
M0
 62
     2
100
AcDbLine
 10
265.500856
 20
61.808511
 11
266.435938
 21
62.743593
  0
LINE
  5
47D
100
AcDbEntity
  8
M0
 62
     2
100
AcDbLine
 10
265.500194
 20
61.808837
 11
266.435612
 21
62.744255
  0
LINE
  5
47E
100
AcDbEntity
  8
M0
 62
     2
100
AcDbLine
 10
265.499533
 20
61.809164
 11
266.435285
 21
62.744916
  0
LINE
  5
47F
100
AcDbEntity
  8
M0
 62
     2
100
AcDbLine
 10
265.498873
 20
61.809491
 11
266.434958
 21
62.745576
  0
LINE
  5
480
100
AcDbEntity
  8
M0
 62
     2
100
AcDbLine
 10
265.498213
 20
61.809819
 11
266.43463
 21
62.746236
  0
LINE
  5
481
100
AcDbEntity
  8
M0
 62
     2
100
AcDbLine
 10
265.497554
 20
61.810148
 11
266.434301
 21
62.746895
  0
LINE
  5
482
100
AcDbEntity
  8
M0
 62
     2
100
AcDbLine
 10
265.496895
 20
61.810477
 11
266.433972
 21
62.747554
  0
LINE
  5
483
100
AcDbEntity
  8
M0
 62
     2
100
AcDbLine
 10
265.496237
 20
61.810806
 11
266.433642
 21
62.748212
  0
LINE
  5
484
100
AcDbEntity
  8
M0
 62
     2
100
AcDbLine
 10
265.49558
 20
61.811137
 11
266.433312
 21
62.748869
  0
LINE
  5
485
100
AcDbEntity
  8
M0
 62
     2
100
AcDbLine
 10
265.494923
 20
61.811467
 11
266.432981
 21
62.749526
  0
LINE
  5
486
100
AcDbEntity
  8
M0
 62
     2
100
AcDbLine
 10
265.494267
 20
61.811799
 11
266.43265
 21
62.750182
  0
LINE
  5
487
100
AcDbEntity
  8
M0
 62
     2
100
AcDbLine
 10
265.493611
 20
61.812131
 11
266.432318
 21
62.750838
  0
LINE
  5
488
100
AcDbEntity
  8
M0
 62
     2
100
AcDbLine
 10
265.492956
 20
61.812463
 11
266.431986
 21
62.751493
  0
LINE
  5
489
100
AcDbEntity
  8
M0
 62
     2
100
AcDbLine
 10
265.492301
 20
61.812796
 11
266.431652
 21
62.752148
  0
LINE
  5
48A
100
AcDbEntity
  8
M0
 62
     2
100
AcDbLine
 10
265.491647
 20
61.81313
 11
266.431319
 21
62.752802
  0
LINE
  5
48B
100
AcDbEntity
  8
M0
 62
     2
100
AcDbLine
 10
265.490994
 20
61.813464
 11
266.430985
 21
62.753455
  0
LINE
  5
48C
100
AcDbEntity
  8
M0
 62
     2
100
AcDbLine
 10
265.490341
 20
61.813799
 11
266.43065
 21
62.754108
  0
LINE
  5
48D
100
AcDbEntity
  8
M0
 62
     2
100
AcDbLine
 10
265.489689
 20
61.814135
 11
266.430314
 21
62.75476
  0
LINE
  5
48E
100
AcDbEntity
  8
M0
 62
     2
100
AcDbLine
 10
265.489037
 20
61.81447
 11
266.429978
 21
62.755412
  0
LINE
  5
48F
100
AcDbEntity
  8
M0
 62
     2
100
AcDbLine
 10
265.488386
 20
61.814807
 11
266.429642
 21
62.756063
  0
LINE
  5
490
100
AcDbEntity
  8
M0
 62
     2
100
AcDbLine
 10
265.487735
 20
61.815144
 11
266.429305
 21
62.756714
  0
LINE
  5
491
100
AcDbEntity
  8
M0
 62
     2
100
AcDbLine
 10
265.487085
 20
61.815482
 11
266.428967
 21
62.757364
  0
LINE
  5
492
100
AcDbEntity
  8
M0
 62
     2
100
AcDbLine
 10
265.486436
 20
61.81582
 11
266.428629
 21
62.758013
  0
LINE
  5
493
100
AcDbEntity
  8
M0
 62
     2
100
AcDbLine
 10
265.485787
 20
61.816159
 11
266.42829
 21
62.758662
  0
LINE
  5
494
100
AcDbEntity
  8
M0
 62
     2
100
AcDbLine
 10
265.485138
 20
61.816498
 11
266.427951
 21
62.75931
  0
LINE
  5
495
100
AcDbEntity
  8
M0
 62
     2
100
AcDbLine
 10
265.484491
 20
61.816838
 11
266.427611
 21
62.759958
  0
LINE
  5
496
100
AcDbEntity
  8
M0
 62
     2
100
AcDbLine
 10
265.483844
 20
61.817179
 11
266.42727
 21
62.760605
  0
LINE
  5
497
100
AcDbEntity
  8
M0
 62
     2
100
AcDbLine
 10
265.483197
 20
61.81752
 11
266.426929
 21
62.761252
  0
LINE
  5
498
100
AcDbEntity
  8
M0
 62
     2
100
AcDbLine
 10
265.482551
 20
61.817862
 11
266.426587
 21
62.761898
  0
LINE
  5
499
100
AcDbEntity
  8
M0
 62
     2
100
AcDbLine
 10
265.481905
 20
61.818204
 11
266.426245
 21
62.762543
  0
LINE
  5
49A
100
AcDbEntity
  8
M0
 62
     2
100
AcDbLine
 10
265.481261
 20
61.818547
 11
266.425902
 21
62.763188
  0
LINE
  5
49B
100
AcDbEntity
  8
M0
 62
     2
100
AcDbLine
 10
265.480616
 20
61.81889
 11
266.425559
 21
62.763833
  0
LINE
  5
49C
100
AcDbEntity
  8
M0
 62
     2
100
AcDbLine
 10
265.479972
 20
61.819234
 11
266.425215
 21
62.764476
  0
LINE
  5
49D
100
AcDbEntity
  8
M0
 62
     2
100
AcDbLine
 10
265.479329
 20
61.819578
 11
266.424871
 21
62.76512
  0
LINE
  5
49E
100
AcDbEntity
  8
M0
 62
     2
100
AcDbLine
 10
265.478687
 20
61.819923
 11
266.424526
 21
62.765762
  0
LINE
  5
49F
100
AcDbEntity
  8
M0
 62
     2
100
AcDbLine
 10
265.478045
 20
61.820269
 11
266.42418
 21
62.766404
  0
LINE
  5
4A0
100
AcDbEntity
  8
M0
 62
     2
100
AcDbLine
 10
265.477403
 20
61.820615
 11
266.423834
 21
62.767046
  0
LINE
  5
4A1
100
AcDbEntity
  8
M0
 62
     2
100
AcDbLine
 10
265.476762
 20
61.820962
 11
266.423487
 21
62.767687
  0
LINE
  5
4A2
100
AcDbEntity
  8
M0
 62
     2
100
AcDbLine
 10
265.476122
 20
61.821309
 11
266.42314
 21
62.768327
  0
LINE
  5
4A3
100
AcDbEntity
  8
M0
 62
     2
100
AcDbLine
 10
265.475482
 20
61.821657
 11
266.422792
 21
62.768967
  0
LINE
  5
4A4
100
AcDbEntity
  8
M0
 62
     2
100
AcDbLine
 10
265.474843
 20
61.822005
 11
266.422443
 21
62.769606
  0
LINE
  5
4A5
100
AcDbEntity
  8
M0
 62
     2
100
AcDbLine
 10
265.474204
 20
61.822354
 11
266.422094
 21
62.770245
  0
LINE
  5
4A6
100
AcDbEntity
  8
M0
 62
     2
100
AcDbLine
 10
265.473566
 20
61.822704
 11
266.421745
 21
62.770883
  0
LINE
  5
4A7
100
AcDbEntity
  8
M0
 62
     2
100
AcDbLine
 10
265.472928
 20
61.823054
 11
266.421395
 21
62.771521
  0
LINE
  5
4A8
100
AcDbEntity
  8
M0
 62
     2
100
AcDbLine
 10
265.472291
 20
61.823405
 11
266.421044
 21
62.772158
  0
LINE
  5
4A9
100
AcDbEntity
  8
M0
 62
     2
100
AcDbLine
 10
265.471655
 20
61.823756
 11
266.420693
 21
62.772794
  0
LINE
  5
4AA
100
AcDbEntity
  8
M0
 62
     2
100
AcDbLine
 10
265.471019
 20
61.824108
 11
266.420341
 21
62.77343
  0
LINE
  5
4AB
100
AcDbEntity
  8
M0
 62
     2
100
AcDbLine
 10
265.470383
 20
61.82446
 11
266.419989
 21
62.774066
  0
LINE
  5
4AC
100
AcDbEntity
  8
M0
 62
     2
100
AcDbLine
 10
265.469748
 20
61.824813
 11
266.419636
 21
62.7747
  0
LINE
  5
4AD
100
AcDbEntity
  8
M0
 62
     2
100
AcDbLine
 10
265.469114
 20
61.825166
 11
266.419283
 21
62.775335
  0
LINE
  5
4AE
100
AcDbEntity
  8
M0
 62
     2
100
AcDbLine
 10
265.46848
 20
61.82552
 11
266.418929
 21
62.775968
  0
LINE
  5
4AF
100
AcDbEntity
  8
M0
 62
     2
100
AcDbLine
 10
265.467847
 20
61.825875
 11
266.418574
 21
62.776602
  0
LINE
  5
4B0
100
AcDbEntity
  8
M0
 62
     2
100
AcDbLine
 10
265.467215
 20
61.82623
 11
266.418219
 21
62.777234
  0
LINE
  5
4B1
100
AcDbEntity
  8
M0
 62
     2
100
AcDbLine
 10
265.466583
 20
61.826585
 11
266.417863
 21
62.777866
  0
LINE
  5
4B2
100
AcDbEntity
  8
M0
 62
     2
100
AcDbLine
 10
265.465951
 20
61.826942
 11
266.417507
 21
62.778498
  0
LINE
  5
4B3
100
AcDbEntity
  8
M0
 62
     2
100
AcDbLine
 10
265.46532
 20
61.827298
 11
266.417151
 21
62.779129
  0
LINE
  5
4B4
100
AcDbEntity
  8
M0
 62
     2
100
AcDbLine
 10
265.46469
 20
61.827656
 11
266.416793
 21
62.779759
  0
LINE
  5
4B5
100
AcDbEntity
  8
M0
 62
     2
100
AcDbLine
 10
265.46406
 20
61.828013
 11
266.416435
 21
62.780389
  0
LINE
  5
4B6
100
AcDbEntity
  8
M0
 62
     2
100
AcDbLine
 10
265.463431
 20
61.828372
 11
266.416077
 21
62.781018
  0
LINE
  5
4B7
100
AcDbEntity
  8
M0
 62
     2
100
AcDbLine
 10
265.462802
 20
61.828731
 11
266.415718
 21
62.781647
  0
LINE
  5
4B8
100
AcDbEntity
  8
M0
 62
     2
100
AcDbLine
 10
265.462174
 20
61.82909
 11
266.415359
 21
62.782275
  0
LINE
  5
4B9
100
AcDbEntity
  8
M0
 62
     2
100
AcDbLine
 10
265.461546
 20
61.82945
 11
266.414998
 21
62.782903
  0
LINE
  5
4BA
100
AcDbEntity
  8
M0
 62
     2
100
AcDbLine
 10
265.460919
 20
61.829811
 11
266.414638
 21
62.78353
  0
LINE
  5
4BB
100
AcDbEntity
  8
M0
 62
     2
100
AcDbLine
 10
265.460292
 20
61.830172
 11
266.414277
 21
62.784156
  0
LINE
  5
4BC
100
AcDbEntity
  8
M0
 62
     2
100
AcDbLine
 10
265.459666
 20
61.830534
 11
266.413915
 21
62.784782
  0
LINE
  5
4BD
100
AcDbEntity
  8
M0
 62
     2
100
AcDbLine
 10
265.459041
 20
61.830896
 11
266.413553
 21
62.785408
  0
LINE
  5
4BE
100
AcDbEntity
  8
M0
 62
     2
100
AcDbLine
 10
265.458416
 20
61.831259
 11
266.41319
 21
62.786033
  0
LINE
  5
4BF
100
AcDbEntity
  8
M0
 62
     2
100
AcDbLine
 10
265.457792
 20
61.831622
 11
266.412827
 21
62.786657
  0
LINE
  5
4C0
100
AcDbEntity
  8
M0
 62
     2
100
AcDbLine
 10
265.457168
 20
61.831986
 11
266.412463
 21
62.787281
  0
LINE
  5
4C1
100
AcDbEntity
  8
M0
 62
     2
100
AcDbLine
 10
265.456545
 20
61.83235
 11
266.412098
 21
62.787904
  0
LINE
  5
4C2
100
AcDbEntity
  8
M0
 62
     2
100
AcDbLine
 10
265.455922
 20
61.832715
 11
266.411733
 21
62.788527
  0
LINE
  5
4C3
100
AcDbEntity
  8
M0
 62
     2
100
AcDbLine
 10
265.4553
 20
61.833081
 11
266.411368
 21
62.789149
  0
LINE
  5
4C4
100
AcDbEntity
  8
M0
 62
     2
100
AcDbLine
 10
265.454678
 20
61.833447
 11
266.411002
 21
62.789771
  0
LINE
  5
4C5
100
AcDbEntity
  8
M0
 62
     2
100
AcDbLine
 10
265.454057
 20
61.833814
 11
266.410635
 21
62.790392
  0
LINE
  5
4C6
100
AcDbEntity
  8
M0
 62
     2
100
AcDbLine
 10
265.453437
 20
61.834181
 11
266.410268
 21
62.791012
  0
LINE
  5
4C7
100
AcDbEntity
  8
M0
 62
     2
100
AcDbLine
 10
265.452817
 20
61.834548
 11
266.4099
 21
62.791632
  0
LINE
  5
4C8
100
AcDbEntity
  8
M0
 62
     2
100
AcDbLine
 10
265.452197
 20
61.834917
 11
266.409532
 21
62.792252
  0
LINE
  5
4C9
100
AcDbEntity
  8
M0
 62
     2
100
AcDbLine
 10
265.451578
 20
61.835285
 11
266.409163
 21
62.792871
  0
LINE
  5
4CA
100
AcDbEntity
  8
M0
 62
     2
100
AcDbLine
 10
265.45096
 20
61.835655
 11
266.408794
 21
62.793489
  0
LINE
  5
4CB
100
AcDbEntity
  8
M0
 62
     2
100
AcDbLine
 10
265.450342
 20
61.836025
 11
266.408424
 21
62.794107
  0
LINE
  5
4CC
100
AcDbEntity
  8
M0
 62
     2
100
AcDbLine
 10
265.449725
 20
61.836395
 11
266.408054
 21
62.794724
  0
LINE
  5
4CD
100
AcDbEntity
  8
M0
 62
     2
100
AcDbLine
 10
265.449108
 20
61.836766
 11
266.407683
 21
62.795341
  0
LINE
  5
4CE
100
AcDbEntity
  8
M0
 62
     2
100
AcDbLine
 10
265.448492
 20
61.837137
 11
266.407311
 21
62.795957
  0
LINE
  5
4CF
100
AcDbEntity
  8
M0
 62
     2
100
AcDbLine
 10
265.447876
 20
61.837509
 11
266.406939
 21
62.796573
  0
LINE
  5
4D0
100
AcDbEntity
  8
M0
 62
     2
100
AcDbLine
 10
265.447261
 20
61.837882
 11
266.406567
 21
62.797188
  0
LINE
  5
4D1
100
AcDbEntity
  8
M0
 62
     2
100
AcDbLine
 10
265.446646
 20
61.838255
 11
266.406194
 21
62.797802
  0
LINE
  5
4D2
100
AcDbEntity
  8
M0
 62
     2
100
AcDbLine
 10
265.446032
 20
61.838629
 11
266.40582
 21
62.798416
  0
LINE
  5
4D3
100
AcDbEntity
  8
M0
 62
     2
100
AcDbLine
 10
265.445419
 20
61.839003
 11
266.405446
 21
62.79903
  0
LINE
  5
4D4
100
AcDbEntity
  8
M0
 62
     2
100
AcDbLine
 10
265.444806
 20
61.839378
 11
266.405071
 21
62.799643
  0
LINE
  5
4D5
100
AcDbEntity
  8
M0
 62
     2
100
AcDbLine
 10
265.444193
 20
61.839753
 11
266.404696
 21
62.800255
  0
LINE
  5
4D6
100
AcDbEntity
  8
M0
 62
     2
100
AcDbLine
 10
265.443582
 20
61.840129
 11
266.40432
 21
62.800867
  0
LINE
  5
4D7
100
AcDbEntity
  8
M0
 62
     2
100
AcDbLine
 10
265.44297
 20
61.840505
 11
266.403944
 21
62.801479
  0
LINE
  5
4D8
100
AcDbEntity
  8
M0
 62
     2
100
AcDbLine
 10
265.442359
 20
61.840882
 11
266.403567
 21
62.802089
  0
LINE
  5
4D9
100
AcDbEntity
  8
M0
 62
     2
100
AcDbLine
 10
265.441749
 20
61.841259
 11
266.403189
 21
62.8027
  0
LINE
  5
4DA
100
AcDbEntity
  8
M0
 62
     2
100
AcDbLine
 10
265.441139
 20
61.841637
 11
266.402812
 21
62.803309
  0
LINE
  5
4DB
100
AcDbEntity
  8
M0
 62
     2
100
AcDbLine
 10
265.44053
 20
61.842016
 11
266.402433
 21
62.803919
  0
LINE
  5
4DC
100
AcDbEntity
  8
M0
 62
     2
100
AcDbLine
 10
265.439921
 20
61.842395
 11
266.402054
 21
62.804527
  0
LINE
  5
4DD
100
AcDbEntity
  8
M0
 62
     2
100
AcDbLine
 10
265.439313
 20
61.842774
 11
266.401675
 21
62.805136
  0
LINE
  5
4DE
100
AcDbEntity
  8
M0
 62
     2
100
AcDbLine
 10
265.438706
 20
61.843154
 11
266.401294
 21
62.805743
  0
LINE
  5
4DF
100
AcDbEntity
  8
M0
 62
     2
100
AcDbLine
 10
265.438099
 20
61.843535
 11
266.400914
 21
62.80635
  0
LINE
  5
4E0
100
AcDbEntity
  8
M0
 62
     2
100
AcDbLine
 10
265.437492
 20
61.843916
 11
266.400533
 21
62.806957
  0
LINE
  5
4E1
100
AcDbEntity
  8
M0
 62
     2
100
AcDbLine
 10
265.436886
 20
61.844298
 11
266.400151
 21
62.807563
  0
LINE
  5
4E2
100
AcDbEntity
  8
M0
 62
     2
100
AcDbLine
 10
265.436281
 20
61.84468
 11
266.399769
 21
62.808168
  0
LINE
  5
4E3
100
AcDbEntity
  8
M0
 62
     2
100
AcDbLine
 10
265.435676
 20
61.845063
 11
266.399386
 21
62.808773
  0
LINE
  5
4E4
100
AcDbEntity
  8
M0
 62
     2
100
AcDbLine
 10
265.435071
 20
61.845446
 11
266.399003
 21
62.809378
  0
LINE
  5
4E5
100
AcDbEntity
  8
M0
 62
     2
100
AcDbLine
 10
265.434467
 20
61.84583
 11
266.398619
 21
62.809982
  0
LINE
  5
4E6
100
AcDbEntity
  8
M0
 62
     2
100
AcDbLine
 10
265.433864
 20
61.846214
 11
266.398235
 21
62.810585
  0
LINE
  5
4E7
100
AcDbEntity
  8
M0
 62
     2
100
AcDbLine
 10
265.433261
 20
61.846599
 11
266.39785
 21
62.811188
  0
LINE
  5
4E8
100
AcDbEntity
  8
M0
 62
     2
100
AcDbLine
 10
265.432659
 20
61.846984
 11
266.397464
 21
62.81179
  0
LINE
  5
4E9
100
AcDbEntity
  8
M0
 62
     2
100
AcDbLine
 10
265.432057
 20
61.84737
 11
266.397079
 21
62.812392
  0
LINE
  5
4EA
100
AcDbEntity
  8
M0
 62
     2
100
AcDbLine
 10
265.431456
 20
61.847757
 11
266.396692
 21
62.812993
  0
LINE
  5
4EB
100
AcDbEntity
  8
M0
 62
     2
100
AcDbLine
 10
265.430855
 20
61.848144
 11
266.396305
 21
62.813594
  0
LINE
  5
4EC
100
AcDbEntity
  8
M0
 62
     2
100
AcDbLine
 10
265.430255
 20
61.848531
 11
266.395918
 21
62.814194
  0
LINE
  5
4ED
100
AcDbEntity
  8
M0
 62
     2
100
AcDbLine
 10
265.429655
 20
61.848919
 11
266.39553
 21
62.814794
  0
LINE
  5
4EE
100
AcDbEntity
  8
M0
 62
     2
100
AcDbLine
 10
265.429056
 20
61.849308
 11
266.395141
 21
62.815393
  0
LINE
  5
4EF
100
AcDbEntity
  8
M0
 62
     2
100
AcDbLine
 10
265.428458
 20
61.849697
 11
266.394752
 21
62.815991
  0
LINE
  5
4F0
100
AcDbEntity
  8
M0
 62
     2
100
AcDbLine
 10
265.427859
 20
61.850086
 11
266.394362
 21
62.816589
  0
LINE
  5
4F1
100
AcDbEntity
  8
M0
 62
     2
100
AcDbLine
 10
265.427262
 20
61.850477
 11
266.393972
 21
62.817187
  0
LINE
  5
4F2
100
AcDbEntity
  8
M0
 62
     2
100
AcDbLine
 10
265.426665
 20
61.850867
 11
266.393582
 21
62.817784
  0
LINE
  5
4F3
100
AcDbEntity
  8
M0
 62
     2
100
AcDbLine
 10
265.426068
 20
61.851259
 11
266.39319
 21
62.81838
  0
LINE
  5
4F4
100
AcDbEntity
  8
M0
 62
     2
100
AcDbLine
 10
265.425472
 20
61.85165
 11
266.392799
 21
62.818976
  0
LINE
  5
4F5
100
AcDbEntity
  8
M0
 62
     2
100
AcDbLine
 10
265.424877
 20
61.852042
 11
266.392406
 21
62.819572
  0
LINE
  5
4F6
100
AcDbEntity
  8
M0
 62
     2
100
AcDbLine
 10
265.424282
 20
61.852435
 11
266.392014
 21
62.820167
  0
LINE
  5
4F7
100
AcDbEntity
  8
M0
 62
     2
100
AcDbLine
 10
265.423688
 20
61.852829
 11
266.39162
 21
62.820761
  0
LINE
  5
4F8
100
AcDbEntity
  8
M0
 62
     2
100
AcDbLine
 10
265.423094
 20
61.853222
 11
266.391226
 21
62.821355
  0
LINE
  5
4F9
100
AcDbEntity
  8
M0
 62
     2
100
AcDbLine
 10
265.422501
 20
61.853617
 11
266.390832
 21
62.821948
  0
LINE
  5
4FA
100
AcDbEntity
  8
M0
 62
     2
100
AcDbLine
 10
265.421908
 20
61.854012
 11
266.390437
 21
62.822541
  0
LINE
  5
4FB
100
AcDbEntity
  8
M0
 62
     2
100
AcDbLine
 10
265.421315
 20
61.854407
 11
266.390042
 21
62.823133
  0
LINE
  5
4FC
100
AcDbEntity
  8
M0
 62
     2
100
AcDbLine
 10
265.420724
 20
61.854803
 11
266.389646
 21
62.823725
  0
LINE
  5
4FD
100
AcDbEntity
  8
M0
 62
     2
100
AcDbLine
 10
265.420132
 20
61.855199
 11
266.389249
 21
62.824316
  0
LINE
  5
4FE
100
AcDbEntity
  8
M0
 62
     2
100
AcDbLine
 10
265.419542
 20
61.855596
 11
266.388852
 21
62.824907
  0
LINE
  5
4FF
100
AcDbEntity
  8
M0
 62
     2
100
AcDbLine
 10
265.418952
 20
61.855994
 11
266.388455
 21
62.825497
  0
LINE
  5
500
100
AcDbEntity
  8
M0
 62
     2
100
AcDbLine
 10
265.418362
 20
61.856392
 11
266.388057
 21
62.826087
  0
LINE
  5
501
100
AcDbEntity
  8
M0
 62
     2
100
AcDbLine
 10
265.417773
 20
61.85679
 11
266.387658
 21
62.826676
  0
LINE
  5
502
100
AcDbEntity
  8
M0
 62
     2
100
AcDbLine
 10
265.417184
 20
61.857189
 11
266.387259
 21
62.827265
  0
LINE
  5
503
100
AcDbEntity
  8
M0
 62
     2
100
AcDbLine
 10
265.416596
 20
61.857589
 11
266.38686
 21
62.827853
  0
LINE
  5
504
100
AcDbEntity
  8
M0
 62
     2
100
AcDbLine
 10
265.416008
 20
61.857989
 11
266.38646
 21
62.82844
  0
LINE
  5
505
100
AcDbEntity
  8
M0
 62
     2
100
AcDbLine
 10
265.415421
 20
61.85839
 11
266.386059
 21
62.829028
  0
LINE
  5
506
100
AcDbEntity
  8
M0
 62
     2
100
AcDbLine
 10
265.414835
 20
61.858791
 11
266.385658
 21
62.829614
  0
LINE
  5
507
100
AcDbEntity
  8
M0
 62
     2
100
AcDbLine
 10
265.414249
 20
61.859193
 11
266.385256
 21
62.8302
  0
LINE
  5
508
100
AcDbEntity
  8
M0
 62
     2
100
AcDbLine
 10
265.413663
 20
61.859595
 11
266.384854
 21
62.830786
  0
LINE
  5
509
100
AcDbEntity
  8
M0
 62
     2
100
AcDbLine
 10
265.413078
 20
61.859997
 11
266.384451
 21
62.831371
  0
LINE
  5
50A
100
AcDbEntity
  8
M0
 62
     2
100
AcDbLine
 10
265.412494
 20
61.860401
 11
266.384048
 21
62.831955
  0
LINE
  5
50B
100
AcDbEntity
  8
M0
 62
     2
100
AcDbLine
 10
265.41191
 20
61.860804
 11
266.383644
 21
62.832539
  0
LINE
  5
50C
100
AcDbEntity
  8
M0
 62
     2
100
AcDbLine
 10
265.411326
 20
61.861209
 11
266.38324
 21
62.833122
  0
LINE
  5
50D
100
AcDbEntity
  8
M0
 62
     2
100
AcDbLine
 10
265.410743
 20
61.861613
 11
266.382835
 21
62.833705
  0
LINE
  5
50E
100
AcDbEntity
  8
M0
 62
     2
100
AcDbLine
 10
265.410161
 20
61.862019
 11
266.38243
 21
62.834288
  0
LINE
  5
50F
100
AcDbEntity
  8
M0
 62
     2
100
AcDbLine
 10
265.409579
 20
61.862424
 11
266.382024
 21
62.83487
  0
LINE
  5
510
100
AcDbEntity
  8
M0
 62
     2
100
AcDbLine
 10
265.408998
 20
61.862831
 11
266.381618
 21
62.835451
  0
LINE
  5
511
100
AcDbEntity
  8
M0
 62
     2
100
AcDbLine
 10
265.408417
 20
61.863238
 11
266.381211
 21
62.836032
  0
LINE
  5
512
100
AcDbEntity
  8
M0
 62
     2
100
AcDbLine
 10
265.407837
 20
61.863645
 11
266.380804
 21
62.836612
  0
LINE
  5
513
100
AcDbEntity
  8
M0
 62
     2
100
AcDbLine
 10
265.407257
 20
61.864053
 11
266.380396
 21
62.837192
  0
LINE
  5
514
100
AcDbEntity
  8
M0
 62
     2
100
AcDbLine
 10
265.406678
 20
61.864461
 11
266.379988
 21
62.837771
  0
LINE
  5
515
100
AcDbEntity
  8
M0
 62
     2
100
AcDbLine
 10
265.406099
 20
61.86487
 11
266.379579
 21
62.83835
  0
LINE
  5
516
100
AcDbEntity
  8
M0
 62
     2
100
AcDbLine
 10
265.40552
 20
61.86528
 11
266.379169
 21
62.838928
  0
LINE
  5
517
100
AcDbEntity
  8
M0
 62
     2
100
AcDbLine
 10
265.404943
 20
61.86569
 11
266.378759
 21
62.839506
  0
LINE
  5
518
100
AcDbEntity
  8
M0
 62
     2
100
AcDbLine
 10
265.404366
 20
61.8661
 11
266.378349
 21
62.840083
  0
LINE
  5
519
100
AcDbEntity
  8
M0
 62
     2
100
AcDbLine
 10
265.403789
 20
61.866511
 11
266.377938
 21
62.84066
  0
LINE
  5
51A
100
AcDbEntity
  8
M0
 62
     2
100
AcDbLine
 10
265.403213
 20
61.866922
 11
266.377526
 21
62.841236
  0
LINE
  5
51B
100
AcDbEntity
  8
M0
 62
     2
100
AcDbLine
 10
265.402637
 20
61.867334
 11
266.377114
 21
62.841812
  0
LINE
  5
51C
100
AcDbEntity
  8
M0
 62
     2
100
AcDbLine
 10
265.402062
 20
61.867747
 11
266.376702
 21
62.842387
  0
LINE
  5
51D
100
AcDbEntity
  8
M0
 62
     2
100
AcDbLine
 10
265.401487
 20
61.86816
 11
266.376289
 21
62.842962
  0
LINE
  5
51E
100
AcDbEntity
  8
M0
 62
     2
100
AcDbLine
 10
265.400913
 20
61.868574
 11
266.375875
 21
62.843536
  0
LINE
  5
51F
100
AcDbEntity
  8
M0
 62
     2
100
AcDbLine
 10
265.400339
 20
61.868988
 11
266.375461
 21
62.84411
  0
LINE
  5
520
100
AcDbEntity
  8
M0
 62
     2
100
AcDbLine
 10
265.399766
 20
61.869402
 11
266.375047
 21
62.844683
  0
LINE
  5
521
100
AcDbEntity
  8
M0
 62
     2
100
AcDbLine
 10
265.399194
 20
61.869817
 11
266.374632
 21
62.845255
  0
LINE
  5
522
100
AcDbEntity
  8
M0
 62
     2
100
AcDbLine
 10
265.398621
 20
61.870233
 11
266.374216
 21
62.845827
  0
LINE
  5
523
100
AcDbEntity
  8
M0
 62
     2
100
AcDbLine
 10
265.39805
 20
61.870649
 11
266.3738
 21
62.846399
  0
LINE
  5
524
100
AcDbEntity
  8
M0
 62
     2
100
AcDbLine
 10
265.397479
 20
61.871066
 11
266.373383
 21
62.84697
  0
LINE
  5
525
100
AcDbEntity
  8
M0
 62
     2
100
AcDbLine
 10
265.396908
 20
61.871483
 11
266.372966
 21
62.847541
  0
LINE
  5
526
100
AcDbEntity
  8
M0
 62
     2
100
AcDbLine
 10
265.396338
 20
61.8719
 11
266.372549
 21
62.848111
  0
LINE
  5
527
100
AcDbEntity
  8
M0
 62
     2
100
AcDbLine
 10
265.395769
 20
61.872318
 11
266.37213
 21
62.84868
  0
LINE
  5
528
100
AcDbEntity
  8
M0
 62
     2
100
AcDbLine
 10
265.3952
 20
61.872737
 11
266.371712
 21
62.849249
  0
LINE
  5
529
100
AcDbEntity
  8
M0
 62
     2
100
AcDbLine
 10
265.394631
 20
61.873156
 11
266.371293
 21
62.849818
  0
LINE
  5
52A
100
AcDbEntity
  8
M0
 62
     2
100
AcDbLine
 10
265.394063
 20
61.873576
 11
266.370873
 21
62.850386
  0
LINE
  5
52B
100
AcDbEntity
  8
M0
 62
     2
100
AcDbLine
 10
265.393496
 20
61.873996
 11
266.370453
 21
62.850953
  0
LINE
  5
52C
100
AcDbEntity
  8
M0
 62
     2
100
AcDbLine
 10
265.392929
 20
61.874417
 11
266.370032
 21
62.85152
  0
LINE
  5
52D
100
AcDbEntity
  8
M0
 62
     2
100
AcDbLine
 10
265.392362
 20
61.874838
 11
266.369611
 21
62.852087
  0
LINE
  5
52E
100
AcDbEntity
  8
M0
 62
     2
100
AcDbLine
 10
265.391796
 20
61.87526
 11
266.369189
 21
62.852653
  0
LINE
  5
52F
100
AcDbEntity
  8
M0
 62
     2
100
AcDbLine
 10
265.391231
 20
61.875682
 11
266.368767
 21
62.853218
  0
LINE
  5
530
100
AcDbEntity
  8
M0
 62
     2
100
AcDbLine
 10
265.390666
 20
61.876105
 11
266.368344
 21
62.853783
  0
LINE
  5
531
100
AcDbEntity
  8
M0
 62
     2
100
AcDbLine
 10
265.390101
 20
61.876528
 11
266.367921
 21
62.854347
  0
LINE
  5
532
100
AcDbEntity
  8
M0
 62
     2
100
AcDbLine
 10
265.389537
 20
61.876952
 11
266.367497
 21
62.854911
  0
LINE
  5
533
100
AcDbEntity
  8
M0
 62
     2
100
AcDbLine
 10
265.388974
 20
61.877376
 11
266.367073
 21
62.855475
  0
LINE
  5
534
100
AcDbEntity
  8
M0
 62
     2
100
AcDbLine
 10
265.388411
 20
61.877801
 11
266.366648
 21
62.856038
  0
LINE
  5
535
100
AcDbEntity
  8
M0
 62
     2
100
AcDbLine
 10
265.387849
 20
61.878226
 11
266.366223
 21
62.8566
  0
LINE
  5
536
100
AcDbEntity
  8
M0
 62
     2
100
AcDbLine
 10
265.387287
 20
61.878652
 11
266.365797
 21
62.857162
  0
LINE
  5
537
100
AcDbEntity
  8
M0
 62
     2
100
AcDbLine
 10
265.386725
 20
61.879078
 11
266.365371
 21
62.857723
  0
LINE
  5
538
100
AcDbEntity
  8
M0
 62
     2
100
AcDbLine
 10
265.386165
 20
61.879505
 11
266.364944
 21
62.858284
  0
LINE
  5
539
100
AcDbEntity
  8
M0
 62
     2
100
AcDbLine
 10
265.385604
 20
61.879932
 11
266.364516
 21
62.858845
  0
LINE
  5
53A
100
AcDbEntity
  8
M0
 62
     2
100
AcDbLine
 10
265.385044
 20
61.88036
 11
266.364089
 21
62.859404
  0
LINE
  5
53B
100
AcDbEntity
  8
M0
 62
     2
100
AcDbLine
 10
265.384485
 20
61.880789
 11
266.36366
 21
62.859964
  0
LINE
  5
53C
100
AcDbEntity
  8
M0
 62
     2
100
AcDbLine
 10
265.383926
 20
61.881217
 11
266.363231
 21
62.860523
  0
LINE
  5
53D
100
AcDbEntity
  8
M0
 62
     2
100
AcDbLine
 10
265.383368
 20
61.881647
 11
266.362802
 21
62.861081
  0
LINE
  5
53E
100
AcDbEntity
  8
M0
 62
     2
100
AcDbLine
 10
265.38281
 20
61.882077
 11
266.362372
 21
62.861639
  0
LINE
  5
53F
100
AcDbEntity
  8
M0
 62
     2
100
AcDbLine
 10
265.382253
 20
61.882507
 11
266.361942
 21
62.862196
  0
LINE
  5
540
100
AcDbEntity
  8
M0
 62
     2
100
AcDbLine
 10
265.381696
 20
61.882938
 11
266.361511
 21
62.862753
  0
LINE
  5
541
100
AcDbEntity
  8
M0
 62
     2
100
AcDbLine
 10
265.38114
 20
61.883369
 11
266.36108
 21
62.863309
  0
LINE
  5
542
100
AcDbEntity
  8
M0
 62
     2
100
AcDbLine
 10
265.380584
 20
61.883801
 11
266.360648
 21
62.863865
  0
LINE
  5
543
100
AcDbEntity
  8
M0
 62
     2
100
AcDbLine
 10
265.380028
 20
61.884233
 11
266.360215
 21
62.86442
  0
LINE
  5
544
100
AcDbEntity
  8
M0
 62
     2
100
AcDbLine
 10
265.379474
 20
61.884666
 11
266.359782
 21
62.864975
  0
LINE
  5
545
100
AcDbEntity
  8
M0
 62
     2
100
AcDbLine
 10
265.378919
 20
61.8851
 11
266.359349
 21
62.865529
  0
LINE
  5
546
100
AcDbEntity
  8
M0
 62
     2
100
AcDbLine
 10
265.378366
 20
61.885534
 11
266.358915
 21
62.866083
  0
LINE
  5
547
100
AcDbEntity
  8
M0
 62
     2
100
AcDbLine
 10
265.377812
 20
61.885968
 11
266.358481
 21
62.866637
  0
LINE
  5
548
100
AcDbEntity
  8
M0
 62
     2
100
AcDbLine
 10
265.37726
 20
61.886403
 11
266.358046
 21
62.867189
  0
LINE
  5
549
100
AcDbEntity
  8
M0
 62
     2
100
AcDbLine
 10
265.376707
 20
61.886838
 11
266.35761
 21
62.867742
  0
LINE
  5
54A
100
AcDbEntity
  8
M0
 62
     2
100
AcDbLine
 10
265.376155
 20
61.887274
 11
266.357175
 21
62.868293
  0
LINE
  5
54B
100
AcDbEntity
  8
M0
 62
     2
100
AcDbLine
 10
265.375604
 20
61.887711
 11
266.356738
 21
62.868845
  0
LINE
  5
54C
100
AcDbEntity
  8
M0
 62
     2
100
AcDbLine
 10
265.375053
 20
61.888148
 11
266.356301
 21
62.869395
  0
LINE
  5
54D
100
AcDbEntity
  8
M0
 62
     2
100
AcDbLine
 10
265.374503
 20
61.888585
 11
266.355864
 21
62.869946
  0
LINE
  5
54E
100
AcDbEntity
  8
M0
 62
     2
100
AcDbLine
 10
265.373953
 20
61.889023
 11
266.355426
 21
62.870495
  0
LINE
  5
54F
100
AcDbEntity
  8
M0
 62
     2
100
AcDbLine
 10
265.373404
 20
61.889461
 11
266.354987
 21
62.871045
  0
LINE
  5
550
100
AcDbEntity
  8
M0
 62
     2
100
AcDbLine
 10
265.372855
 20
61.8899
 11
266.354548
 21
62.871593
  0
LINE
  5
551
100
AcDbEntity
  8
M0
 62
     2
100
AcDbLine
 10
265.372307
 20
61.89034
 11
266.354109
 21
62.872142
  0
LINE
  5
552
100
AcDbEntity
  8
M0
 62
     2
100
AcDbLine
 10
265.371759
 20
61.89078
 11
266.353669
 21
62.872689
  0
LINE
  5
553
100
AcDbEntity
  8
M0
 62
     2
100
AcDbLine
 10
265.371212
 20
61.89122
 11
266.353229
 21
62.873237
  0
LINE
  5
554
100
AcDbEntity
  8
M0
 62
     2
100
AcDbLine
 10
265.370665
 20
61.891661
 11
266.352788
 21
62.873783
  0
LINE
  5
555
100
AcDbEntity
  8
M0
 62
     2
100
AcDbLine
 10
265.370119
 20
61.892103
 11
266.352346
 21
62.87433
  0
LINE
  5
556
100
AcDbEntity
  8
M0
 62
     2
100
AcDbLine
 10
265.369573
 20
61.892545
 11
266.351904
 21
62.874875
  0
LINE
  5
557
100
AcDbEntity
  8
M0
 62
     2
100
AcDbLine
 10
265.369028
 20
61.892987
 11
266.351462
 21
62.875421
  0
LINE
  5
558
100
AcDbEntity
  8
M0
 62
     2
100
AcDbLine
 10
265.368484
 20
61.89343
 11
266.351019
 21
62.875965
  0
LINE
  5
559
100
AcDbEntity
  8
M0
 62
     2
100
AcDbLine
 10
265.367939
 20
61.893873
 11
266.350575
 21
62.87651
  0
LINE
  5
55A
100
AcDbEntity
  8
M0
 62
     2
100
AcDbLine
 10
265.367396
 20
61.894317
 11
266.350131
 21
62.877053
  0
LINE
  5
55B
100
AcDbEntity
  8
M0
 62
     2
100
AcDbLine
 10
265.366852
 20
61.894762
 11
266.349687
 21
62.877596
  0
LINE
  5
55C
100
AcDbEntity
  8
M0
 62
     2
100
AcDbLine
 10
265.36631
 20
61.895207
 11
266.349242
 21
62.878139
  0
LINE
  5
55D
100
AcDbEntity
  8
M0
 62
     2
100
AcDbLine
 10
265.365767
 20
61.895652
 11
266.348797
 21
62.878681
  0
LINE
  5
55E
100
AcDbEntity
  8
M0
 62
     2
100
AcDbLine
 10
265.365226
 20
61.896098
 11
266.348351
 21
62.879223
  0
LINE
  5
55F
100
AcDbEntity
  8
M0
 62
     2
100
AcDbLine
 10
265.364684
 20
61.896545
 11
266.347904
 21
62.879764
  0
LINE
  5
560
100
AcDbEntity
  8
M0
 62
     2
100
AcDbLine
 10
265.364144
 20
61.896992
 11
266.347457
 21
62.880305
  0
LINE
  5
561
100
AcDbEntity
  8
M0
 62
     2
100
AcDbLine
 10
265.363603
 20
61.897439
 11
266.34701
 21
62.880845
  0
LINE
  5
562
100
AcDbEntity
  8
M0
 62
     2
100
AcDbLine
 10
265.363064
 20
61.897887
 11
266.346562
 21
62.881385
  0
LINE
  5
563
100
AcDbEntity
  8
M0
 62
     2
100
AcDbLine
 10
265.362525
 20
61.898336
 11
266.346113
 21
62.881924
  0
LINE
  5
564
100
AcDbEntity
  8
M0
 62
     2
100
AcDbLine
 10
265.361986
 20
61.898784
 11
266.345664
 21
62.882463
  0
LINE
  5
565
100
AcDbEntity
  8
M0
 62
     2
100
AcDbLine
 10
265.361448
 20
61.899234
 11
266.345215
 21
62.883001
  0
LINE
  5
566
100
AcDbEntity
  8
M0
 62
     2
100
AcDbLine
 10
265.36091
 20
61.899684
 11
266.344765
 21
62.883539
  0
LINE
  5
567
100
AcDbEntity
  8
M0
 62
     2
100
AcDbLine
 10
265.360373
 20
61.900134
 11
266.344314
 21
62.884076
  0
LINE
  5
568
100
AcDbEntity
  8
M0
 62
     2
100
AcDbLine
 10
265.359836
 20
61.900585
 11
266.343863
 21
62.884613
  0
LINE
  5
569
100
AcDbEntity
  8
M0
 62
     2
100
AcDbLine
 10
265.3593
 20
61.901037
 11
266.343412
 21
62.885149
  0
LINE
  5
56A
100
AcDbEntity
  8
M0
 62
     2
100
AcDbLine
 10
265.358764
 20
61.901489
 11
266.34296
 21
62.885685
  0
LINE
  5
56B
100
AcDbEntity
  8
M0
 62
     2
100
AcDbLine
 10
265.358229
 20
61.901941
 11
266.342508
 21
62.88622
  0
LINE
  5
56C
100
AcDbEntity
  8
M0
 62
     2
100
AcDbLine
 10
265.357694
 20
61.902394
 11
266.342055
 21
62.886755
  0
LINE
  5
56D
100
AcDbEntity
  8
M0
 62
     2
100
AcDbLine
 10
265.35716
 20
61.902848
 11
266.341601
 21
62.887289
  0
LINE
  5
56E
100
AcDbEntity
  8
M0
 62
     2
100
AcDbLine
 10
265.356626
 20
61.903302
 11
266.341147
 21
62.887823
  0
LINE
  5
56F
100
AcDbEntity
  8
M0
 62
     2
100
AcDbLine
 10
265.356093
 20
61.903756
 11
266.340693
 21
62.888356
  0
LINE
  5
570
100
AcDbEntity
  8
M0
 62
     2
100
AcDbLine
 10
265.35556
 20
61.904211
 11
266.340238
 21
62.888889
  0
LINE
  5
571
100
AcDbEntity
  8
M0
 62
     2
100
AcDbLine
 10
265.355028
 20
61.904666
 11
266.339782
 21
62.889421
  0
LINE
  5
572
100
AcDbEntity
  8
M0
 62
     2
100
AcDbLine
 10
265.354496
 20
61.905122
 11
266.339326
 21
62.889953
  0
LINE
  5
573
100
AcDbEntity
  8
M0
 62
     2
100
AcDbLine
 10
265.353965
 20
61.905579
 11
266.33887
 21
62.890484
  0
LINE
  5
574
100
AcDbEntity
  8
M0
 62
     2
100
AcDbLine
 10
265.353434
 20
61.906036
 11
266.338413
 21
62.891015
  0
LINE
  5
575
100
AcDbEntity
  8
M0
 62
     2
100
AcDbLine
 10
265.352904
 20
61.906493
 11
266.337956
 21
62.891545
  0
LINE
  5
576
100
AcDbEntity
  8
M0
 62
     2
100
AcDbLine
 10
265.352374
 20
61.906951
 11
266.337498
 21
62.892075
  0
LINE
  5
577
100
AcDbEntity
  8
M0
 62
     2
100
AcDbLine
 10
265.351845
 20
61.90741
 11
266.337039
 21
62.892604
  0
LINE
  5
578
100
AcDbEntity
  8
M0
 62
     2
100
AcDbLine
 10
265.351316
 20
61.907869
 11
266.33658
 21
62.893133
  0
LINE
  5
579
100
AcDbEntity
  8
M0
 62
     2
100
AcDbLine
 10
265.350788
 20
61.908328
 11
266.336121
 21
62.893661
  0
LINE
  5
57A
100
AcDbEntity
  8
M0
 62
     2
100
AcDbLine
 10
265.35026
 20
61.908788
 11
266.335661
 21
62.894189
  0
LINE
  5
57B
100
AcDbEntity
  8
M0
 62
     2
100
AcDbLine
 10
265.349733
 20
61.909248
 11
266.3352
 21
62.894716
  0
LINE
  5
57C
100
AcDbEntity
  8
M0
 62
     2
100
AcDbLine
 10
265.349206
 20
61.909709
 11
266.334739
 21
62.895243
  0
LINE
  5
57D
100
AcDbEntity
  8
M0
 62
     2
100
AcDbLine
 10
265.34868
 20
61.910171
 11
266.334278
 21
62.895769
  0
LINE
  5
57E
100
AcDbEntity
  8
M0
 62
     2
100
AcDbLine
 10
265.348154
 20
61.910633
 11
266.333816
 21
62.896295
  0
LINE
  5
57F
100
AcDbEntity
  8
M0
 62
     2
100
AcDbLine
 10
265.347629
 20
61.911095
 11
266.333354
 21
62.89682
  0
LINE
  5
580
100
AcDbEntity
  8
M0
 62
     2
100
AcDbLine
 10
265.347104
 20
61.911558
 11
266.332891
 21
62.897345
  0
LINE
  5
581
100
AcDbEntity
  8
M0
 62
     2
100
AcDbLine
 10
265.34658
 20
61.912021
 11
266.332427
 21
62.897869
  0
LINE
  5
582
100
AcDbEntity
  8
M0
 62
     2
100
AcDbLine
 10
265.346056
 20
61.912485
 11
266.331963
 21
62.898393
  0
LINE
  5
583
100
AcDbEntity
  8
M0
 62
     2
100
AcDbLine
 10
265.345533
 20
61.91295
 11
266.331499
 21
62.898916
  0
LINE
  5
584
100
AcDbEntity
  8
M0
 62
     2
100
AcDbLine
 10
265.34501
 20
61.913415
 11
266.331034
 21
62.899439
  0
LINE
  5
585
100
AcDbEntity
  8
M0
 62
     2
100
AcDbLine
 10
265.344488
 20
61.91388
 11
266.330569
 21
62.899961
  0
LINE
  5
586
100
AcDbEntity
  8
M0
 62
     2
100
AcDbLine
 10
265.343966
 20
61.914346
 11
266.330103
 21
62.900483
  0
LINE
  5
587
100
AcDbEntity
  8
M0
 62
     2
100
AcDbLine
 10
265.343445
 20
61.914812
 11
266.329636
 21
62.901004
  0
LINE
  5
588
100
AcDbEntity
  8
M0
 62
     2
100
AcDbLine
 10
265.342924
 20
61.915279
 11
266.32917
 21
62.901525
  0
LINE
  5
589
100
AcDbEntity
  8
M0
 62
     2
100
AcDbLine
 10
265.342404
 20
61.915747
 11
266.328702
 21
62.902045
  0
LINE
  5
58A
100
AcDbEntity
  8
M0
 62
     2
100
AcDbLine
 10
265.341884
 20
61.916215
 11
266.328234
 21
62.902565
  0
LINE
  5
58B
100
AcDbEntity
  8
M0
 62
     2
100
AcDbLine
 10
265.341364
 20
61.916683
 11
266.327766
 21
62.903084
  0
LINE
  5
58C
100
AcDbEntity
  8
M0
 62
     2
100
AcDbLine
 10
265.340846
 20
61.917152
 11
266.327297
 21
62.903603
  0
LINE
  5
58D
100
AcDbEntity
  8
M0
 62
     2
100
AcDbLine
 10
265.340327
 20
61.917621
 11
266.326828
 21
62.904121
  0
LINE
  5
58E
100
AcDbEntity
  8
M0
 62
     2
100
AcDbLine
 10
265.33981
 20
61.918091
 11
266.326358
 21
62.904639
  0
LINE
  5
58F
100
AcDbEntity
  8
M0
 62
     2
100
AcDbLine
 10
265.339292
 20
61.918561
 11
266.325887
 21
62.905157
  0
LINE
  5
590
100
AcDbEntity
  8
M0
 62
     2
100
AcDbLine
 10
265.338775
 20
61.919032
 11
266.325417
 21
62.905673
  0
LINE
  5
591
100
AcDbEntity
  8
M0
 62
     2
100
AcDbLine
 10
265.338259
 20
61.919504
 11
266.324945
 21
62.90619
  0
LINE
  5
592
100
AcDbEntity
  8
M0
 62
     2
100
AcDbLine
 10
265.337743
 20
61.919975
 11
266.324473
 21
62.906706
  0
LINE
  5
593
100
AcDbEntity
  8
M0
 62
     2
100
AcDbLine
 10
265.337228
 20
61.920448
 11
266.324001
 21
62.907221
  0
LINE
  5
594
100
AcDbEntity
  8
M0
 62
     2
100
AcDbLine
 10
265.336713
 20
61.920921
 11
266.323528
 21
62.907736
  0
LINE
  5
595
100
AcDbEntity
  8
M0
 62
     2
100
AcDbLine
 10
265.336199
 20
61.921394
 11
266.323055
 21
62.90825
  0
LINE
  5
596
100
AcDbEntity
  8
M0
 62
     2
100
AcDbLine
 10
265.335685
 20
61.921868
 11
266.322581
 21
62.908764
  0
LINE
  5
597
100
AcDbEntity
  8
M0
 62
     2
100
AcDbLine
 10
265.335171
 20
61.922342
 11
266.322107
 21
62.909277
  0
LINE
  5
598
100
AcDbEntity
  8
M0
 62
     2
100
AcDbLine
 10
265.334659
 20
61.922817
 11
266.321632
 21
62.90979
  0
LINE
  5
599
100
AcDbEntity
  8
M0
 62
     2
100
AcDbLine
 10
265.334146
 20
61.923292
 11
266.321157
 21
62.910303
  0
LINE
  5
59A
100
AcDbEntity
  8
M0
 62
     2
100
AcDbLine
 10
265.333634
 20
61.923768
 11
266.320681
 21
62.910815
  0
LINE
  5
59B
100
AcDbEntity
  8
M0
 62
     2
100
AcDbLine
 10
265.333123
 20
61.924244
 11
266.320204
 21
62.911326
  0
LINE
  5
59C
100
AcDbEntity
  8
M0
 62
     2
100
AcDbLine
 10
265.332612
 20
61.924721
 11
266.319728
 21
62.911837
  0
LINE
  5
59D
100
AcDbEntity
  8
M0
 62
     2
100
AcDbLine
 10
265.332102
 20
61.925198
 11
266.31925
 21
62.912347
  0
LINE
  5
59E
100
AcDbEntity
  8
M0
 62
     2
100
AcDbLine
 10
265.331592
 20
61.925676
 11
266.318773
 21
62.912857
  0
LINE
  5
59F
100
AcDbEntity
  8
M0
 62
     2
100
AcDbLine
 10
265.331082
 20
61.926154
 11
266.318294
 21
62.913367
  0
LINE
  5
5A0
100
AcDbEntity
  8
M0
 62
     2
100
AcDbLine
 10
265.330573
 20
61.926633
 11
266.317816
 21
62.913875
  0
LINE
  5
5A1
100
AcDbEntity
  8
M0
 62
     2
100
AcDbLine
 10
265.330065
 20
61.927113
 11
266.317336
 21
62.914384
  0
LINE
  5
5A2
100
AcDbEntity
  8
M0
 62
     2
100
AcDbLine
 10
265.329557
 20
61.927592
 11
266.316857
 21
62.914892
  0
LINE
  5
5A3
100
AcDbEntity
  8
M0
 62
     2
100
AcDbLine
 10
265.32905
 20
61.928073
 11
266.316376
 21
62.915399
  0
LINE
  5
5A4
100
AcDbEntity
  8
M0
 62
     2
100
AcDbLine
 10
265.328543
 20
61.928553
 11
266.315896
 21
62.915906
  0
LINE
  5
5A5
100
AcDbEntity
  8
M0
 62
     2
100
AcDbLine
 10
265.328036
 20
61.929035
 11
266.315414
 21
62.916413
  0
LINE
  5
5A6
100
AcDbEntity
  8
M0
 62
     2
100
AcDbLine
 10
265.32753
 20
61.929516
 11
266.314933
 21
62.916919
  0
LINE
  5
5A7
100
AcDbEntity
  8
M0
 62
     2
100
AcDbLine
 10
265.327025
 20
61.929999
 11
266.31445
 21
62.917424
  0
LINE
  5
5A8
100
AcDbEntity
  8
M0
 62
     2
100
AcDbLine
 10
265.32652
 20
61.930481
 11
266.313968
 21
62.917929
  0
LINE
  5
5A9
100
AcDbEntity
  8
M0
 62
     2
100
AcDbLine
 10
265.326015
 20
61.930964
 11
266.313484
 21
62.918433
  0
LINE
  5
5AA
100
AcDbEntity
  8
M0
 62
     2
100
AcDbLine
 10
265.325511
 20
61.931448
 11
266.313001
 21
62.918937
  0
LINE
  5
5AB
100
AcDbEntity
  8
M0
 62
     2
100
AcDbLine
 10
265.325008
 20
61.931932
 11
266.312516
 21
62.919441
  0
LINE
  5
5AC
100
AcDbEntity
  8
M0
 62
     2
100
AcDbLine
 10
265.324505
 20
61.932417
 11
266.312032
 21
62.919944
  0
LINE
  5
5AD
100
AcDbEntity
  8
M0
 62
     2
100
AcDbLine
 10
265.324003
 20
61.932902
 11
266.311547
 21
62.920446
  0
LINE
  5
5AE
100
AcDbEntity
  8
M0
 62
     2
100
AcDbLine
 10
265.323501
 20
61.933388
 11
266.311061
 21
62.920948
  0
LINE
  5
5AF
100
AcDbEntity
  8
M0
 62
     2
100
AcDbLine
 10
265.322999
 20
61.933874
 11
266.310575
 21
62.92145
  0
LINE
  5
5B0
100
AcDbEntity
  8
M0
 62
     2
100
AcDbLine
 10
265.322498
 20
61.934361
 11
266.310088
 21
62.921951
  0
LINE
  5
5B1
100
AcDbEntity
  8
M0
 62
     2
100
AcDbLine
 10
265.321997
 20
61.934848
 11
266.309601
 21
62.922451
  0
LINE
  5
5B2
100
AcDbEntity
  8
M0
 62
     2
100
AcDbLine
 10
265.321497
 20
61.935336
 11
266.309113
 21
62.922951
  0
LINE
  5
5B3
100
AcDbEntity
  8
M0
 62
     2
100
AcDbLine
 10
265.320998
 20
61.935824
 11
266.308625
 21
62.923451
  0
LINE
  5
5B4
100
AcDbEntity
  8
M0
 62
     2
100
AcDbLine
 10
265.320499
 20
61.936313
 11
266.308136
 21
62.92395
  0
LINE
  5
5B5
100
AcDbEntity
  8
M0
 62
     2
100
AcDbLine
 10
265.32
 20
61.936802
 11
266.307647
 21
62.924448
  0
LINE
  5
5B6
100
AcDbEntity
  8
M0
 62
     2
100
AcDbLine
 10
265.319502
 20
61.937291
 11
266.307157
 21
62.924946
  0
LINE
  5
5B7
100
AcDbEntity
  8
M0
 62
     2
100
AcDbLine
 10
265.319005
 20
61.937781
 11
266.306667
 21
62.925444
  0
LINE
  5
5B8
100
AcDbEntity
  8
M0
 62
     2
100
AcDbLine
 10
265.318508
 20
61.938272
 11
266.306177
 21
62.925941
  0
LINE
  5
5B9
100
AcDbEntity
  8
M0
 62
     2
100
AcDbLine
 10
265.318011
 20
61.938763
 11
266.305686
 21
62.926438
  0
LINE
  5
5BA
100
AcDbEntity
  8
M0
 62
     2
100
AcDbLine
 10
265.317515
 20
61.939255
 11
266.305194
 21
62.926934
  0
LINE
  5
5BB
100
AcDbEntity
  8
M0
 62
     2
100
AcDbLine
 10
265.31702
 20
61.939747
 11
266.304702
 21
62.927429
  0
LINE
  5
5BC
100
AcDbEntity
  8
M0
 62
     2
100
AcDbLine
 10
265.316524
 20
61.94024
 11
266.304209
 21
62.927924
  0
LINE
  5
5BD
100
AcDbEntity
  8
M0
 62
     2
100
AcDbLine
 10
265.31603
 20
61.940733
 11
266.303716
 21
62.928419
  0
LINE
  5
5BE
100
AcDbEntity
  8
M0
 62
     2
100
AcDbLine
 10
265.315536
 20
61.941226
 11
266.303223
 21
62.928913
  0
LINE
  5
5BF
100
AcDbEntity
  8
M0
 62
     2
100
AcDbLine
 10
265.315042
 20
61.94172
 11
266.302728
 21
62.929407
  0
LINE
  5
5C0
100
AcDbEntity
  8
M0
 62
     2
100
AcDbLine
 10
265.314549
 20
61.942215
 11
266.302234
 21
62.9299
  0
LINE
  5
5C1
100
AcDbEntity
  8
M0
 62
     2
100
AcDbLine
 10
265.314056
 20
61.94271
 11
266.301739
 21
62.930392
  0
LINE
  5
5C2
100
AcDbEntity
  8
M0
 62
     2
100
AcDbLine
 10
265.313564
 20
61.943206
 11
266.301243
 21
62.930884
  0
LINE
  5
5C3
100
AcDbEntity
  8
M0
 62
     2
100
AcDbLine
 10
265.313073
 20
61.943702
 11
266.300747
 21
62.931376
  0
LINE
  5
5C4
100
AcDbEntity
  8
M0
 62
     2
100
AcDbLine
 10
265.312582
 20
61.944198
 11
266.300251
 21
62.931867
  0
LINE
  5
5C5
100
AcDbEntity
  8
M0
 62
     2
100
AcDbLine
 10
265.312091
 20
61.944695
 11
266.299754
 21
62.932358
  0
LINE
  5
5C6
100
AcDbEntity
  8
M0
 62
     2
100
AcDbLine
 10
265.311601
 20
61.945193
 11
266.299256
 21
62.932848
  0
LINE
  5
5C7
100
AcDbEntity
  8
M0
 62
     2
100
AcDbLine
 10
265.311111
 20
61.945691
 11
266.298758
 21
62.933338
  0
LINE
  5
5C8
100
AcDbEntity
  8
M0
 62
     2
100
AcDbLine
 10
265.310622
 20
61.946189
 11
266.298259
 21
62.933827
  0
LINE
  5
5C9
100
AcDbEntity
  8
M0
 62
     2
100
AcDbLine
 10
265.310133
 20
61.946688
 11
266.29776
 21
62.934315
  0
LINE
  5
5CA
100
AcDbEntity
  8
M0
 62
     2
100
AcDbLine
 10
265.309645
 20
61.947188
 11
266.297261
 21
62.934804
  0
LINE
  5
5CB
100
AcDbEntity
  8
M0
 62
     2
100
AcDbLine
 10
265.309158
 20
61.947688
 11
266.296761
 21
62.935291
  0
LINE
  5
5CC
100
AcDbEntity
  8
M0
 62
     2
100
AcDbLine
 10
265.30867
 20
61.948188
 11
266.29626
 21
62.935778
  0
LINE
  5
5CD
100
AcDbEntity
  8
M0
 62
     2
100
AcDbLine
 10
265.308184
 20
61.948689
 11
266.295759
 21
62.936265
  0
LINE
  5
5CE
100
AcDbEntity
  8
M0
 62
     2
100
AcDbLine
 10
265.307698
 20
61.949191
 11
266.295258
 21
62.936751
  0
LINE
  5
5CF
100
AcDbEntity
  8
M0
 62
     2
100
AcDbLine
 10
265.307212
 20
61.949693
 11
266.294756
 21
62.937237
  0
LINE
  5
5D0
100
AcDbEntity
  8
M0
 62
     2
100
AcDbLine
 10
265.306727
 20
61.950195
 11
266.294253
 21
62.937722
  0
LINE
  5
5D1
100
AcDbEntity
  8
M0
 62
     2
100
AcDbLine
 10
265.306242
 20
61.950698
 11
266.29375
 21
62.938207
  0
LINE
  5
5D2
100
AcDbEntity
  8
M0
 62
     2
100
AcDbLine
 10
265.305758
 20
61.951202
 11
266.293247
 21
62.938691
  0
LINE
  5
5D3
100
AcDbEntity
  8
M0
 62
     2
100
AcDbLine
 10
265.305274
 20
61.951706
 11
266.292743
 21
62.939175
  0
LINE
  5
5D4
100
AcDbEntity
  8
M0
 62
     2
100
AcDbLine
 10
265.304791
 20
61.95221
 11
266.292238
 21
62.939658
  0
LINE
  5
5D5
100
AcDbEntity
  8
M0
 62
     2
100
AcDbLine
 10
265.304308
 20
61.952715
 11
266.291734
 21
62.940141
  0
LINE
  5
5D6
100
AcDbEntity
  8
M0
 62
     2
100
AcDbLine
 10
265.303826
 20
61.953221
 11
266.291228
 21
62.940623
  0
LINE
  5
5D7
100
AcDbEntity
  8
M0
 62
     2
100
AcDbLine
 10
265.303344
 20
61.953727
 11
266.290722
 21
62.941105
  0
LINE
  5
5D8
100
AcDbEntity
  8
M0
 62
     2
100
AcDbLine
 10
265.302863
 20
61.954233
 11
266.290216
 21
62.941586
  0
LINE
  5
5D9
100
AcDbEntity
  8
M0
 62
     2
100
AcDbLine
 10
265.302382
 20
61.95474
 11
266.289709
 21
62.942067
  0
LINE
  5
5DA
100
AcDbEntity
  8
M0
 62
     2
100
AcDbLine
 10
265.301902
 20
61.955248
 11
266.289201
 21
62.942547
  0
LINE
  5
5DB
100
AcDbEntity
  8
M0
 62
     2
100
AcDbLine
 10
265.301422
 20
61.955755
 11
266.288693
 21
62.943027
  0
LINE
  5
5DC
100
AcDbEntity
  8
M0
 62
     2
100
AcDbLine
 10
265.300943
 20
61.956264
 11
266.288185
 21
62.943506
  0
LINE
  5
5DD
100
AcDbEntity
  8
M0
 62
     2
100
AcDbLine
 10
265.300464
 20
61.956773
 11
266.287676
 21
62.943985
  0
LINE
  5
5DE
100
AcDbEntity
  8
M0
 62
     2
100
AcDbLine
 10
265.299986
 20
61.957282
 11
266.287167
 21
62.944463
  0
LINE
  5
5DF
100
AcDbEntity
  8
M0
 62
     2
100
AcDbLine
 10
265.299508
 20
61.957792
 11
266.286657
 21
62.944941
  0
LINE
  5
5E0
100
AcDbEntity
  8
M0
 62
     2
100
AcDbLine
 10
265.299031
 20
61.958302
 11
266.286146
 21
62.945418
  0
LINE
  5
5E1
100
AcDbEntity
  8
M0
 62
     2
100
AcDbLine
 10
265.298554
 20
61.958813
 11
266.285635
 21
62.945895
  0
LINE
  5
5E2
100
AcDbEntity
  8
M0
 62
     2
100
AcDbLine
 10
265.298078
 20
61.959325
 11
266.285124
 21
62.946371
  0
LINE
  5
5E3
100
AcDbEntity
  8
M0
 62
     2
100
AcDbLine
 10
265.297602
 20
61.959837
 11
266.284612
 21
62.946847
  0
LINE
  5
5E4
100
AcDbEntity
  8
M0
 62
     2
100
AcDbLine
 10
265.297126
 20
61.960349
 11
266.2841
 21
62.947322
  0
LINE
  5
5E5
100
AcDbEntity
  8
M0
 62
     2
100
AcDbLine
 10
265.296652
 20
61.960862
 11
266.283587
 21
62.947797
  0
LINE
  5
5E6
100
AcDbEntity
  8
M0
 62
     2
100
AcDbLine
 10
265.296177
 20
61.961375
 11
266.283074
 21
62.948272
  0
LINE
  5
5E7
100
AcDbEntity
  8
M0
 62
     2
100
AcDbLine
 10
265.295703
 20
61.961889
 11
266.28256
 21
62.948745
  0
LINE
  5
5E8
100
AcDbEntity
  8
M0
 62
     2
100
AcDbLine
 10
265.29523
 20
61.962403
 11
266.282045
 21
62.949219
  0
LINE
  5
5E9
100
AcDbEntity
  8
M0
 62
     2
100
AcDbLine
 10
265.294757
 20
61.962918
 11
266.281531
 21
62.949692
  0
LINE
  5
5EA
100
AcDbEntity
  8
M0
 62
     2
100
AcDbLine
 10
265.294285
 20
61.963434
 11
266.281015
 21
62.950164
  0
LINE
  5
5EB
100
AcDbEntity
  8
M0
 62
     2
100
AcDbLine
 10
265.293813
 20
61.963949
 11
266.280499
 21
62.950636
  0
LINE
  5
5EC
100
AcDbEntity
  8
M0
 62
     2
100
AcDbLine
 10
265.293342
 20
61.964466
 11
266.279983
 21
62.951107
  0
LINE
  5
5ED
100
AcDbEntity
  8
M0
 62
     2
100
AcDbLine
 10
265.292871
 20
61.964983
 11
266.279466
 21
62.951578
  0
LINE
  5
5EE
100
AcDbEntity
  8
M0
 62
     2
100
AcDbLine
 10
265.292401
 20
61.9655
 11
266.278949
 21
62.952048
  0
LINE
  5
5EF
100
AcDbEntity
  8
M0
 62
     2
100
AcDbLine
 10
265.291931
 20
61.966018
 11
266.278431
 21
62.952518
  0
LINE
  5
5F0
100
AcDbEntity
  8
M0
 62
     2
100
AcDbLine
 10
265.291461
 20
61.966536
 11
266.277913
 21
62.952987
  0
LINE
  5
5F1
100
AcDbEntity
  8
M0
 62
     2
100
AcDbLine
 10
265.290992
 20
61.967055
 11
266.277394
 21
62.953456
  0
LINE
  5
5F2
100
AcDbEntity
  8
M0
 62
     2
100
AcDbLine
 10
265.290524
 20
61.967574
 11
266.276875
 21
62.953925
  0
LINE
  5
5F3
100
AcDbEntity
  8
M0
 62
     2
100
AcDbLine
 10
265.290056
 20
61.968094
 11
266.276355
 21
62.954393
  0
LINE
  5
5F4
100
AcDbEntity
  8
M0
 62
     2
100
AcDbLine
 10
265.289589
 20
61.968614
 11
266.275834
 21
62.95486
  0
LINE
  5
5F5
100
AcDbEntity
  8
M0
 62
     2
100
AcDbLine
 10
265.289122
 20
61.969135
 11
266.275314
 21
62.955327
  0
LINE
  5
5F6
100
AcDbEntity
  8
M0
 62
     2
100
AcDbLine
 10
265.288656
 20
61.969656
 11
266.274792
 21
62.955793
  0
LINE
  5
5F7
100
AcDbEntity
  8
M0
 62
     2
100
AcDbLine
 10
265.28819
 20
61.970178
 11
266.274271
 21
62.956259
  0
LINE
  5
5F8
100
AcDbEntity
  8
M0
 62
     2
100
AcDbLine
 10
265.287724
 20
61.970701
 11
266.273748
 21
62.956725
  0
LINE
  5
5F9
100
AcDbEntity
  8
M0
 62
     2
100
AcDbLine
 10
265.287259
 20
61.971223
 11
266.273226
 21
62.957189
  0
LINE
  5
5FA
100
AcDbEntity
  8
M0
 62
     2
100
AcDbLine
 10
265.286795
 20
61.971747
 11
266.272702
 21
62.957654
  0
LINE
  5
5FB
100
AcDbEntity
  8
M0
 62
     2
100
AcDbLine
 10
265.286331
 20
61.97227
 11
266.272178
 21
62.958118
  0
LINE
  5
5FC
100
AcDbEntity
  8
M0
 62
     2
100
AcDbLine
 10
265.285868
 20
61.972795
 11
266.271654
 21
62.958581
  0
LINE
  5
5FD
100
AcDbEntity
  8
M0
 62
     2
100
AcDbLine
 10
265.285405
 20
61.973319
 11
266.271129
 21
62.959044
  0
LINE
  5
5FE
100
AcDbEntity
  8
M0
 62
     2
100
AcDbLine
 10
265.284942
 20
61.973845
 11
266.270604
 21
62.959507
  0
LINE
  5
5FF
100
AcDbEntity
  8
M0
 62
     2
100
AcDbLine
 10
265.28448
 20
61.97437
 11
266.270078
 21
62.959968
  0
LINE
  5
600
100
AcDbEntity
  8
M0
 62
     2
100
AcDbLine
 10
265.284019
 20
61.974897
 11
266.269552
 21
62.96043
  0
LINE
  5
601
100
AcDbEntity
  8
M0
 62
     2
100
AcDbLine
 10
265.283558
 20
61.975423
 11
266.269025
 21
62.960891
  0
LINE
  5
602
100
AcDbEntity
  8
M0
 62
     2
100
AcDbLine
 10
265.283098
 20
61.975951
 11
266.268498
 21
62.961351
  0
LINE
  5
603
100
AcDbEntity
  8
M0
 62
     2
100
AcDbLine
 10
265.282638
 20
61.976478
 11
266.26797
 21
62.961811
  0
LINE
  5
604
100
AcDbEntity
  8
M0
 62
     2
100
AcDbLine
 10
265.282178
 20
61.977007
 11
266.267442
 21
62.962271
  0
LINE
  5
605
100
AcDbEntity
  8
M0
 62
     2
100
AcDbLine
 10
265.281719
 20
61.977535
 11
266.266913
 21
62.96273
  0
LINE
  5
606
100
AcDbEntity
  8
M0
 62
     2
100
AcDbLine
 10
265.281261
 20
61.978065
 11
266.266384
 21
62.963188
  0
LINE
  5
607
100
AcDbEntity
  8
M0
 62
     2
100
AcDbLine
 10
265.280803
 20
61.978594
 11
266.265854
 21
62.963646
  0
LINE
  5
608
100
AcDbEntity
  8
M0
 62
     2
100
AcDbLine
 10
265.280345
 20
61.979125
 11
266.265324
 21
62.964103
  0
LINE
  5
609
100
AcDbEntity
  8
M0
 62
     2
100
AcDbLine
 10
265.279888
 20
61.979655
 11
266.264793
 21
62.96456
  0
LINE
  5
60A
100
AcDbEntity
  8
M0
 62
     2
100
AcDbLine
 10
265.279432
 20
61.980187
 11
266.264262
 21
62.965017
  0
LINE
  5
60B
100
AcDbEntity
  8
M0
 62
     2
100
AcDbLine
 10
265.278976
 20
61.980718
 11
266.26373
 21
62.965473
  0
LINE
  5
60C
100
AcDbEntity
  8
M0
 62
     2
100
AcDbLine
 10
265.278521
 20
61.981251
 11
266.263198
 21
62.965928
  0
LINE
  5
60D
100
AcDbEntity
  8
M0
 62
     2
100
AcDbLine
 10
265.278066
 20
61.981783
 11
266.262665
 21
62.966383
  0
LINE
  5
60E
100
AcDbEntity
  8
M0
 62
     2
100
AcDbLine
 10
265.277611
 20
61.982317
 11
266.262132
 21
62.966838
  0
LINE
  5
60F
100
AcDbEntity
  8
M0
 62
     2
100
AcDbLine
 10
265.277157
 20
61.98285
 11
266.261599
 21
62.967292
  0
LINE
  5
610
100
AcDbEntity
  8
M0
 62
     2
100
AcDbLine
 10
265.276704
 20
61.983385
 11
266.261064
 21
62.967745
  0
LINE
  5
611
100
AcDbEntity
  8
M0
 62
     2
100
AcDbLine
 10
265.276251
 20
61.983919
 11
266.26053
 21
62.968198
  0
LINE
  5
612
100
AcDbEntity
  8
M0
 62
     2
100
AcDbLine
 10
265.275798
 20
61.984454
 11
266.259994
 21
62.96865
  0
LINE
  5
613
100
AcDbEntity
  8
M0
 62
     2
100
AcDbLine
 10
265.275346
 20
61.98499
 11
266.259459
 21
62.969102
  0
LINE
  5
614
100
AcDbEntity
  8
M0
 62
     2
100
AcDbLine
 10
265.274895
 20
61.985526
 11
266.258922
 21
62.969554
  0
LINE
  5
615
100
AcDbEntity
  8
M0
 62
     2
100
AcDbLine
 10
265.274444
 20
61.986063
 11
266.258386
 21
62.970005
  0
LINE
  5
616
100
AcDbEntity
  8
M0
 62
     2
100
AcDbLine
 10
265.273993
 20
61.9866
 11
266.257848
 21
62.970455
  0
LINE
  5
617
100
AcDbEntity
  8
M0
 62
     2
100
AcDbLine
 10
265.273543
 20
61.987138
 11
266.257311
 21
62.970905
  0
LINE
  5
618
100
AcDbEntity
  8
M0
 62
     2
100
AcDbLine
 10
265.273094
 20
61.987676
 11
266.256773
 21
62.971355
  0
LINE
  5
619
100
AcDbEntity
  8
M0
 62
     2
100
AcDbLine
 10
265.272645
 20
61.988215
 11
266.256234
 21
62.971804
  0
LINE
  5
61A
100
AcDbEntity
  8
M0
 62
     2
100
AcDbLine
 10
265.272197
 20
61.988754
 11
266.255695
 21
62.972252
  0
LINE
  5
61B
100
AcDbEntity
  8
M0
 62
     2
100
AcDbLine
 10
265.271749
 20
61.989294
 11
266.255155
 21
62.9727
  0
LINE
  5
61C
100
AcDbEntity
  8
M0
 62
     2
100
AcDbLine
 10
265.271301
 20
61.989834
 11
266.254615
 21
62.973148
  0
LINE
  5
61D
100
AcDbEntity
  8
M0
 62
     2
100
AcDbLine
 10
265.270854
 20
61.990375
 11
266.254074
 21
62.973595
  0
LINE
  5
61E
100
AcDbEntity
  8
M0
 62
     2
100
AcDbLine
 10
265.270408
 20
61.990916
 11
266.253533
 21
62.974041
  0
LINE
  5
61F
100
AcDbEntity
  8
M0
 62
     2
100
AcDbLine
 10
265.269962
 20
61.991458
 11
266.252991
 21
62.974487
  0
LINE
  5
620
100
AcDbEntity
  8
M0
 62
     2
100
AcDbLine
 10
265.269516
 20
61.992
 11
266.252449
 21
62.974933
  0
LINE
  5
621
100
AcDbEntity
  8
M0
 62
     2
100
AcDbLine
 10
265.269071
 20
61.992543
 11
266.251906
 21
62.975377
  0
LINE
  5
622
100
AcDbEntity
  8
M0
 62
     2
100
AcDbLine
 10
265.268627
 20
61.993086
 11
266.251363
 21
62.975822
  0
LINE
  5
623
100
AcDbEntity
  8
M0
 62
     2
100
AcDbLine
 10
265.268183
 20
61.99363
 11
266.250819
 21
62.976266
  0
LINE
  5
624
100
AcDbEntity
  8
M0
 62
     2
100
AcDbLine
 10
265.267739
 20
61.994174
 11
266.250275
 21
62.976709
  0
LINE
  5
625
100
AcDbEntity
  8
M0
 62
     2
100
AcDbLine
 10
265.267297
 20
61.994719
 11
266.24973
 21
62.977152
  0
LINE
  5
626
100
AcDbEntity
  8
M0
 62
     2
100
AcDbLine
 10
265.266854
 20
61.995264
 11
266.249185
 21
62.977595
  0
LINE
  5
627
100
AcDbEntity
  8
M0
 62
     2
100
AcDbLine
 10
265.266412
 20
61.99581
 11
266.248639
 21
62.978037
  0
LINE
  5
628
100
AcDbEntity
  8
M0
 62
     2
100
AcDbLine
 10
265.265971
 20
61.996356
 11
266.248093
 21
62.978478
  0
LINE
  5
629
100
AcDbEntity
  8
M0
 62
     2
100
AcDbLine
 10
265.26553
 20
61.996903
 11
266.247546
 21
62.978919
  0
LINE
  5
62A
100
AcDbEntity
  8
M0
 62
     2
100
AcDbLine
 10
265.265089
 20
61.99745
 11
266.246999
 21
62.97936
  0
LINE
  5
62B
100
AcDbEntity
  8
M0
 62
     2
100
AcDbLine
 10
265.264649
 20
61.997998
 11
266.246451
 21
62.9798
  0
LINE
  5
62C
100
AcDbEntity
  8
M0
 62
     2
100
AcDbLine
 10
265.26421
 20
61.998546
 11
266.245903
 21
62.980239
  0
LINE
  5
62D
100
AcDbEntity
  8
M0
 62
     2
100
AcDbLine
 10
265.263771
 20
61.999095
 11
266.245354
 21
62.980678
  0
LINE
  5
62E
100
AcDbEntity
  8
M0
 62
     2
100
AcDbLine
 10
265.263333
 20
61.999644
 11
266.244805
 21
62.981116
  0
LINE
  5
62F
100
AcDbEntity
  8
M0
 62
     2
100
AcDbLine
 10
265.262895
 20
62.000194
 11
266.244255
 21
62.981554
  0
LINE
  5
630
100
AcDbEntity
  8
M0
 62
     2
100
AcDbLine
 10
265.262457
 20
62.000744
 11
266.243705
 21
62.981992
  0
LINE
  5
631
100
AcDbEntity
  8
M0
 62
     2
100
AcDbLine
 10
265.26202
 20
62.001295
 11
266.243154
 21
62.982429
  0
LINE
  5
632
100
AcDbEntity
  8
M0
 62
     2
100
AcDbLine
 10
265.261584
 20
62.001846
 11
266.242603
 21
62.982865
  0
LINE
  5
633
100
AcDbEntity
  8
M0
 62
     2
100
AcDbLine
 10
265.261148
 20
62.002398
 11
266.242051
 21
62.983301
  0
LINE
  5
634
100
AcDbEntity
  8
M0
 62
     2
100
AcDbLine
 10
265.260712
 20
62.00295
 11
266.241499
 21
62.983736
  0
LINE
  5
635
100
AcDbEntity
  8
M0
 62
     2
100
AcDbLine
 10
265.260278
 20
62.003503
 11
266.240946
 21
62.984171
  0
LINE
  5
636
100
AcDbEntity
  8
M0
 62
     2
100
AcDbLine
 10
265.259843
 20
62.004056
 11
266.240393
 21
62.984606
  0
LINE
  5
637
100
AcDbEntity
  8
M0
 62
     2
100
AcDbLine
 10
265.259409
 20
62.00461
 11
266.239839
 21
62.98504
  0
LINE
  5
638
100
AcDbEntity
  8
M0
 62
     2
100
AcDbLine
 10
265.258976
 20
62.005164
 11
266.239285
 21
62.985473
  0
LINE
  5
639
100
AcDbEntity
  8
M0
 62
     2
100
AcDbLine
 10
265.258543
 20
62.005719
 11
266.23873
 21
62.985906
  0
LINE
  5
63A
100
AcDbEntity
  8
M0
 62
     2
100
AcDbLine
 10
265.258111
 20
62.006274
 11
266.238175
 21
62.986338
  0
LINE
  5
63B
100
AcDbEntity
  8
M0
 62
     2
100
AcDbLine
 10
265.257679
 20
62.00683
 11
266.237619
 21
62.98677
  0
LINE
  5
63C
100
AcDbEntity
  8
M0
 62
     2
100
AcDbLine
 10
265.257247
 20
62.007386
 11
266.237062
 21
62.987201
  0
LINE
  5
63D
100
AcDbEntity
  8
M0
 62
     2
100
AcDbLine
 10
265.256816
 20
62.007943
 11
266.236506
 21
62.987632
  0
LINE
  5
63E
100
AcDbEntity
  8
M0
 62
     2
100
AcDbLine
 10
265.256386
 20
62.0085
 11
266.235948
 21
62.988063
  0
LINE
  5
63F
100
AcDbEntity
  8
M0
 62
     2
100
AcDbLine
 10
265.255956
 20
62.009058
 11
266.23539
 21
62.988493
  0
LINE
  5
640
100
AcDbEntity
  8
M0
 62
     2
100
AcDbLine
 10
265.255527
 20
62.009617
 11
266.234832
 21
62.988922
  0
LINE
  5
641
100
AcDbEntity
  8
M0
 62
     2
100
AcDbLine
 10
265.255098
 20
62.010176
 11
266.234273
 21
62.989351
  0
LINE
  5
642
100
AcDbEntity
  8
M0
 62
     2
100
AcDbLine
 10
265.25467
 20
62.010735
 11
266.233714
 21
62.989779
  0
LINE
  5
643
100
AcDbEntity
  8
M0
 62
     2
100
AcDbLine
 10
265.254242
 20
62.011295
 11
266.233154
 21
62.990207
  0
LINE
  5
644
100
AcDbEntity
  8
M0
 62
     2
100
AcDbLine
 10
265.253815
 20
62.011855
 11
266.232594
 21
62.990634
  0
LINE
  5
645
100
AcDbEntity
  8
M0
 62
     2
100
AcDbLine
 10
265.253388
 20
62.012416
 11
266.232033
 21
62.991061
  0
LINE
  5
646
100
AcDbEntity
  8
M0
 62
     2
100
AcDbLine
 10
265.252961
 20
62.012977
 11
266.231471
 21
62.991487
  0
LINE
  5
647
100
AcDbEntity
  8
M0
 62
     2
100
AcDbLine
 10
265.252536
 20
62.013539
 11
266.23091
 21
62.991913
  0
LINE
  5
648
100
AcDbEntity
  8
M0
 62
     2
100
AcDbLine
 10
265.25211
 20
62.014102
 11
266.230347
 21
62.992338
  0
LINE
  5
649
100
AcDbEntity
  8
M0
 62
     2
100
AcDbLine
 10
265.251686
 20
62.014665
 11
266.229784
 21
62.992763
  0
LINE
  5
64A
100
AcDbEntity
  8
M0
 62
     2
100
AcDbLine
 10
265.251261
 20
62.015228
 11
266.229221
 21
62.993187
  0
LINE
  5
64B
100
AcDbEntity
  8
M0
 62
     2
100
AcDbLine
 10
265.250838
 20
62.015792
 11
266.228657
 21
62.993611
  0
LINE
  5
64C
100
AcDbEntity
  8
M0
 62
     2
100
AcDbLine
 10
265.250414
 20
62.016356
 11
266.228093
 21
62.994034
  0
LINE
  5
64D
100
AcDbEntity
  8
M0
 62
     2
100
AcDbLine
 10
265.249992
 20
62.016921
 11
266.227528
 21
62.994457
  0
LINE
  5
64E
100
AcDbEntity
  8
M0
 62
     2
100
AcDbLine
 10
265.249569
 20
62.017487
 11
266.226962
 21
62.994879
  0
LINE
  5
64F
100
AcDbEntity
  8
M0
 62
     2
100
AcDbLine
 10
265.249148
 20
62.018053
 11
266.226396
 21
62.995301
  0
LINE
  5
650
100
AcDbEntity
  8
M0
 62
     2
100
AcDbLine
 10
265.248726
 20
62.018619
 11
266.22583
 21
62.995722
  0
LINE
  5
651
100
AcDbEntity
  8
M0
 62
     2
100
AcDbLine
 10
265.248306
 20
62.019186
 11
266.225263
 21
62.996143
  0
LINE
  5
652
100
AcDbEntity
  8
M0
 62
     2
100
AcDbLine
 10
265.247885
 20
62.019754
 11
266.224695
 21
62.996563
  0
LINE
  5
653
100
AcDbEntity
  8
M0
 62
     2
100
AcDbLine
 10
265.247466
 20
62.020322
 11
266.224127
 21
62.996983
  0
LINE
  5
654
100
AcDbEntity
  8
M0
 62
     2
100
AcDbLine
 10
265.247047
 20
62.02089
 11
266.223559
 21
62.997402
  0
LINE
  5
655
100
AcDbEntity
  8
M0
 62
     2
100
AcDbLine
 10
265.246628
 20
62.021459
 11
266.22299
 21
62.997821
  0
LINE
  5
656
100
AcDbEntity
  8
M0
 62
     2
100
AcDbLine
 10
265.24621
 20
62.022029
 11
266.22242
 21
62.998239
  0
LINE
  5
657
100
AcDbEntity
  8
M0
 62
     2
100
AcDbLine
 10
265.245792
 20
62.022599
 11
266.22185
 21
62.998657
  0
LINE
  5
658
100
AcDbEntity
  8
M0
 62
     2
100
AcDbLine
 10
265.245375
 20
62.023169
 11
266.22128
 21
62.999074
  0
LINE
  5
659
100
AcDbEntity
  8
M0
 62
     2
100
AcDbLine
 10
265.244958
 20
62.02374
 11
266.220708
 21
62.99949
  0
LINE
  5
65A
100
AcDbEntity
  8
M0
 62
     2
100
AcDbLine
 10
265.244542
 20
62.024312
 11
266.220137
 21
62.999906
  0
LINE
  5
65B
100
AcDbEntity
  8
M0
 62
     2
100
AcDbLine
 10
265.244127
 20
62.024884
 11
266.219565
 21
63.000322
  0
LINE
  5
65C
100
AcDbEntity
  8
M0
 62
     2
100
AcDbLine
 10
265.243712
 20
62.025457
 11
266.218992
 21
63.000737
  0
LINE
  5
65D
100
AcDbEntity
  8
M0
 62
     2
100
AcDbLine
 10
265.243297
 20
62.02603
 11
266.218419
 21
63.001152
  0
LINE
  5
65E
100
AcDbEntity
  8
M0
 62
     2
100
AcDbLine
 10
265.242883
 20
62.026603
 11
266.217845
 21
63.001566
  0
LINE
  5
65F
100
AcDbEntity
  8
M0
 62
     2
100
AcDbLine
 10
265.242469
 20
62.027178
 11
266.217271
 21
63.001979
  0
LINE
  5
660
100
AcDbEntity
  8
M0
 62
     2
100
AcDbLine
 10
265.242056
 20
62.027752
 11
266.216697
 21
63.002392
  0
LINE
  5
661
100
AcDbEntity
  8
M0
 62
     2
100
AcDbLine
 10
265.241644
 20
62.028327
 11
266.216121
 21
63.002805
  0
LINE
  5
662
100
AcDbEntity
  8
M0
 62
     2
100
AcDbLine
 10
265.241232
 20
62.028903
 11
266.215546
 21
63.003217
  0
LINE
  5
663
100
AcDbEntity
  8
M0
 62
     2
100
AcDbLine
 10
265.24082
 20
62.029479
 11
266.21497
 21
63.003628
  0
LINE
  5
664
100
AcDbEntity
  8
M0
 62
     2
100
AcDbLine
 10
265.24041
 20
62.030056
 11
266.214393
 21
63.004039
  0
LINE
  5
665
100
AcDbEntity
  8
M0
 62
     2
100
AcDbLine
 10
265.239999
 20
62.030633
 11
266.213816
 21
63.00445
  0
LINE
  5
666
100
AcDbEntity
  8
M0
 62
     2
100
AcDbLine
 10
265.239589
 20
62.031211
 11
266.213238
 21
63.00486
  0
LINE
  5
667
100
AcDbEntity
  8
M0
 62
     2
100
AcDbLine
 10
265.23918
 20
62.031789
 11
266.21266
 21
63.005269
  0
LINE
  5
668
100
AcDbEntity
  8
M0
 62
     2
100
AcDbLine
 10
265.238771
 20
62.032368
 11
266.212081
 21
63.005678
  0
LINE
  5
669
100
AcDbEntity
  8
M0
 62
     2
100
AcDbLine
 10
265.238362
 20
62.032947
 11
266.211502
 21
63.006086
  0
LINE
  5
66A
100
AcDbEntity
  8
M0
 62
     2
100
AcDbLine
 10
265.237955
 20
62.033527
 11
266.210922
 21
63.006494
  0
LINE
  5
66B
100
AcDbEntity
  8
M0
 62
     2
100
AcDbLine
 10
265.237547
 20
62.034107
 11
266.210341
 21
63.006902
  0
LINE
  5
66C
100
AcDbEntity
  8
M0
 62
     2
100
AcDbLine
 10
265.23714
 20
62.034688
 11
266.209761
 21
63.007309
  0
LINE
  5
66D
100
AcDbEntity
  8
M0
 62
     2
100
AcDbLine
 10
265.236734
 20
62.03527
 11
266.209179
 21
63.007715
  0
LINE
  5
66E
100
AcDbEntity
  8
M0
 62
     2
100
AcDbLine
 10
265.236328
 20
62.035852
 11
266.208597
 21
63.008121
  0
LINE
  5
66F
100
AcDbEntity
  8
M0
 62
     2
100
AcDbLine
 10
265.235923
 20
62.036434
 11
266.208015
 21
63.008526
  0
LINE
  5
670
100
AcDbEntity
  8
M0
 62
     2
100
AcDbLine
 10
265.235518
 20
62.037017
 11
266.207432
 21
63.008931
  0
LINE
  5
671
100
AcDbEntity
  8
M0
 62
     2
100
AcDbLine
 10
265.235114
 20
62.0376
 11
266.206849
 21
63.009335
  0
LINE
  5
672
100
AcDbEntity
  8
M0
 62
     2
100
AcDbLine
 10
265.23471
 20
62.038184
 11
266.206265
 21
63.009739
  0
LINE
  5
673
100
AcDbEntity
  8
M0
 62
     2
100
AcDbLine
 10
265.234307
 20
62.038769
 11
266.20568
 21
63.010142
  0
LINE
  5
674
100
AcDbEntity
  8
M0
 62
     2
100
AcDbLine
 10
265.233904
 20
62.039354
 11
266.205095
 21
63.010545
  0
LINE
  5
675
100
AcDbEntity
  8
M0
 62
     2
100
AcDbLine
 10
265.233502
 20
62.039939
 11
266.20451
 21
63.010947
  0
LINE
  5
676
100
AcDbEntity
  8
M0
 62
     2
100
AcDbLine
 10
265.2331
 20
62.040525
 11
266.203924
 21
63.011348
  0
LINE
  5
677
100
AcDbEntity
  8
M0
 62
     2
100
AcDbLine
 10
265.232699
 20
62.041112
 11
266.203337
 21
63.01175
  0
LINE
  5
678
100
AcDbEntity
  8
M0
 62
     2
100
AcDbLine
 10
265.232299
 20
62.041699
 11
266.20275
 21
63.01215
  0
LINE
  5
679
100
AcDbEntity
  8
M0
 62
     2
100
AcDbLine
 10
265.231899
 20
62.042286
 11
266.202162
 21
63.01255
  0
LINE
  5
67A
100
AcDbEntity
  8
M0
 62
     2
100
AcDbLine
 10
265.231499
 20
62.042875
 11
266.201574
 21
63.01295
  0
LINE
  5
67B
100
AcDbEntity
  8
M0
 62
     2
100
AcDbLine
 10
265.2311
 20
62.043463
 11
266.200986
 21
63.013349
  0
LINE
  5
67C
100
AcDbEntity
  8
M0
 62
     2
100
AcDbLine
 10
265.230701
 20
62.044052
 11
266.200397
 21
63.013747
  0
LINE
  5
67D
100
AcDbEntity
  8
M0
 62
     2
100
AcDbLine
 10
265.230303
 20
62.044642
 11
266.199807
 21
63.014145
  0
LINE
  5
67E
100
AcDbEntity
  8
M0
 62
     2
100
AcDbLine
 10
265.229906
 20
62.045232
 11
266.199217
 21
63.014543
  0
LINE
  5
67F
100
AcDbEntity
  8
M0
 62
     2
100
AcDbLine
 10
265.229509
 20
62.045823
 11
266.198626
 21
63.01494
  0
LINE
  5
680
100
AcDbEntity
  8
M0
 62
     2
100
AcDbLine
 10
265.229112
 20
62.046414
 11
266.198035
 21
63.015336
  0
LINE
  5
681
100
AcDbEntity
  8
M0
 62
     2
100
AcDbLine
 10
265.228717
 20
62.047006
 11
266.197443
 21
63.015732
  0
LINE
  5
682
100
AcDbEntity
  8
M0
 62
     2
100
AcDbLine
 10
265.228321
 20
62.047598
 11
266.196851
 21
63.016128
  0
LINE
  5
683
100
AcDbEntity
  8
M0
 62
     2
100
AcDbLine
 10
265.227926
 20
62.048191
 11
266.196258
 21
63.016523
  0
LINE
  5
684
100
AcDbEntity
  8
M0
 62
     2
100
AcDbLine
 10
265.227532
 20
62.048784
 11
266.195664
 21
63.016917
  0
LINE
  5
685
100
AcDbEntity
  8
M0
 62
     2
100
AcDbLine
 10
265.227138
 20
62.049378
 11
266.195071
 21
63.017311
  0
LINE
  5
686
100
AcDbEntity
  8
M0
 62
     2
100
AcDbLine
 10
265.226745
 20
62.049973
 11
266.194476
 21
63.017704
  0
LINE
  5
687
100
AcDbEntity
  8
M0
 62
     2
100
AcDbLine
 10
265.226352
 20
62.050568
 11
266.193881
 21
63.018097
  0
LINE
  5
688
100
AcDbEntity
  8
M0
 62
     2
100
AcDbLine
 10
265.22596
 20
62.051163
 11
266.193286
 21
63.018489
  0
LINE
  5
689
100
AcDbEntity
  8
M0
 62
     2
100
AcDbLine
 10
265.225568
 20
62.051759
 11
266.19269
 21
63.018881
  0
LINE
  5
68A
100
AcDbEntity
  8
M0
 62
     2
100
AcDbLine
 10
265.225177
 20
62.052355
 11
266.192093
 21
63.019272
  0
LINE
  5
68B
100
AcDbEntity
  8
M0
 62
     2
100
AcDbLine
 10
265.224786
 20
62.052952
 11
266.191496
 21
63.019663
  0
LINE
  5
68C
100
AcDbEntity
  8
M0
 62
     2
100
AcDbLine
 10
265.224396
 20
62.05355
 11
266.190899
 21
63.020053
  0
LINE
  5
68D
100
AcDbEntity
  8
M0
 62
     2
100
AcDbLine
 10
265.224006
 20
62.054148
 11
266.190301
 21
63.020442
  0
LINE
  5
68E
100
AcDbEntity
  8
M0
 62
     2
100
AcDbLine
 10
265.223617
 20
62.054747
 11
266.189702
 21
63.020832
  0
LINE
  5
68F
100
AcDbEntity
  8
M0
 62
     2
100
AcDbLine
 10
265.223229
 20
62.055346
 11
266.189103
 21
63.02122
  0
LINE
  5
690
100
AcDbEntity
  8
M0
 62
     2
100
AcDbLine
 10
265.222841
 20
62.055945
 11
266.188503
 21
63.021608
  0
LINE
  5
691
100
AcDbEntity
  8
M0
 62
     2
100
AcDbLine
 10
265.222453
 20
62.056546
 11
266.187903
 21
63.021996
  0
LINE
  5
692
100
AcDbEntity
  8
M0
 62
     2
100
AcDbLine
 10
265.222066
 20
62.057146
 11
266.187303
 21
63.022383
  0
LINE
  5
693
100
AcDbEntity
  8
M0
 62
     2
100
AcDbLine
 10
265.22168
 20
62.057748
 11
266.186701
 21
63.022769
  0
LINE
  5
694
100
AcDbEntity
  8
M0
 62
     2
100
AcDbLine
 10
265.221294
 20
62.058349
 11
266.1861
 21
63.023155
  0
LINE
  5
695
100
AcDbEntity
  8
M0
 62
     2
100
AcDbLine
 10
265.220908
 20
62.058952
 11
266.185497
 21
63.02354
  0
LINE
  5
696
100
AcDbEntity
  8
M0
 62
     2
100
AcDbLine
 10
265.220524
 20
62.059554
 11
266.184894
 21
63.023925
  0
LINE
  5
697
100
AcDbEntity
  8
M0
 62
     2
100
AcDbLine
 10
265.220139
 20
62.060158
 11
266.184291
 21
63.02431
  0
LINE
  5
698
100
AcDbEntity
  8
M0
 62
     2
100
AcDbLine
 10
265.219755
 20
62.060762
 11
266.183687
 21
63.024693
  0
LINE
  5
699
100
AcDbEntity
  8
M0
 62
     2
100
AcDbLine
 10
265.219372
 20
62.061366
 11
266.183083
 21
63.025077
  0
LINE
  5
69A
100
AcDbEntity
  8
M0
 62
     2
100
AcDbLine
 10
265.218989
 20
62.061971
 11
266.182478
 21
63.025459
  0
LINE
  5
69B
100
AcDbEntity
  8
M0
 62
     2
100
AcDbLine
 10
265.218607
 20
62.062577
 11
266.181872
 21
63.025842
  0
LINE
  5
69C
100
AcDbEntity
  8
M0
 62
     2
100
AcDbLine
 10
265.218226
 20
62.063183
 11
266.181266
 21
63.026223
  0
LINE
  5
69D
100
AcDbEntity
  8
M0
 62
     2
100
AcDbLine
 10
265.217844
 20
62.063789
 11
266.18066
 21
63.026604
  0
LINE
  5
69E
100
AcDbEntity
  8
M0
 62
     2
100
AcDbLine
 10
265.217464
 20
62.064396
 11
266.180053
 21
63.026985
  0
LINE
  5
69F
100
AcDbEntity
  8
M0
 62
     2
100
AcDbLine
 10
265.217084
 20
62.065004
 11
266.179445
 21
63.027365
  0
LINE
  5
6A0
100
AcDbEntity
  8
M0
 62
     2
100
AcDbLine
 10
265.216704
 20
62.065612
 11
266.178837
 21
63.027745
  0
LINE
  5
6A1
100
AcDbEntity
  8
M0
 62
     2
100
AcDbLine
 10
265.216325
 20
62.066221
 11
266.178228
 21
63.028124
  0
LINE
  5
6A2
100
AcDbEntity
  8
M0
 62
     2
100
AcDbLine
 10
265.215947
 20
62.06683
 11
266.177619
 21
63.028502
  0
LINE
  5
6A3
100
AcDbEntity
  8
M0
 62
     2
100
AcDbLine
 10
265.215569
 20
62.06744
 11
266.177009
 21
63.02888
  0
LINE
  5
6A4
100
AcDbEntity
  8
M0
 62
     2
100
AcDbLine
 10
265.215191
 20
62.06805
 11
266.176399
 21
63.029257
  0
LINE
  5
6A5
100
AcDbEntity
  8
M0
 62
     2
100
AcDbLine
 10
265.214815
 20
62.068661
 11
266.175788
 21
63.029634
  0
LINE
  5
6A6
100
AcDbEntity
  8
M0
 62
     2
100
AcDbLine
 10
265.214438
 20
62.069272
 11
266.175177
 21
63.030011
  0
LINE
  5
6A7
100
AcDbEntity
  8
M0
 62
     2
100
AcDbLine
 10
265.214062
 20
62.069884
 11
266.174565
 21
63.030386
  0
LINE
  5
6A8
100
AcDbEntity
  8
M0
 62
     2
100
AcDbLine
 10
265.213687
 20
62.070496
 11
266.173952
 21
63.030762
  0
LINE
  5
6A9
100
AcDbEntity
  8
M0
 62
     2
100
AcDbLine
 10
265.213313
 20
62.071109
 11
266.173339
 21
63.031136
  0
LINE
  5
6AA
100
AcDbEntity
  8
M0
 62
     2
100
AcDbLine
 10
265.212938
 20
62.071723
 11
266.172726
 21
63.03151
  0
LINE
  5
6AB
100
AcDbEntity
  8
M0
 62
     2
100
AcDbLine
 10
265.212565
 20
62.072337
 11
266.172112
 21
63.031884
  0
LINE
  5
6AC
100
AcDbEntity
  8
M0
 62
     2
100
AcDbLine
 10
265.212192
 20
62.072952
 11
266.171497
 21
63.032257
  0
LINE
  5
6AD
100
AcDbEntity
  8
M0
 62
     2
100
AcDbLine
 10
265.211819
 20
62.073567
 11
266.170882
 21
63.03263
  0
LINE
  5
6AE
100
AcDbEntity
  8
M0
 62
     2
100
AcDbLine
 10
265.211447
 20
62.074182
 11
266.170267
 21
63.033002
  0
LINE
  5
6AF
100
AcDbEntity
  8
M0
 62
     2
100
AcDbLine
 10
265.211076
 20
62.074798
 11
266.16965
 21
63.033373
  0
LINE
  5
6B0
100
AcDbEntity
  8
M0
 62
     2
100
AcDbLine
 10
265.210705
 20
62.075415
 11
266.169034
 21
63.033744
  0
LINE
  5
6B1
100
AcDbEntity
  8
M0
 62
     2
100
AcDbLine
 10
265.210334
 20
62.076033
 11
266.168416
 21
63.034115
  0
LINE
  5
6B2
100
AcDbEntity
  8
M0
 62
     2
100
AcDbLine
 10
265.209964
 20
62.07665
 11
266.167798
 21
63.034484
  0
LINE
  5
6B3
100
AcDbEntity
  8
M0
 62
     2
100
AcDbLine
 10
265.209595
 20
62.077269
 11
266.16718
 21
63.034854
  0
LINE
  5
6B4
100
AcDbEntity
  8
M0
 62
     2
100
AcDbLine
 10
265.209226
 20
62.077888
 11
266.166561
 21
63.035223
  0
LINE
  5
6B5
100
AcDbEntity
  8
M0
 62
     2
100
AcDbLine
 10
265.208858
 20
62.078507
 11
266.165942
 21
63.035591
  0
LINE
  5
6B6
100
AcDbEntity
  8
M0
 62
     2
100
AcDbLine
 10
265.20849
 20
62.079127
 11
266.165322
 21
63.035959
  0
LINE
  5
6B7
100
AcDbEntity
  8
M0
 62
     2
100
AcDbLine
 10
265.208123
 20
62.079748
 11
266.164701
 21
63.036326
  0
LINE
  5
6B8
100
AcDbEntity
  8
M0
 62
     2
100
AcDbLine
 10
265.207757
 20
62.080369
 11
266.16408
 21
63.036692
  0
LINE
  5
6B9
100
AcDbEntity
  8
M0
 62
     2
100
AcDbLine
 10
265.20739
 20
62.08099
 11
266.163458
 21
63.037058
  0
LINE
  5
6BA
100
AcDbEntity
  8
M0
 62
     2
100
AcDbLine
 10
265.207025
 20
62.081612
 11
266.162836
 21
63.037424
  0
LINE
  5
6BB
100
AcDbEntity
  8
M0
 62
     2
100
AcDbLine
 10
265.20666
 20
62.082235
 11
266.162214
 21
63.037789
  0
LINE
  5
6BC
100
AcDbEntity
  8
M0
 62
     2
100
AcDbLine
 10
265.206296
 20
62.082858
 11
266.16159
 21
63.038153
  0
LINE
  5
6BD
100
AcDbEntity
  8
M0
 62
     2
100
AcDbLine
 10
265.205932
 20
62.083482
 11
266.160967
 21
63.038517
  0
LINE
  5
6BE
100
AcDbEntity
  8
M0
 62
     2
100
AcDbLine
 10
265.205568
 20
62.084107
 11
266.160342
 21
63.03888
  0
LINE
  5
6BF
100
AcDbEntity
  8
M0
 62
     2
100
AcDbLine
 10
265.205206
 20
62.084732
 11
266.159717
 21
63.039243
  0
LINE
  5
6C0
100
AcDbEntity
  8
M0
 62
     2
100
AcDbLine
 10
265.204843
 20
62.085357
 11
266.159092
 21
63.039605
  0
LINE
  5
6C1
100
AcDbEntity
  8
M0
 62
     2
100
AcDbLine
 10
265.204482
 20
62.085983
 11
266.158466
 21
63.039967
  0
LINE
  5
6C2
100
AcDbEntity
  8
M0
 62
     2
100
AcDbLine
 10
265.20412
 20
62.086609
 11
266.157839
 21
63.040328
  0
LINE
  5
6C3
100
AcDbEntity
  8
M0
 62
     2
100
AcDbLine
 10
265.20376
 20
62.087237
 11
266.157212
 21
63.040689
  0
LINE
  5
6C4
100
AcDbEntity
  8
M0
 62
     2
100
AcDbLine
 10
265.2034
 20
62.087864
 11
266.156585
 21
63.041049
  0
LINE
  5
6C5
100
AcDbEntity
  8
M0
 62
     2
100
AcDbLine
 10
265.20304
 20
62.088492
 11
266.155956
 21
63.041408
  0
LINE
  5
6C6
100
AcDbEntity
  8
M0
 62
     2
100
AcDbLine
 10
265.202681
 20
62.089121
 11
266.155328
 21
63.041767
  0
LINE
  5
6C7
100
AcDbEntity
  8
M0
 62
     2
100
AcDbLine
 10
265.202323
 20
62.08975
 11
266.154698
 21
63.042126
  0
LINE
  5
6C8
100
AcDbEntity
  8
M0
 62
     2
100
AcDbLine
 10
265.201965
 20
62.09038
 11
266.154069
 21
63.042484
  0
LINE
  5
6C9
100
AcDbEntity
  8
M0
 62
     2
100
AcDbLine
 10
265.201608
 20
62.091011
 11
266.153438
 21
63.042841
  0
LINE
  5
6CA
100
AcDbEntity
  8
M0
 62
     2
100
AcDbLine
 10
265.201251
 20
62.091642
 11
266.152807
 21
63.043198
  0
LINE
  5
6CB
100
AcDbEntity
  8
M0
 62
     2
100
AcDbLine
 10
265.200895
 20
62.092273
 11
266.152176
 21
63.043554
  0
LINE
  5
6CC
100
AcDbEntity
  8
M0
 62
     2
100
AcDbLine
 10
265.200539
 20
62.092905
 11
266.151544
 21
63.04391
  0
LINE
  5
6CD
100
AcDbEntity
  8
M0
 62
     2
100
AcDbLine
 10
265.200184
 20
62.093538
 11
266.150911
 21
63.044265
  0
LINE
  5
6CE
100
AcDbEntity
  8
M0
 62
     2
100
AcDbLine
 10
265.19983
 20
62.094171
 11
266.150278
 21
63.044619
  0
LINE
  5
6CF
100
AcDbEntity
  8
M0
 62
     2
100
AcDbLine
 10
265.199476
 20
62.094805
 11
266.149644
 21
63.044973
  0
LINE
  5
6D0
100
AcDbEntity
  8
M0
 62
     2
100
AcDbLine
 10
265.199122
 20
62.095439
 11
266.14901
 21
63.045327
  0
LINE
  5
6D1
100
AcDbEntity
  8
M0
 62
     2
100
AcDbLine
 10
265.198769
 20
62.096074
 11
266.148375
 21
63.045679
  0
LINE
  5
6D2
100
AcDbEntity
  8
M0
 62
     2
100
AcDbLine
 10
265.198417
 20
62.096709
 11
266.14774
 21
63.046032
  0
LINE
  5
6D3
100
AcDbEntity
  8
M0
 62
     2
100
AcDbLine
 10
265.198065
 20
62.097345
 11
266.147104
 21
63.046383
  0
LINE
  5
6D4
100
AcDbEntity
  8
M0
 62
     2
100
AcDbLine
 10
265.197714
 20
62.097981
 11
266.146467
 21
63.046735
  0
LINE
  5
6D5
100
AcDbEntity
  8
M0
 62
     2
100
AcDbLine
 10
265.197363
 20
62.098619
 11
266.14583
 21
63.047085
  0
LINE
  5
6D6
100
AcDbEntity
  8
M0
 62
     2
100
AcDbLine
 10
265.197013
 20
62.099256
 11
266.145193
 21
63.047435
  0
LINE
  5
6D7
100
AcDbEntity
  8
M0
 62
     2
100
AcDbLine
 10
265.196664
 20
62.099894
 11
266.144555
 21
63.047785
  0
LINE
  5
6D8
100
AcDbEntity
  8
M0
 62
     2
100
AcDbLine
 10
265.196315
 20
62.100533
 11
266.143916
 21
63.048134
  0
LINE
  5
6D9
100
AcDbEntity
  8
M0
 62
     2
100
AcDbLine
 10
265.195966
 20
62.101172
 11
266.143277
 21
63.048482
  0
LINE
  5
6DA
100
AcDbEntity
  8
M0
 62
     2
100
AcDbLine
 10
265.195619
 20
62.101812
 11
266.142637
 21
63.04883
  0
LINE
  5
6DB
100
AcDbEntity
  8
M0
 62
     2
100
AcDbLine
 10
265.195271
 20
62.102453
 11
266.141996
 21
63.049177
  0
LINE
  5
6DC
100
AcDbEntity
  8
M0
 62
     2
100
AcDbLine
 10
265.194925
 20
62.103093
 11
266.141355
 21
63.049524
  0
LINE
  5
6DD
100
AcDbEntity
  8
M0
 62
     2
100
AcDbLine
 10
265.194578
 20
62.103735
 11
266.140714
 21
63.04987
  0
LINE
  5
6DE
100
AcDbEntity
  8
M0
 62
     2
100
AcDbLine
 10
265.194233
 20
62.104377
 11
266.140072
 21
63.050216
  0
LINE
  5
6DF
100
AcDbEntity
  8
M0
 62
     2
100
AcDbLine
 10
265.193888
 20
62.10502
 11
266.139429
 21
63.050561
  0
LINE
  5
6E0
100
AcDbEntity
  8
M0
 62
     2
100
AcDbLine
 10
265.193543
 20
62.105663
 11
266.138786
 21
63.050905
  0
LINE
  5
6E1
100
AcDbEntity
  8
M0
 62
     2
100
AcDbLine
 10
265.193199
 20
62.106307
 11
266.138142
 21
63.051249
  0
LINE
  5
6E2
100
AcDbEntity
  8
M0
 62
     2
100
AcDbLine
 10
265.192856
 20
62.106951
 11
266.137498
 21
63.051593
  0
LINE
  5
6E3
100
AcDbEntity
  8
M0
 62
     2
100
AcDbLine
 10
265.192513
 20
62.107596
 11
266.136853
 21
63.051936
  0
LINE
  5
6E4
100
AcDbEntity
  8
M0
 62
     2
100
AcDbLine
 10
265.192171
 20
62.108241
 11
266.136207
 21
63.052278
  0
LINE
  5
6E5
100
AcDbEntity
  8
M0
 62
     2
100
AcDbLine
 10
265.191829
 20
62.108887
 11
266.135561
 21
63.052619
  0
LINE
  5
6E6
100
AcDbEntity
  8
M0
 62
     2
100
AcDbLine
 10
265.191488
 20
62.109534
 11
266.134915
 21
63.052961
  0
LINE
  5
6E7
100
AcDbEntity
  8
M0
 62
     2
100
AcDbLine
 10
265.191148
 20
62.110181
 11
266.134268
 21
63.053301
  0
LINE
  5
6E8
100
AcDbEntity
  8
M0
 62
     2
100
AcDbLine
 10
265.190808
 20
62.110829
 11
266.13362
 21
63.053641
  0
LINE
  5
6E9
100
AcDbEntity
  8
M0
 62
     2
100
AcDbLine
 10
265.190468
 20
62.111477
 11
266.132972
 21
63.05398
  0
LINE
  5
6EA
100
AcDbEntity
  8
M0
 62
     2
100
AcDbLine
 10
265.19013
 20
62.112126
 11
266.132323
 21
63.054319
  0
LINE
  5
6EB
100
AcDbEntity
  8
M0
 62
     2
100
AcDbLine
 10
265.189791
 20
62.112776
 11
266.131673
 21
63.054657
  0
LINE
  5
6EC
100
AcDbEntity
  8
M0
 62
     2
100
AcDbLine
 10
265.189454
 20
62.113426
 11
266.131023
 21
63.054995
  0
LINE
  5
6ED
100
AcDbEntity
  8
M0
 62
     2
100
AcDbLine
 10
265.189117
 20
62.114076
 11
266.130373
 21
63.055332
  0
LINE
  5
6EE
100
AcDbEntity
  8
M0
 62
     2
100
AcDbLine
 10
265.18878
 20
62.114727
 11
266.129722
 21
63.055669
  0
LINE
  5
6EF
100
AcDbEntity
  8
M0
 62
     2
100
AcDbLine
 10
265.188444
 20
62.115379
 11
266.12907
 21
63.056005
  0
LINE
  5
6F0
100
AcDbEntity
  8
M0
 62
     2
100
AcDbLine
 10
265.188109
 20
62.116031
 11
266.128418
 21
63.05634
  0
LINE
  5
6F1
100
AcDbEntity
  8
M0
 62
     2
100
AcDbLine
 10
265.187774
 20
62.116684
 11
266.127765
 21
63.056675
  0
LINE
  5
6F2
100
AcDbEntity
  8
M0
 62
     2
100
AcDbLine
 10
265.18744
 20
62.117338
 11
266.127111
 21
63.057009
  0
LINE
  5
6F3
100
AcDbEntity
  8
M0
 62
     2
100
AcDbLine
 10
265.187106
 20
62.117992
 11
266.126457
 21
63.057343
  0
LINE
  5
6F4
100
AcDbEntity
  8
M0
 62
     2
100
AcDbLine
 10
265.186773
 20
62.118646
 11
266.125803
 21
63.057676
  0
LINE
  5
6F5
100
AcDbEntity
  8
M0
 62
     2
100
AcDbLine
 10
265.18644
 20
62.119301
 11
266.125148
 21
63.058009
  0
LINE
  5
6F6
100
AcDbEntity
  8
M0
 62
     2
100
AcDbLine
 10
265.186108
 20
62.119957
 11
266.124492
 21
63.058341
  0
LINE
  5
6F7
100
AcDbEntity
  8
M0
 62
     2
100
AcDbLine
 10
265.185777
 20
62.120613
 11
266.123835
 21
63.058672
  0
LINE
  5
6F8
100
AcDbEntity
  8
M0
 62
     2
100
AcDbLine
 10
265.185446
 20
62.12127
 11
266.123179
 21
63.059003
  0
LINE
  5
6F9
100
AcDbEntity
  8
M0
 62
     2
100
AcDbLine
 10
265.185116
 20
62.121928
 11
266.122521
 21
63.059333
  0
LINE
  5
6FA
100
AcDbEntity
  8
M0
 62
     2
100
AcDbLine
 10
265.184786
 20
62.122586
 11
266.121863
 21
63.059663
  0
LINE
  5
6FB
100
AcDbEntity
  8
M0
 62
     2
100
AcDbLine
 10
265.184457
 20
62.123244
 11
266.121204
 21
63.059992
  0
LINE
  5
6FC
100
AcDbEntity
  8
M0
 62
     2
100
AcDbLine
 10
265.184129
 20
62.123904
 11
266.120545
 21
63.06032
  0
LINE
  5
6FD
100
AcDbEntity
  8
M0
 62
     2
100
AcDbLine
 10
265.183801
 20
62.124563
 11
266.119886
 21
63.060648
  0
LINE
  5
6FE
100
AcDbEntity
  8
M0
 62
     2
100
AcDbLine
 10
265.183473
 20
62.125224
 11
266.119225
 21
63.060975
  0
LINE
  5
6FF
100
AcDbEntity
  8
M0
 62
     2
100
AcDbLine
 10
265.183147
 20
62.125885
 11
266.118564
 21
63.061302
  0
LINE
  5
700
100
AcDbEntity
  8
M0
 62
     2
100
AcDbLine
 10
265.18282
 20
62.126546
 11
266.117903
 21
63.061628
  0
LINE
  5
701
100
AcDbEntity
  8
M0
 62
     2
100
AcDbLine
 10
265.182495
 20
62.127208
 11
266.117241
 21
63.061954
  0
LINE
  5
702
100
AcDbEntity
  8
M0
 62
     2
100
AcDbLine
 10
265.18217
 20
62.127871
 11
266.116578
 21
63.062279
  0
LINE
  5
703
100
AcDbEntity
  8
M0
 62
     2
100
AcDbLine
 10
265.181845
 20
62.128534
 11
266.115915
 21
63.062603
  0
LINE
  5
704
100
AcDbEntity
  8
M0
 62
     2
100
AcDbLine
 10
265.181522
 20
62.129198
 11
266.115251
 21
63.062927
  0
LINE
  5
705
100
AcDbEntity
  8
M0
 62
     2
100
AcDbLine
 10
265.181198
 20
62.129862
 11
266.114586
 21
63.06325
  0
LINE
  5
706
100
AcDbEntity
  8
M0
 62
     2
100
AcDbLine
 10
265.180876
 20
62.130527
 11
266.113921
 21
63.063573
  0
LINE
  5
707
100
AcDbEntity
  8
M0
 62
     2
100
AcDbLine
 10
265.180554
 20
62.131193
 11
266.113256
 21
63.063895
  0
LINE
  5
708
100
AcDbEntity
  8
M0
 62
     2
100
AcDbLine
 10
265.180232
 20
62.131859
 11
266.11259
 21
63.064217
  0
LINE
  5
709
100
AcDbEntity
  8
M0
 62
     2
100
AcDbLine
 10
265.179911
 20
62.132526
 11
266.111923
 21
63.064538
  0
LINE
  5
70A
100
AcDbEntity
  8
M0
 62
     2
100
AcDbLine
 10
265.179591
 20
62.133193
 11
266.111255
 21
63.064858
  0
LINE
  5
70B
100
AcDbEntity
  8
M0
 62
     2
100
AcDbLine
 10
265.179271
 20
62.133861
 11
266.110587
 21
63.065178
  0
LINE
  5
70C
100
AcDbEntity
  8
M0
 62
     2
100
AcDbLine
 10
265.178952
 20
62.13453
 11
266.109919
 21
63.065497
  0
LINE
  5
70D
100
AcDbEntity
  8
M0
 62
     2
100
AcDbLine
 10
265.178633
 20
62.135199
 11
266.10925
 21
63.065815
  0
LINE
  5
70E
100
AcDbEntity
  8
M0
 62
     2
100
AcDbLine
 10
265.178315
 20
62.135869
 11
266.10858
 21
63.066133
  0
LINE
  5
70F
100
AcDbEntity
  8
M0
 62
     2
100
AcDbLine
 10
265.177998
 20
62.136539
 11
266.10791
 21
63.066451
  0
LINE
  5
710
100
AcDbEntity
  8
M0
 62
     2
100
AcDbLine
 10
265.177681
 20
62.13721
 11
266.107239
 21
63.066767
  0
LINE
  5
711
100
AcDbEntity
  8
M0
 62
     2
100
AcDbLine
 10
265.177365
 20
62.137881
 11
266.106567
 21
63.067084
  0
LINE
  5
712
100
AcDbEntity
  8
M0
 62
     2
100
AcDbLine
 10
265.17705
 20
62.138554
 11
266.105895
 21
63.067399
  0
LINE
  5
713
100
AcDbEntity
  8
M0
 62
     2
100
AcDbLine
 10
265.176735
 20
62.139226
 11
266.105223
 21
63.067714
  0
LINE
  5
714
100
AcDbEntity
  8
M0
 62
     2
100
AcDbLine
 10
265.17642
 20
62.139899
 11
266.104549
 21
63.068029
  0
LINE
  5
715
100
AcDbEntity
  8
M0
 62
     2
100
AcDbLine
 10
265.176106
 20
62.140573
 11
266.103875
 21
63.068342
  0
LINE
  5
716
100
AcDbEntity
  8
M0
 62
     2
100
AcDbLine
 10
265.175793
 20
62.141248
 11
266.103201
 21
63.068656
  0
LINE
  5
717
100
AcDbEntity
  8
M0
 62
     2
100
AcDbLine
 10
265.17548
 20
62.141923
 11
266.102526
 21
63.068968
  0
LINE
  5
718
100
AcDbEntity
  8
M0
 62
     2
100
AcDbLine
 10
265.175168
 20
62.142599
 11
266.10185
 21
63.06928
  0
LINE
  5
719
100
AcDbEntity
  8
M0
 62
     2
100
AcDbLine
 10
265.174857
 20
62.143275
 11
266.101174
 21
63.069592
  0
LINE
  5
71A
100
AcDbEntity
  8
M0
 62
     2
100
AcDbLine
 10
265.174546
 20
62.143952
 11
266.100497
 21
63.069903
  0
LINE
  5
71B
100
AcDbEntity
  8
M0
 62
     2
100
AcDbLine
 10
265.174236
 20
62.144629
 11
266.09982
 21
63.070213
  0
LINE
  5
71C
100
AcDbEntity
  8
M0
 62
     2
100
AcDbLine
 10
265.173926
 20
62.145307
 11
266.099142
 21
63.070522
  0
LINE
  5
71D
100
AcDbEntity
  8
M0
 62
     2
100
AcDbLine
 10
265.173617
 20
62.145986
 11
266.098463
 21
63.070831
  0
LINE
  5
71E
100
AcDbEntity
  8
M0
 62
     2
100
AcDbLine
 10
265.173309
 20
62.146665
 11
266.097784
 21
63.07114
  0
LINE
  5
71F
100
AcDbEntity
  8
M0
 62
     2
100
AcDbLine
 10
265.173001
 20
62.147345
 11
266.097104
 21
63.071448
  0
LINE
  5
720
100
AcDbEntity
  8
M0
 62
     2
100
AcDbLine
 10
265.172694
 20
62.148025
 11
266.096423
 21
63.071755
  0
LINE
  5
721
100
AcDbEntity
  8
M0
 62
     2
100
AcDbLine
 10
265.172387
 20
62.148707
 11
266.095742
 21
63.072062
  0
LINE
  5
722
100
AcDbEntity
  8
M0
 62
     2
100
AcDbLine
 10
265.172081
 20
62.149388
 11
266.095061
 21
63.072368
  0
LINE
  5
723
100
AcDbEntity
  8
M0
 62
     2
100
AcDbLine
 10
265.171776
 20
62.15007
 11
266.094378
 21
63.072673
  0
LINE
  5
724
100
AcDbEntity
  8
M0
 62
     2
100
AcDbLine
 10
265.171471
 20
62.150753
 11
266.093695
 21
63.072978
  0
LINE
  5
725
100
AcDbEntity
  8
M0
 62
     2
100
AcDbLine
 10
265.171167
 20
62.151437
 11
266.093012
 21
63.073282
  0
LINE
  5
726
100
AcDbEntity
  8
M0
 62
     2
100
AcDbLine
 10
265.170863
 20
62.152121
 11
266.092328
 21
63.073586
  0
LINE
  5
727
100
AcDbEntity
  8
M0
 62
     2
100
AcDbLine
 10
265.17056
 20
62.152806
 11
266.091643
 21
63.073889
  0
LINE
  5
728
100
AcDbEntity
  8
M0
 62
     2
100
AcDbLine
 10
265.170258
 20
62.153491
 11
266.090958
 21
63.074191
  0
LINE
  5
729
100
AcDbEntity
  8
M0
 62
     2
100
AcDbLine
 10
265.169956
 20
62.154177
 11
266.090272
 21
63.074493
  0
LINE
  5
72A
100
AcDbEntity
  8
M0
 62
     2
100
AcDbLine
 10
265.169655
 20
62.154863
 11
266.089585
 21
63.074794
  0
LINE
  5
72B
100
AcDbEntity
  8
M0
 62
     2
100
AcDbLine
 10
265.169354
 20
62.155551
 11
266.088898
 21
63.075094
  0
LINE
  5
72C
100
AcDbEntity
  8
M0
 62
     2
100
AcDbLine
 10
265.169055
 20
62.156238
 11
266.08821
 21
63.075394
  0
LINE
  5
72D
100
AcDbEntity
  8
M0
 62
     2
100
AcDbLine
 10
265.168755
 20
62.156927
 11
266.087522
 21
63.075694
  0
LINE
  5
72E
100
AcDbEntity
  8
M0
 62
     2
100
AcDbLine
 10
265.168457
 20
62.157616
 11
266.086833
 21
63.075992
  0
LINE
  5
72F
100
AcDbEntity
  8
M0
 62
     2
100
AcDbLine
 10
265.168158
 20
62.158305
 11
266.086144
 21
63.07629
  0
LINE
  5
730
100
AcDbEntity
  8
M0
 62
     2
100
AcDbLine
 10
265.167861
 20
62.158996
 11
266.085453
 21
63.076588
  0
LINE
  5
731
100
AcDbEntity
  8
M0
 62
     2
100
AcDbLine
 10
265.167564
 20
62.159686
 11
266.084762
 21
63.076885
  0
LINE
  5
732
100
AcDbEntity
  8
M0
 62
     2
100
AcDbLine
 10
265.167268
 20
62.160378
 11
266.084071
 21
63.077181
  0
LINE
  5
733
100
AcDbEntity
  8
M0
 62
     2
100
AcDbLine
 10
265.166972
 20
62.16107
 11
266.083379
 21
63.077477
  0
LINE
  5
734
100
AcDbEntity
  8
M0
 62
     2
100
AcDbLine
 10
265.166677
 20
62.161763
 11
266.082686
 21
63.077772
  0
LINE
  5
735
100
AcDbEntity
  8
M0
 62
     2
100
AcDbLine
 10
265.166383
 20
62.162456
 11
266.081993
 21
63.078066
  0
LINE
  5
736
100
AcDbEntity
  8
M0
 62
     2
100
AcDbLine
 10
265.166089
 20
62.16315
 11
266.081299
 21
63.07836
  0
LINE
  5
737
100
AcDbEntity
  8
M0
 62
     2
100
AcDbLine
 10
265.165796
 20
62.163844
 11
266.080605
 21
63.078653
  0
LINE
  5
738
100
AcDbEntity
  8
M0
 62
     2
100
AcDbLine
 10
265.165503
 20
62.164539
 11
266.079909
 21
63.078945
  0
LINE
  5
739
100
AcDbEntity
  8
M0
 62
     2
100
AcDbLine
 10
265.165212
 20
62.165235
 11
266.079214
 21
63.079237
  0
LINE
  5
73A
100
AcDbEntity
  8
M0
 62
     2
100
AcDbLine
 10
265.16492
 20
62.165932
 11
266.078517
 21
63.079529
  0
LINE
  5
73B
100
AcDbEntity
  8
M0
 62
     2
100
AcDbLine
 10
265.16463
 20
62.166629
 11
266.07782
 21
63.079819
  0
LINE
  5
73C
100
AcDbEntity
  8
M0
 62
     2
100
AcDbLine
 10
265.16434
 20
62.167326
 11
266.077122
 21
63.080109
  0
LINE
  5
73D
100
AcDbEntity
  8
M0
 62
     2
100
AcDbLine
 10
265.16405
 20
62.168025
 11
266.076424
 21
63.080399
  0
LINE
  5
73E
100
AcDbEntity
  8
M0
 62
     2
100
AcDbLine
 10
265.163761
 20
62.168724
 11
266.075725
 21
63.080687
  0
LINE
  5
73F
100
AcDbEntity
  8
M0
 62
     2
100
AcDbLine
 10
265.163473
 20
62.169423
 11
266.075026
 21
63.080976
  0
LINE
  5
740
100
AcDbEntity
  8
M0
 62
     2
100
AcDbLine
 10
265.163186
 20
62.170123
 11
266.074326
 21
63.081263
  0
LINE
  5
741
100
AcDbEntity
  8
M0
 62
     2
100
AcDbLine
 10
265.162899
 20
62.170824
 11
266.073625
 21
63.08155
  0
LINE
  5
742
100
AcDbEntity
  8
M0
 62
     2
100
AcDbLine
 10
265.162613
 20
62.171525
 11
266.072923
 21
63.081836
  0
LINE
  5
743
100
AcDbEntity
  8
M0
 62
     2
100
AcDbLine
 10
265.162327
 20
62.172228
 11
266.072221
 21
63.082122
  0
LINE
  5
744
100
AcDbEntity
  8
M0
 62
     2
100
AcDbLine
 10
265.162042
 20
62.17293
 11
266.071519
 21
63.082407
  0
LINE
  5
745
100
AcDbEntity
  8
M0
 62
     2
100
AcDbLine
 10
265.161758
 20
62.173634
 11
266.070815
 21
63.082691
  0
LINE
  5
746
100
AcDbEntity
  8
M0
 62
     2
100
AcDbLine
 10
265.161474
 20
62.174338
 11
266.070111
 21
63.082975
  0
LINE
  5
747
100
AcDbEntity
  8
M0
 62
     2
100
AcDbLine
 10
265.161191
 20
62.175042
 11
266.069407
 21
63.083258
  0
LINE
  5
748
100
AcDbEntity
  8
M0
 62
     2
100
AcDbLine
 10
265.160908
 20
62.175747
 11
266.068701
 21
63.083541
  0
LINE
  5
749
100
AcDbEntity
  8
M0
 62
     2
100
AcDbLine
 10
265.160626
 20
62.176453
 11
266.067996
 21
63.083822
  0
LINE
  5
74A
100
AcDbEntity
  8
M0
 62
     2
100
AcDbLine
 10
265.160345
 20
62.17716
 11
266.067289
 21
63.084104
  0
LINE
  5
74B
100
AcDbEntity
  8
M0
 62
     2
100
AcDbLine
 10
265.160065
 20
62.177867
 11
266.066582
 21
63.084384
  0
LINE
  5
74C
100
AcDbEntity
  8
M0
 62
     2
100
AcDbLine
 10
265.159785
 20
62.178575
 11
266.065874
 21
63.084664
  0
LINE
  5
74D
100
AcDbEntity
  8
M0
 62
     2
100
AcDbLine
 10
265.159506
 20
62.179283
 11
266.065166
 21
63.084943
  0
LINE
  5
74E
100
AcDbEntity
  8
M0
 62
     2
100
AcDbLine
 10
265.159227
 20
62.179992
 11
266.064457
 21
63.085222
  0
LINE
  5
74F
100
AcDbEntity
  8
M0
 62
     2
100
AcDbLine
 10
265.158949
 20
62.180702
 11
266.063747
 21
63.0855
  0
LINE
  5
750
100
AcDbEntity
  8
M0
 62
     2
100
AcDbLine
 10
265.158672
 20
62.181412
 11
266.063037
 21
63.085777
  0
LINE
  5
751
100
AcDbEntity
  8
M0
 62
     2
100
AcDbLine
 10
265.158395
 20
62.182123
 11
266.062326
 21
63.086054
  0
LINE
  5
752
100
AcDbEntity
  8
M0
 62
     2
100
AcDbLine
 10
265.158119
 20
62.182835
 11
266.061614
 21
63.08633
  0
LINE
  5
753
100
AcDbEntity
  8
M0
 62
     2
100
AcDbLine
 10
265.157843
 20
62.183547
 11
266.060902
 21
63.086605
  0
LINE
  5
754
100
AcDbEntity
  8
M0
 62
     2
100
AcDbLine
 10
265.157569
 20
62.18426
 11
266.060189
 21
63.08688
  0
LINE
  5
755
100
AcDbEntity
  8
M0
 62
     2
100
AcDbLine
 10
265.157294
 20
62.184973
 11
266.059475
 21
63.087154
  0
LINE
  5
756
100
AcDbEntity
  8
M0
 62
     2
100
AcDbLine
 10
265.157021
 20
62.185688
 11
266.058761
 21
63.087428
  0
LINE
  5
757
100
AcDbEntity
  8
M0
 62
     2
100
AcDbLine
 10
265.156748
 20
62.186403
 11
266.058046
 21
63.087701
  0
LINE
  5
758
100
AcDbEntity
  8
M0
 62
     2
100
AcDbLine
 10
265.156476
 20
62.187118
 11
266.057331
 21
63.087973
  0
LINE
  5
759
100
AcDbEntity
  8
M0
 62
     2
100
AcDbLine
 10
265.156204
 20
62.187834
 11
266.056615
 21
63.088244
  0
LINE
  5
75A
100
AcDbEntity
  8
M0
 62
     2
100
AcDbLine
 10
265.155934
 20
62.188551
 11
266.055898
 21
63.088515
  0
LINE
  5
75B
100
AcDbEntity
  8
M0
 62
     2
100
AcDbLine
 10
265.155663
 20
62.189268
 11
266.05518
 21
63.088785
  0
LINE
  5
75C
100
AcDbEntity
  8
M0
 62
     2
100
AcDbLine
 10
265.155394
 20
62.189987
 11
266.054462
 21
63.089055
  0
LINE
  5
75D
100
AcDbEntity
  8
M0
 62
     2
100
AcDbLine
 10
265.155125
 20
62.190705
 11
266.053743
 21
63.089324
  0
LINE
  5
75E
100
AcDbEntity
  8
M0
 62
     2
100
AcDbLine
 10
265.154857
 20
62.191425
 11
266.053024
 21
63.089592
  0
LINE
  5
75F
100
AcDbEntity
  8
M0
 62
     2
100
AcDbLine
 10
265.154589
 20
62.192145
 11
266.052304
 21
63.08986
  0
LINE
  5
760
100
AcDbEntity
  8
M0
 62
     2
100
AcDbLine
 10
265.154322
 20
62.192866
 11
266.051583
 21
63.090127
  0
LINE
  5
761
100
AcDbEntity
  8
M0
 62
     2
100
AcDbLine
 10
265.154056
 20
62.193587
 11
266.050862
 21
63.090393
  0
LINE
  5
762
100
AcDbEntity
  8
M0
 62
     2
100
AcDbLine
 10
265.15379
 20
62.194309
 11
266.05014
 21
63.090659
  0
LINE
  5
763
100
AcDbEntity
  8
M0
 62
     2
100
AcDbLine
 10
265.153525
 20
62.195032
 11
266.049417
 21
63.090924
  0
LINE
  5
764
100
AcDbEntity
  8
M0
 62
     2
100
AcDbLine
 10
265.153261
 20
62.195755
 11
266.048694
 21
63.091188
  0
LINE
  5
765
100
AcDbEntity
  8
M0
 62
     2
100
AcDbLine
 10
265.152997
 20
62.196479
 11
266.04797
 21
63.091452
  0
LINE
  5
766
100
AcDbEntity
  8
M0
 62
     2
100
AcDbLine
 10
265.152734
 20
62.197204
 11
266.047245
 21
63.091715
  0
LINE
  5
767
100
AcDbEntity
  8
M0
 62
     2
100
AcDbLine
 10
265.152472
 20
62.197929
 11
266.046519
 21
63.091977
  0
LINE
  5
768
100
AcDbEntity
  8
M0
 62
     2
100
AcDbLine
 10
265.15221
 20
62.198655
 11
266.045793
 21
63.092238
  0
LINE
  5
769
100
AcDbEntity
  8
M0
 62
     2
100
AcDbLine
 10
265.151949
 20
62.199382
 11
266.045067
 21
63.092499
  0
LINE
  5
76A
100
AcDbEntity
  8
M0
 62
     2
100
AcDbLine
 10
265.151689
 20
62.200109
 11
266.044339
 21
63.09276
  0
LINE
  5
76B
100
AcDbEntity
  8
M0
 62
     2
100
AcDbLine
 10
265.151429
 20
62.200838
 11
266.043611
 21
63.093019
  0
LINE
  5
76C
100
AcDbEntity
  8
M0
 62
     2
100
AcDbLine
 10
265.15117
 20
62.201566
 11
266.042883
 21
63.093278
  0
LINE
  5
76D
100
AcDbEntity
  8
M0
 62
     2
100
AcDbLine
 10
265.150912
 20
62.202296
 11
266.042153
 21
63.093537
  0
LINE
  5
76E
100
AcDbEntity
  8
M0
 62
     2
100
AcDbLine
 10
265.150655
 20
62.203026
 11
266.041423
 21
63.093794
  0
LINE
  5
76F
100
AcDbEntity
  8
M0
 62
     2
100
AcDbLine
 10
265.150398
 20
62.203756
 11
266.040692
 21
63.094051
  0
LINE
  5
770
100
AcDbEntity
  8
M0
 62
     2
100
AcDbLine
 10
265.150141
 20
62.204488
 11
266.039961
 21
63.094308
  0
LINE
  5
771
100
AcDbEntity
  8
M0
 62
     2
100
AcDbLine
 10
265.149886
 20
62.20522
 11
266.039229
 21
63.094563
  0
LINE
  5
772
100
AcDbEntity
  8
M0
 62
     2
100
AcDbLine
 10
265.149631
 20
62.205953
 11
266.038496
 21
63.094818
  0
LINE
  5
773
100
AcDbEntity
  8
M0
 62
     2
100
AcDbLine
 10
265.149377
 20
62.206686
 11
266.037763
 21
63.095072
  0
LINE
  5
774
100
AcDbEntity
  8
M0
 62
     2
100
AcDbLine
 10
265.149123
 20
62.20742
 11
266.037029
 21
63.095326
  0
LINE
  5
775
100
AcDbEntity
  8
M0
 62
     2
100
AcDbLine
 10
265.14887
 20
62.208155
 11
266.036294
 21
63.095579
  0
LINE
  5
776
100
AcDbEntity
  8
M0
 62
     2
100
AcDbLine
 10
265.148618
 20
62.20889
 11
266.035558
 21
63.095831
  0
LINE
  5
777
100
AcDbEntity
  8
M0
 62
     2
100
AcDbLine
 10
265.148366
 20
62.209627
 11
266.034822
 21
63.096083
  0
LINE
  5
778
100
AcDbEntity
  8
M0
 62
     2
100
AcDbLine
 10
265.148115
 20
62.210363
 11
266.034085
 21
63.096333
  0
LINE
  5
779
100
AcDbEntity
  8
M0
 62
     2
100
AcDbLine
 10
265.147865
 20
62.211101
 11
266.033348
 21
63.096584
  0
LINE
  5
77A
100
AcDbEntity
  8
M0
 62
     2
100
AcDbLine
 10
265.147616
 20
62.211839
 11
266.03261
 21
63.096833
  0
LINE
  5
77B
100
AcDbEntity
  8
M0
 62
     2
100
AcDbLine
 10
265.147367
 20
62.212578
 11
266.031871
 21
63.097082
  0
LINE
  5
77C
100
AcDbEntity
  8
M0
 62
     2
100
AcDbLine
 10
265.147119
 20
62.213318
 11
266.031131
 21
63.09733
  0
LINE
  5
77D
100
AcDbEntity
  8
M0
 62
     2
100
AcDbLine
 10
265.146872
 20
62.214058
 11
266.030391
 21
63.097577
  0
LINE
  5
77E
100
AcDbEntity
  8
M0
 62
     2
100
AcDbLine
 10
265.146625
 20
62.214799
 11
266.02965
 21
63.097824
  0
LINE
  5
77F
100
AcDbEntity
  8
M0
 62
     2
100
AcDbLine
 10
265.146379
 20
62.215541
 11
266.028908
 21
63.09807
  0
LINE
  5
780
100
AcDbEntity
  8
M0
 62
     2
100
AcDbLine
 10
265.146133
 20
62.216283
 11
266.028166
 21
63.098315
  0
LINE
  5
781
100
AcDbEntity
  8
M0
 62
     2
100
AcDbLine
 10
265.145889
 20
62.217026
 11
266.027423
 21
63.09856
  0
LINE
  5
782
100
AcDbEntity
  8
M0
 62
     2
100
AcDbLine
 10
265.145645
 20
62.21777
 11
266.026679
 21
63.098804
  0
LINE
  5
783
100
AcDbEntity
  8
M0
 62
     2
100
AcDbLine
 10
265.145402
 20
62.218514
 11
266.025935
 21
63.099047
  0
LINE
  5
784
100
AcDbEntity
  8
M0
 62
     2
100
AcDbLine
 10
265.145159
 20
62.219259
 11
266.02519
 21
63.09929
  0
LINE
  5
785
100
AcDbEntity
  8
M0
 62
     2
100
AcDbLine
 10
265.144917
 20
62.220005
 11
266.024444
 21
63.099532
  0
LINE
  5
786
100
AcDbEntity
  8
M0
 62
     2
100
AcDbLine
 10
265.144676
 20
62.220752
 11
266.023697
 21
63.099773
  0
LINE
  5
787
100
AcDbEntity
  8
M0
 62
     2
100
AcDbLine
 10
265.144436
 20
62.221499
 11
266.02295
 21
63.100013
  0
LINE
  5
788
100
AcDbEntity
  8
M0
 62
     2
100
AcDbLine
 10
265.144196
 20
62.222247
 11
266.022202
 21
63.100253
  0
LINE
  5
789
100
AcDbEntity
  8
M0
 62
     2
100
AcDbLine
 10
265.143957
 20
62.222995
 11
266.021453
 21
63.100492
  0
LINE
  5
78A
100
AcDbEntity
  8
M0
 62
     2
100
AcDbLine
 10
265.143718
 20
62.223745
 11
266.020704
 21
63.10073
  0
LINE
  5
78B
100
AcDbEntity
  8
M0
 62
     2
100
AcDbLine
 10
265.143481
 20
62.224495
 11
266.019954
 21
63.100968
  0
LINE
  5
78C
100
AcDbEntity
  8
M0
 62
     2
100
AcDbLine
 10
265.143244
 20
62.225246
 11
266.019203
 21
63.101205
  0
LINE
  5
78D
100
AcDbEntity
  8
M0
 62
     2
100
AcDbLine
 10
265.143008
 20
62.225997
 11
266.018452
 21
63.101441
  0
LINE
  5
78E
100
AcDbEntity
  8
M0
 62
     2
100
AcDbLine
 10
265.142772
 20
62.226749
 11
266.0177
 21
63.101677
  0
LINE
  5
78F
100
AcDbEntity
  8
M0
 62
     2
100
AcDbLine
 10
265.142537
 20
62.227502
 11
266.016947
 21
63.101912
  0
LINE
  5
790
100
AcDbEntity
  8
M0
 62
     2
100
AcDbLine
 10
265.142303
 20
62.228256
 11
266.016193
 21
63.102146
  0
LINE
  5
791
100
AcDbEntity
  8
M0
 62
     2
100
AcDbLine
 10
265.14207
 20
62.22901
 11
266.015439
 21
63.102379
  0
LINE
  5
792
100
AcDbEntity
  8
M0
 62
     2
100
AcDbLine
 10
265.141837
 20
62.229765
 11
266.014684
 21
63.102612
  0
LINE
  5
793
100
AcDbEntity
  8
M0
 62
     2
100
AcDbLine
 10
265.141605
 20
62.230521
 11
266.013928
 21
63.102844
  0
LINE
  5
794
100
AcDbEntity
  8
M0
 62
     2
100
AcDbLine
 10
265.141374
 20
62.231277
 11
266.013172
 21
63.103075
  0
LINE
  5
795
100
AcDbEntity
  8
M0
 62
     2
100
AcDbLine
 10
265.141143
 20
62.232034
 11
266.012415
 21
63.103306
  0
LINE
  5
796
100
AcDbEntity
  8
M0
 62
     2
100
AcDbLine
 10
265.140913
 20
62.232792
 11
266.011657
 21
63.103535
  0
LINE
  5
797
100
AcDbEntity
  8
M0
 62
     2
100
AcDbLine
 10
265.140684
 20
62.233551
 11
266.010898
 21
63.103764
  0
LINE
  5
798
100
AcDbEntity
  8
M0
 62
     2
100
AcDbLine
 10
265.140456
 20
62.23431
 11
266.010139
 21
63.103993
  0
LINE
  5
799
100
AcDbEntity
  8
M0
 62
     2
100
AcDbLine
 10
265.140228
 20
62.23507
 11
266.009379
 21
63.10422
  0
LINE
  5
79A
100
AcDbEntity
  8
M0
 62
     2
100
AcDbLine
 10
265.140002
 20
62.235831
 11
266.008618
 21
63.104447
  0
LINE
  5
79B
100
AcDbEntity
  8
M0
 62
     2
100
AcDbLine
 10
265.139775
 20
62.236592
 11
266.007856
 21
63.104673
  0
LINE
  5
79C
100
AcDbEntity
  8
M0
 62
     2
100
AcDbLine
 10
265.13955
 20
62.237355
 11
266.007094
 21
63.104899
  0
LINE
  5
79D
100
AcDbEntity
  8
M0
 62
     2
100
AcDbLine
 10
265.139325
 20
62.238118
 11
266.006331
 21
63.105124
  0
LINE
  5
79E
100
AcDbEntity
  8
M0
 62
     2
100
AcDbLine
 10
265.139101
 20
62.238881
 11
266.005568
 21
63.105348
  0
LINE
  5
79F
100
AcDbEntity
  8
M0
 62
     2
100
AcDbLine
 10
265.138878
 20
62.239646
 11
266.004803
 21
63.105571
  0
LINE
  5
7A0
100
AcDbEntity
  8
M0
 62
     2
100
AcDbLine
 10
265.138655
 20
62.240411
 11
266.004038
 21
63.105793
  0
LINE
  5
7A1
100
AcDbEntity
  8
M0
 62
     2
100
AcDbLine
 10
265.138434
 20
62.241177
 11
266.003272
 21
63.106015
  0
LINE
  5
7A2
100
AcDbEntity
  8
M0
 62
     2
100
AcDbLine
 10
265.138212
 20
62.241943
 11
266.002506
 21
63.106236
  0
LINE
  5
7A3
100
AcDbEntity
  8
M0
 62
     2
100
AcDbLine
 10
265.137992
 20
62.242711
 11
266.001738
 21
63.106457
  0
LINE
  5
7A4
100
AcDbEntity
  8
M0
 62
     2
100
AcDbLine
 10
265.137773
 20
62.243479
 11
266.00097
 21
63.106676
  0
LINE
  5
7A5
100
AcDbEntity
  8
M0
 62
     2
100
AcDbLine
 10
265.137554
 20
62.244248
 11
266.000201
 21
63.106895
  0
LINE
  5
7A6
100
AcDbEntity
  8
M0
 62
     2
100
AcDbLine
 10
265.137336
 20
62.245017
 11
265.999432
 21
63.107113
  0
LINE
  5
7A7
100
AcDbEntity
  8
M0
 62
     2
100
AcDbLine
 10
265.137118
 20
62.245787
 11
265.998661
 21
63.107331
  0
LINE
  5
7A8
100
AcDbEntity
  8
M0
 62
     2
100
AcDbLine
 10
265.136902
 20
62.246559
 11
265.99789
 21
63.107547
  0
LINE
  5
7A9
100
AcDbEntity
  8
M0
 62
     2
100
AcDbLine
 10
265.136686
 20
62.24733
 11
265.997118
 21
63.107763
  0
LINE
  5
7AA
100
AcDbEntity
  8
M0
 62
     2
100
AcDbLine
 10
265.136471
 20
62.248103
 11
265.996346
 21
63.107978
  0
LINE
  5
7AB
100
AcDbEntity
  8
M0
 62
     2
100
AcDbLine
 10
265.136256
 20
62.248876
 11
265.995573
 21
63.108193
  0
LINE
  5
7AC
100
AcDbEntity
  8
M0
 62
     2
100
AcDbLine
 10
265.136043
 20
62.24965
 11
265.994799
 21
63.108406
  0
LINE
  5
7AD
100
AcDbEntity
  8
M0
 62
     2
100
AcDbLine
 10
265.13583
 20
62.250425
 11
265.994024
 21
63.108619
  0
LINE
  5
7AE
100
AcDbEntity
  8
M0
 62
     2
100
AcDbLine
 10
265.135618
 20
62.251201
 11
265.993248
 21
63.108831
  0
LINE
  5
7AF
100
AcDbEntity
  8
M0
 62
     2
100
AcDbLine
 10
265.135406
 20
62.251977
 11
265.992472
 21
63.109043
  0
LINE
  5
7B0
100
AcDbEntity
  8
M0
 62
     2
100
AcDbLine
 10
265.135196
 20
62.252754
 11
265.991695
 21
63.109253
  0
LINE
  5
7B1
100
AcDbEntity
  8
M0
 62
     2
100
AcDbLine
 10
265.134986
 20
62.253532
 11
265.990917
 21
63.109463
  0
LINE
  5
7B2
100
AcDbEntity
  8
M0
 62
     2
100
AcDbLine
 10
265.134777
 20
62.25431
 11
265.990138
 21
63.109672
  0
LINE
  5
7B3
100
AcDbEntity
  8
M0
 62
     2
100
AcDbLine
 10
265.134568
 20
62.25509
 11
265.989359
 21
63.109881
  0
LINE
  5
7B4
100
AcDbEntity
  8
M0
 62
     2
100
AcDbLine
 10
265.134361
 20
62.25587
 11
265.988579
 21
63.110088
  0
LINE
  5
7B5
100
AcDbEntity
  8
M0
 62
     2
100
AcDbLine
 10
265.134154
 20
62.256651
 11
265.987798
 21
63.110295
  0
LINE
  5
7B6
100
AcDbEntity
  8
M0
 62
     2
100
AcDbLine
 10
265.133948
 20
62.257432
 11
265.987016
 21
63.110501
  0
LINE
  5
7B7
100
AcDbEntity
  8
M0
 62
     2
100
AcDbLine
 10
265.133743
 20
62.258215
 11
265.986234
 21
63.110706
  0
LINE
  5
7B8
100
AcDbEntity
  8
M0
 62
     2
100
AcDbLine
 10
265.133538
 20
62.258998
 11
265.985451
 21
63.110911
  0
LINE
  5
7B9
100
AcDbEntity
  8
M0
 62
     2
100
AcDbLine
 10
265.133334
 20
62.259782
 11
265.984667
 21
63.111115
  0
LINE
  5
7BA
100
AcDbEntity
  8
M0
 62
     2
100
AcDbLine
 10
265.133131
 20
62.260567
 11
265.983882
 21
63.111318
  0
LINE
  5
7BB
100
AcDbEntity
  8
M0
 62
     2
100
AcDbLine
 10
265.132929
 20
62.261352
 11
265.983097
 21
63.11152
  0
LINE
  5
7BC
100
AcDbEntity
  8
M0
 62
     2
100
AcDbLine
 10
265.132728
 20
62.262138
 11
265.98231
 21
63.111721
  0
LINE
  5
7BD
100
AcDbEntity
  8
M0
 62
     2
100
AcDbLine
 10
265.132527
 20
62.262925
 11
265.981523
 21
63.111922
  0
LINE
  5
7BE
100
AcDbEntity
  8
M0
 62
     2
100
AcDbLine
 10
265.132327
 20
62.263713
 11
265.980736
 21
63.112122
  0
LINE
  5
7BF
100
AcDbEntity
  8
M0
 62
     2
100
AcDbLine
 10
265.132128
 20
62.264502
 11
265.979947
 21
63.112321
  0
LINE
  5
7C0
100
AcDbEntity
  8
M0
 62
     2
100
AcDbLine
 10
265.13193
 20
62.265291
 11
265.979158
 21
63.112519
  0
LINE
  5
7C1
100
AcDbEntity
  8
M0
 62
     2
100
AcDbLine
 10
265.131732
 20
62.266081
 11
265.978368
 21
63.112717
  0
LINE
  5
7C2
100
AcDbEntity
  8
M0
 62
     2
100
AcDbLine
 10
265.131535
 20
62.266872
 11
265.977577
 21
63.112913
  0
LINE
  5
7C3
100
AcDbEntity
  8
M0
 62
     2
100
AcDbLine
 10
265.131339
 20
62.267664
 11
265.976785
 21
63.113109
  0
LINE
  5
7C4
100
AcDbEntity
  8
M0
 62
     2
100
AcDbLine
 10
265.131144
 20
62.268456
 11
265.975992
 21
63.113305
  0
LINE
  5
7C5
100
AcDbEntity
  8
M0
 62
     2
100
AcDbLine
 10
265.13095
 20
62.26925
 11
265.975199
 21
63.113499
  0
LINE
  5
7C6
100
AcDbEntity
  8
M0
 62
     2
100
AcDbLine
 10
265.130756
 20
62.270044
 11
265.974405
 21
63.113693
  0
LINE
  5
7C7
100
AcDbEntity
  8
M0
 62
     2
100
AcDbLine
 10
265.130563
 20
62.270839
 11
265.97361
 21
63.113885
  0
LINE
  5
7C8
100
AcDbEntity
  8
M0
 62
     2
100
AcDbLine
 10
265.130371
 20
62.271634
 11
265.972814
 21
63.114077
  0
LINE
  5
7C9
100
AcDbEntity
  8
M0
 62
     2
100
AcDbLine
 10
265.13018
 20
62.272431
 11
265.972018
 21
63.114269
  0
LINE
  5
7CA
100
AcDbEntity
  8
M0
 62
     2
100
AcDbLine
 10
265.12999
 20
62.273228
 11
265.971221
 21
63.114459
  0
LINE
  5
7CB
100
AcDbEntity
  8
M0
 62
     2
100
AcDbLine
 10
265.1298
 20
62.274026
 11
265.970423
 21
63.114649
  0
LINE
  5
7CC
100
AcDbEntity
  8
M0
 62
     2
100
AcDbLine
 10
265.129611
 20
62.274825
 11
265.969624
 21
63.114837
  0
LINE
  5
7CD
100
AcDbEntity
  8
M0
 62
     2
100
AcDbLine
 10
265.129423
 20
62.275625
 11
265.968824
 21
63.115025
  0
LINE
  5
7CE
100
AcDbEntity
  8
M0
 62
     2
100
AcDbLine
 10
265.129236
 20
62.276425
 11
265.968024
 21
63.115213
  0
LINE
  5
7CF
100
AcDbEntity
  8
M0
 62
     2
100
AcDbLine
 10
265.12905
 20
62.277227
 11
265.967222
 21
63.115399
  0
LINE
  5
7D0
100
AcDbEntity
  8
M0
 62
     2
100
AcDbLine
 10
265.128864
 20
62.278029
 11
265.96642
 21
63.115585
  0
LINE
  5
7D1
100
AcDbEntity
  8
M0
 62
     2
100
AcDbLine
 10
265.128679
 20
62.278832
 11
265.965617
 21
63.115769
  0
LINE
  5
7D2
100
AcDbEntity
  8
M0
 62
     2
100
AcDbLine
 10
265.128495
 20
62.279635
 11
265.964814
 21
63.115953
  0
LINE
  5
7D3
100
AcDbEntity
  8
M0
 62
     2
100
AcDbLine
 10
265.128312
 20
62.28044
 11
265.964009
 21
63.116137
  0
LINE
  5
7D4
100
AcDbEntity
  8
M0
 62
     2
100
AcDbLine
 10
265.12813
 20
62.281245
 11
265.963204
 21
63.116319
  0
LINE
  5
7D5
100
AcDbEntity
  8
M0
 62
     2
100
AcDbLine
 10
265.127948
 20
62.282051
 11
265.962398
 21
63.1165
  0
LINE
  5
7D6
100
AcDbEntity
  8
M0
 62
     2
100
AcDbLine
 10
265.127768
 20
62.282858
 11
265.961591
 21
63.116681
  0
LINE
  5
7D7
100
AcDbEntity
  8
M0
 62
     2
100
AcDbLine
 10
265.127588
 20
62.283666
 11
265.960783
 21
63.116861
  0
LINE
  5
7D8
100
AcDbEntity
  8
M0
 62
     2
100
AcDbLine
 10
265.127409
 20
62.284475
 11
265.959974
 21
63.11704
  0
LINE
  5
7D9
100
AcDbEntity
  8
M0
 62
     2
100
AcDbLine
 10
265.12723
 20
62.285284
 11
265.959165
 21
63.117218
  0
LINE
  5
7DA
100
AcDbEntity
  8
M0
 62
     2
100
AcDbLine
 10
265.127053
 20
62.286094
 11
265.958354
 21
63.117396
  0
LINE
  5
7DB
100
AcDbEntity
  8
M0
 62
     2
100
AcDbLine
 10
265.126876
 20
62.286905
 11
265.957543
 21
63.117572
  0
LINE
  5
7DC
100
AcDbEntity
  8
M0
 62
     2
100
AcDbLine
 10
265.126701
 20
62.287717
 11
265.956731
 21
63.117748
  0
LINE
  5
7DD
100
AcDbEntity
  8
M0
 62
     2
100
AcDbLine
 10
265.126526
 20
62.28853
 11
265.955919
 21
63.117923
  0
LINE
  5
7DE
100
AcDbEntity
  8
M0
 62
     2
100
AcDbLine
 10
265.126352
 20
62.289344
 11
265.955105
 21
63.118097
  0
LINE
  5
7DF
100
AcDbEntity
  8
M0
 62
     2
100
AcDbLine
 10
265.126178
 20
62.290158
 11
265.954291
 21
63.11827
  0
LINE
  5
7E0
100
AcDbEntity
  8
M0
 62
     2
100
AcDbLine
 10
265.126006
 20
62.290973
 11
265.953475
 21
63.118443
  0
LINE
  5
7E1
100
AcDbEntity
  8
M0
 62
     2
100
AcDbLine
 10
265.125834
 20
62.29179
 11
265.952659
 21
63.118614
  0
LINE
  5
7E2
100
AcDbEntity
  8
M0
 62
     2
100
AcDbLine
 10
265.125664
 20
62.292607
 11
265.951842
 21
63.118785
  0
LINE
  5
7E3
100
AcDbEntity
  8
M0
 62
     2
100
AcDbLine
 10
265.125494
 20
62.293424
 11
265.951024
 21
63.118955
  0
LINE
  5
7E4
100
AcDbEntity
  8
M0
 62
     2
100
AcDbLine
 10
265.125325
 20
62.294243
 11
265.950206
 21
63.119124
  0
LINE
  5
7E5
100
AcDbEntity
  8
M0
 62
     2
100
AcDbLine
 10
265.125157
 20
62.295062
 11
265.949386
 21
63.119292
  0
LINE
  5
7E6
100
AcDbEntity
  8
M0
 62
     2
100
AcDbLine
 10
265.124989
 20
62.295883
 11
265.948566
 21
63.11946
  0
LINE
  5
7E7
100
AcDbEntity
  8
M0
 62
     2
100
AcDbLine
 10
265.124823
 20
62.296704
 11
265.947745
 21
63.119626
  0
LINE
  5
7E8
100
AcDbEntity
  8
M0
 62
     2
100
AcDbLine
 10
265.124657
 20
62.297526
 11
265.946923
 21
63.119792
  0
LINE
  5
7E9
100
AcDbEntity
  8
M0
 62
     2
100
AcDbLine
 10
265.124492
 20
62.298349
 11
265.9461
 21
63.119956
  0
LINE
  5
7EA
100
AcDbEntity
  8
M0
 62
     2
100
AcDbLine
 10
265.124328
 20
62.299173
 11
265.945276
 21
63.12012
  0
LINE
  5
7EB
100
AcDbEntity
  8
M0
 62
     2
100
AcDbLine
 10
265.124165
 20
62.299997
 11
265.944452
 21
63.120283
  0
LINE
  5
7EC
100
AcDbEntity
  8
M0
 62
     2
100
AcDbLine
 10
265.124003
 20
62.300823
 11
265.943626
 21
63.120446
  0
LINE
  5
7ED
100
AcDbEntity
  8
M0
 62
     2
100
AcDbLine
 10
265.123842
 20
62.301649
 11
265.9428
 21
63.120607
  0
LINE
  5
7EE
100
AcDbEntity
  8
M0
 62
     2
100
AcDbLine
 10
265.123681
 20
62.302476
 11
265.941972
 21
63.120768
  0
LINE
  5
7EF
100
AcDbEntity
  8
M0
 62
     2
100
AcDbLine
 10
265.123522
 20
62.303304
 11
265.941144
 21
63.120927
  0
LINE
  5
7F0
100
AcDbEntity
  8
M0
 62
     2
100
AcDbLine
 10
265.123363
 20
62.304133
 11
265.940315
 21
63.121086
  0
LINE
  5
7F1
100
AcDbEntity
  8
M0
 62
     2
100
AcDbLine
 10
265.123205
 20
62.304963
 11
265.939486
 21
63.121244
  0
LINE
  5
7F2
100
AcDbEntity
  8
M0
 62
     2
100
AcDbLine
 10
265.123048
 20
62.305794
 11
265.938655
 21
63.121401
  0
LINE
  5
7F3
100
AcDbEntity
  8
M0
 62
     2
100
AcDbLine
 10
265.122892
 20
62.306625
 11
265.937823
 21
63.121557
  0
LINE
  5
7F4
100
AcDbEntity
  8
M0
 62
     2
100
AcDbLine
 10
265.122737
 20
62.307458
 11
265.936991
 21
63.121712
  0
LINE
  5
7F5
100
AcDbEntity
  8
M0
 62
     2
100
AcDbLine
 10
265.122582
 20
62.308291
 11
265.936158
 21
63.121866
  0
LINE
  5
7F6
100
AcDbEntity
  8
M0
 62
     2
100
AcDbLine
 10
265.122429
 20
62.309125
 11
265.935323
 21
63.12202
  0
LINE
  5
7F7
100
AcDbEntity
  8
M0
 62
     2
100
AcDbLine
 10
265.122276
 20
62.309961
 11
265.934488
 21
63.122172
  0
LINE
  5
7F8
100
AcDbEntity
  8
M0
 62
     2
100
AcDbLine
 10
265.122125
 20
62.310797
 11
265.933652
 21
63.122324
  0
LINE
  5
7F9
100
AcDbEntity
  8
M0
 62
     2
100
AcDbLine
 10
265.121974
 20
62.311633
 11
265.932815
 21
63.122475
  0
LINE
  5
7FA
100
AcDbEntity
  8
M0
 62
     2
100
AcDbLine
 10
265.121824
 20
62.312471
 11
265.931978
 21
63.122625
  0
LINE
  5
7FB
100
AcDbEntity
  8
M0
 62
     2
100
AcDbLine
 10
265.121675
 20
62.31331
 11
265.931139
 21
63.122774
  0
LINE
  5
7FC
100
AcDbEntity
  8
M0
 62
     2
100
AcDbLine
 10
265.121527
 20
62.314149
 11
265.930299
 21
63.122922
  0
LINE
  5
7FD
100
AcDbEntity
  8
M0
 62
     2
100
AcDbLine
 10
265.12138
 20
62.31499
 11
265.929459
 21
63.123069
  0
LINE
  5
7FE
100
AcDbEntity
  8
M0
 62
     2
100
AcDbLine
 10
265.121233
 20
62.315831
 11
265.928618
 21
63.123216
  0
LINE
  5
7FF
100
AcDbEntity
  8
M0
 62
     2
100
AcDbLine
 10
265.121088
 20
62.316674
 11
265.927775
 21
63.123361
  0
LINE
  5
800
100
AcDbEntity
  8
M0
 62
     2
100
AcDbLine
 10
265.120943
 20
62.317517
 11
265.926932
 21
63.123505
  0
LINE
  5
801
100
AcDbEntity
  8
M0
 62
     2
100
AcDbLine
 10
265.1208
 20
62.318361
 11
265.926088
 21
63.123649
  0
LINE
  5
802
100
AcDbEntity
  8
M0
 62
     2
100
AcDbLine
 10
265.120657
 20
62.319206
 11
265.925243
 21
63.123792
  0
LINE
  5
803
100
AcDbEntity
  8
M0
 62
     2
100
AcDbLine
 10
265.120515
 20
62.320052
 11
265.924397
 21
63.123934
  0
LINE
  5
804
100
AcDbEntity
  8
M0
 62
     2
100
AcDbLine
 10
265.120374
 20
62.320899
 11
265.92355
 21
63.124074
  0
LINE
  5
805
100
AcDbEntity
  8
M0
 62
     2
100
AcDbLine
 10
265.120234
 20
62.321746
 11
265.922702
 21
63.124214
  0
LINE
  5
806
100
AcDbEntity
  8
M0
 62
     2
100
AcDbLine
 10
265.120095
 20
62.322595
 11
265.921854
 21
63.124353
  0
LINE
  5
807
100
AcDbEntity
  8
M0
 62
     2
100
AcDbLine
 10
265.119957
 20
62.323445
 11
265.921004
 21
63.124491
  0
LINE
  5
808
100
AcDbEntity
  8
M0
 62
     2
100
AcDbLine
 10
265.11982
 20
62.324295
 11
265.920154
 21
63.124629
  0
LINE
  5
809
100
AcDbEntity
  8
M0
 62
     2
100
AcDbLine
 10
265.119684
 20
62.325147
 11
265.919302
 21
63.124765
  0
LINE
  5
80A
100
AcDbEntity
  8
M0
 62
     2
100
AcDbLine
 10
265.119549
 20
62.325999
 11
265.91845
 21
63.1249
  0
LINE
  5
80B
100
AcDbEntity
  8
M0
 62
     2
100
AcDbLine
 10
265.119414
 20
62.326852
 11
265.917597
 21
63.125035
  0
LINE
  5
80C
100
AcDbEntity
  8
M0
 62
     2
100
AcDbLine
 10
265.119281
 20
62.327706
 11
265.916742
 21
63.125168
  0
LINE
  5
80D
100
AcDbEntity
  8
M0
 62
     2
100
AcDbLine
 10
265.119148
 20
62.328562
 11
265.915887
 21
63.1253
  0
LINE
  5
80E
100
AcDbEntity
  8
M0
 62
     2
100
AcDbLine
 10
265.119017
 20
62.329418
 11
265.915031
 21
63.125432
  0
LINE
  5
80F
100
AcDbEntity
  8
M0
 62
     2
100
AcDbLine
 10
265.118886
 20
62.330275
 11
265.914174
 21
63.125563
  0
LINE
  5
810
100
AcDbEntity
  8
M0
 62
     2
100
AcDbLine
 10
265.118756
 20
62.331133
 11
265.913316
 21
63.125692
  0
LINE
  5
811
100
AcDbEntity
  8
M0
 62
     2
100
AcDbLine
 10
265.118628
 20
62.331992
 11
265.912457
 21
63.125821
  0
LINE
  5
812
100
AcDbEntity
  8
M0
 62
     2
100
AcDbLine
 10
265.1185
 20
62.332852
 11
265.911597
 21
63.125949
  0
LINE
  5
813
100
AcDbEntity
  8
M0
 62
     2
100
AcDbLine
 10
265.118373
 20
62.333713
 11
265.910736
 21
63.126076
  0
LINE
  5
814
100
AcDbEntity
  8
M0
 62
     2
100
AcDbLine
 10
265.118247
 20
62.334574
 11
265.909874
 21
63.126202
  0
LINE
  5
815
100
AcDbEntity
  8
M0
 62
     2
100
AcDbLine
 10
265.118122
 20
62.335437
 11
265.909012
 21
63.126326
  0
LINE
  5
816
100
AcDbEntity
  8
M0
 62
     2
100
AcDbLine
 10
265.117998
 20
62.336301
 11
265.908148
 21
63.12645
  0
LINE
  5
817
100
AcDbEntity
  8
M0
 62
     2
100
AcDbLine
 10
265.117875
 20
62.337166
 11
265.907283
 21
63.126573
  0
LINE
  5
818
100
AcDbEntity
  8
M0
 62
     2
100
AcDbLine
 10
265.117753
 20
62.338031
 11
265.906417
 21
63.126695
  0
LINE
  5
819
100
AcDbEntity
  8
M0
 62
     2
100
AcDbLine
 10
265.117632
 20
62.338898
 11
265.905551
 21
63.126816
  0
LINE
  5
81A
100
AcDbEntity
  8
M0
 62
     2
100
AcDbLine
 10
265.117512
 20
62.339766
 11
265.904683
 21
63.126936
  0
LINE
  5
81B
100
AcDbEntity
  8
M0
 62
     2
100
AcDbLine
 10
265.117393
 20
62.340634
 11
265.903815
 21
63.127056
  0
LINE
  5
81C
100
AcDbEntity
  8
M0
 62
     2
100
AcDbLine
 10
265.117275
 20
62.341504
 11
265.902945
 21
63.127174
  0
LINE
  5
81D
100
AcDbEntity
  8
M0
 62
     2
100
AcDbLine
 10
265.117158
 20
62.342374
 11
265.902074
 21
63.127291
  0
LINE
  5
81E
100
AcDbEntity
  8
M0
 62
     2
100
AcDbLine
 10
265.117042
 20
62.343246
 11
265.901203
 21
63.127407
  0
LINE
  5
81F
100
AcDbEntity
  8
M0
 62
     2
100
AcDbLine
 10
265.116927
 20
62.344118
 11
265.90033
 21
63.127522
  0
LINE
  5
820
100
AcDbEntity
  8
M0
 62
     2
100
AcDbLine
 10
265.116813
 20
62.344992
 11
265.899457
 21
63.127636
  0
LINE
  5
821
100
AcDbEntity
  8
M0
 62
     2
100
AcDbLine
 10
265.116699
 20
62.345866
 11
265.898582
 21
63.127749
  0
LINE
  5
822
100
AcDbEntity
  8
M0
 62
     2
100
AcDbLine
 10
265.116587
 20
62.346742
 11
265.897707
 21
63.127862
  0
LINE
  5
823
100
AcDbEntity
  8
M0
 62
     2
100
AcDbLine
 10
265.116476
 20
62.347618
 11
265.89683
 21
63.127973
  0
LINE
  5
824
100
AcDbEntity
  8
M0
 62
     2
100
AcDbLine
 10
265.116366
 20
62.348496
 11
265.895953
 21
63.128083
  0
LINE
  5
825
100
AcDbEntity
  8
M0
 62
     2
100
AcDbLine
 10
265.116257
 20
62.349374
 11
265.895074
 21
63.128192
  0
LINE
  5
826
100
AcDbEntity
  8
M0
 62
     2
100
AcDbLine
 10
265.116148
 20
62.350254
 11
265.894195
 21
63.1283
  0
LINE
  5
827
100
AcDbEntity
  8
M0
 62
     2
100
AcDbLine
 10
265.116041
 20
62.351134
 11
265.893314
 21
63.128408
  0
LINE
  5
828
100
AcDbEntity
  8
M0
 62
     2
100
AcDbLine
 10
265.115935
 20
62.352016
 11
265.892433
 21
63.128514
  0
LINE
  5
829
100
AcDbEntity
  8
M0
 62
     2
100
AcDbLine
 10
265.11583
 20
62.352899
 11
265.89155
 21
63.128619
  0
LINE
  5
82A
100
AcDbEntity
  8
M0
 62
     2
100
AcDbLine
 10
265.115726
 20
62.353782
 11
265.890667
 21
63.128723
  0
LINE
  5
82B
100
AcDbEntity
  8
M0
 62
     2
100
AcDbLine
 10
265.115623
 20
62.354667
 11
265.889782
 21
63.128826
  0
LINE
  5
82C
100
AcDbEntity
  8
M0
 62
     2
100
AcDbLine
 10
265.115521
 20
62.355552
 11
265.888896
 21
63.128928
  0
LINE
  5
82D
100
AcDbEntity
  8
M0
 62
     2
100
AcDbLine
 10
265.11542
 20
62.356439
 11
265.88801
 21
63.129029
  0
LINE
  5
82E
100
AcDbEntity
  8
M0
 62
     2
100
AcDbLine
 10
265.11532
 20
62.357327
 11
265.887122
 21
63.129129
  0
LINE
  5
82F
100
AcDbEntity
  8
M0
 62
     2
100
AcDbLine
 10
265.115221
 20
62.358215
 11
265.886233
 21
63.129228
  0
LINE
  5
830
100
AcDbEntity
  8
M0
 62
     2
100
AcDbLine
 10
265.115123
 20
62.359105
 11
265.885344
 21
63.129326
  0
LINE
  5
831
100
AcDbEntity
  8
M0
 62
     2
100
AcDbLine
 10
265.115026
 20
62.359996
 11
265.884453
 21
63.129423
  0
LINE
  5
832
100
AcDbEntity
  8
M0
 62
     2
100
AcDbLine
 10
265.11493
 20
62.360888
 11
265.883561
 21
63.129519
  0
LINE
  5
833
100
AcDbEntity
  8
M0
 62
     2
100
AcDbLine
 10
265.114835
 20
62.361781
 11
265.882668
 21
63.129614
  0
LINE
  5
834
100
AcDbEntity
  8
M0
 62
     2
100
AcDbLine
 10
265.114741
 20
62.362675
 11
265.881774
 21
63.129707
  0
LINE
  5
835
100
AcDbEntity
  8
M0
 62
     2
100
AcDbLine
 10
265.114649
 20
62.36357
 11
265.880879
 21
63.1298
  0
LINE
  5
836
100
AcDbEntity
  8
M0
 62
     2
100
AcDbLine
 10
265.114557
 20
62.364466
 11
265.879983
 21
63.129892
  0
LINE
  5
837
100
AcDbEntity
  8
M0
 62
     2
100
AcDbLine
 10
265.114467
 20
62.365363
 11
265.879086
 21
63.129982
  0
LINE
  5
838
100
AcDbEntity
  8
M0
 62
     2
100
AcDbLine
 10
265.114377
 20
62.366261
 11
265.878188
 21
63.130072
  0
LINE
  5
839
100
AcDbEntity
  8
M0
 62
     2
100
AcDbLine
 10
265.114289
 20
62.36716
 11
265.877289
 21
63.13016
  0
LINE
  5
83A
100
AcDbEntity
  8
M0
 62
     2
100
AcDbLine
 10
265.114201
 20
62.36806
 11
265.876388
 21
63.130248
  0
LINE
  5
83B
100
AcDbEntity
  8
M0
 62
     2
100
AcDbLine
 10
265.114115
 20
62.368962
 11
265.875487
 21
63.130334
  0
LINE
  5
83C
100
AcDbEntity
  8
M0
 62
     2
100
AcDbLine
 10
265.11403
 20
62.369864
 11
265.874584
 21
63.130419
  0
LINE
  5
83D
100
AcDbEntity
  8
M0
 62
     2
100
AcDbLine
 10
265.113946
 20
62.370768
 11
265.873681
 21
63.130503
  0
LINE
  5
83E
100
AcDbEntity
  8
M0
 62
     2
100
AcDbLine
 10
265.113863
 20
62.371673
 11
265.872776
 21
63.130586
  0
LINE
  5
83F
100
AcDbEntity
  8
M0
 62
     2
100
AcDbLine
 10
265.113781
 20
62.372578
 11
265.871871
 21
63.130668
  0
LINE
  5
840
100
AcDbEntity
  8
M0
 62
     2
100
AcDbLine
 10
265.1137
 20
62.373485
 11
265.870964
 21
63.130749
  0
LINE
  5
841
100
AcDbEntity
  8
M0
 62
     2
100
AcDbLine
 10
265.11362
 20
62.374393
 11
265.870056
 21
63.130829
  0
LINE
  5
842
100
AcDbEntity
  8
M0
 62
     2
100
AcDbLine
 10
265.113541
 20
62.375302
 11
265.869147
 21
63.130908
  0
LINE
  5
843
100
AcDbEntity
  8
M0
 62
     2
100
AcDbLine
 10
265.113464
 20
62.376212
 11
265.868237
 21
63.130985
  0
LINE
  5
844
100
AcDbEntity
  8
M0
 62
     2
100
AcDbLine
 10
265.113387
 20
62.377123
 11
265.867325
 21
63.131062
  0
LINE
  5
845
100
AcDbEntity
  8
M0
 62
     2
100
AcDbLine
 10
265.113312
 20
62.378036
 11
265.866413
 21
63.131137
  0
LINE
  5
846
100
AcDbEntity
  8
M0
 62
     2
100
AcDbLine
 10
265.113238
 20
62.378949
 11
265.8655
 21
63.131211
  0
LINE
  5
847
100
AcDbEntity
  8
M0
 62
     2
100
AcDbLine
 10
265.113165
 20
62.379864
 11
265.864585
 21
63.131284
  0
LINE
  5
848
100
AcDbEntity
  8
M0
 62
     2
100
AcDbLine
 10
265.113093
 20
62.380779
 11
265.863669
 21
63.131356
  0
LINE
  5
849
100
AcDbEntity
  8
M0
 62
     2
100
AcDbLine
 10
265.113022
 20
62.381696
 11
265.862753
 21
63.131427
  0
LINE
  5
84A
100
AcDbEntity
  8
M0
 62
     2
100
AcDbLine
 10
265.112952
 20
62.382614
 11
265.861835
 21
63.131497
  0
LINE
  5
84B
100
AcDbEntity
  8
M0
 62
     2
100
AcDbLine
 10
265.112883
 20
62.383533
 11
265.860916
 21
63.131566
  0
LINE
  5
84C
100
AcDbEntity
  8
M0
 62
     2
100
AcDbLine
 10
265.112816
 20
62.384453
 11
265.859995
 21
63.131633
  0
LINE
  5
84D
100
AcDbEntity
  8
M0
 62
     2
100
AcDbLine
 10
265.112749
 20
62.385375
 11
265.859074
 21
63.131699
  0
LINE
  5
84E
100
AcDbEntity
  8
M0
 62
     2
100
AcDbLine
 10
265.112684
 20
62.386297
 11
265.858152
 21
63.131765
  0
LINE
  5
84F
100
AcDbEntity
  8
M0
 62
     2
100
AcDbLine
 10
265.11262
 20
62.387221
 11
265.857228
 21
63.131829
  0
LINE
  5
850
100
AcDbEntity
  8
M0
 62
     2
100
AcDbLine
 10
265.112557
 20
62.388146
 11
265.856303
 21
63.131891
  0
LINE
  5
851
100
AcDbEntity
  8
M0
 62
     2
100
AcDbLine
 10
265.112496
 20
62.389072
 11
265.855377
 21
63.131953
  0
LINE
  5
852
100
AcDbEntity
  8
M0
 62
     2
100
AcDbLine
 10
265.112435
 20
62.389999
 11
265.85445
 21
63.132014
  0
LINE
  5
853
100
AcDbEntity
  8
M0
 62
     2
100
AcDbLine
 10
265.112376
 20
62.390927
 11
265.853522
 21
63.132073
  0
LINE
  5
854
100
AcDbEntity
  8
M0
 62
     2
100
AcDbLine
 10
265.112317
 20
62.391856
 11
265.852592
 21
63.132131
  0
LINE
  5
855
100
AcDbEntity
  8
M0
 62
     2
100
AcDbLine
 10
265.11226
 20
62.392787
 11
265.851662
 21
63.132189
  0
LINE
  5
856
100
AcDbEntity
  8
M0
 62
     2
100
AcDbLine
 10
265.112204
 20
62.393719
 11
265.85073
 21
63.132244
  0
LINE
  5
857
100
AcDbEntity
  8
M0
 62
     2
100
AcDbLine
 10
265.11215
 20
62.394652
 11
265.849797
 21
63.132299
  0
LINE
  5
858
100
AcDbEntity
  8
M0
 62
     2
100
AcDbLine
 10
265.112096
 20
62.395586
 11
265.848863
 21
63.132353
  0
LINE
  5
859
100
AcDbEntity
  8
M0
 62
     2
100
AcDbLine
 10
265.112044
 20
62.396521
 11
265.847927
 21
63.132405
  0
LINE
  5
85A
100
AcDbEntity
  8
M0
 62
     2
100
AcDbLine
 10
265.111993
 20
62.397458
 11
265.846991
 21
63.132456
  0
LINE
  5
85B
100
AcDbEntity
  8
M0
 62
     2
100
AcDbLine
 10
265.111943
 20
62.398396
 11
265.846053
 21
63.132506
  0
LINE
  5
85C
100
AcDbEntity
  8
M0
 62
     2
100
AcDbLine
 10
265.111894
 20
62.399335
 11
265.845114
 21
63.132555
  0
LINE
  5
85D
100
AcDbEntity
  8
M0
 62
     2
100
AcDbLine
 10
265.111846
 20
62.400275
 11
265.844174
 21
63.132602
  0
LINE
  5
85E
100
AcDbEntity
  8
M0
 62
     2
100
AcDbLine
 10
265.1118
 20
62.401216
 11
265.843233
 21
63.132649
  0
LINE
  5
85F
100
AcDbEntity
  8
M0
 62
     2
100
AcDbLine
 10
265.111755
 20
62.402159
 11
265.84229
 21
63.132694
  0
LINE
  5
860
100
AcDbEntity
  8
M0
 62
     2
100
AcDbLine
 10
265.111711
 20
62.403102
 11
265.841346
 21
63.132738
  0
LINE
  5
861
100
AcDbEntity
  8
M0
 62
     2
100
AcDbLine
 10
265.111668
 20
62.404048
 11
265.840401
 21
63.13278
  0
LINE
  5
862
100
AcDbEntity
  8
M0
 62
     2
100
AcDbLine
 10
265.111627
 20
62.404994
 11
265.839455
 21
63.132822
  0
LINE
  5
863
100
AcDbEntity
  8
M0
 62
     2
100
AcDbLine
 10
265.111587
 20
62.405941
 11
265.838508
 21
63.132862
  0
LINE
  5
864
100
AcDbEntity
  8
M0
 62
     2
100
AcDbLine
 10
265.111548
 20
62.40689
 11
265.837559
 21
63.132901
  0
LINE
  5
865
100
AcDbEntity
  8
M0
 62
     2
100
AcDbLine
 10
265.11151
 20
62.40784
 11
265.836609
 21
63.132939
  0
LINE
  5
866
100
AcDbEntity
  8
M0
 62
     2
100
AcDbLine
 10
265.111474
 20
62.408791
 11
265.835658
 21
63.132975
  0
LINE
  5
867
100
AcDbEntity
  8
M0
 62
     2
100
AcDbLine
 10
265.111439
 20
62.409744
 11
265.834705
 21
63.13301
  0
LINE
  5
868
100
AcDbEntity
  8
M0
 62
     2
100
AcDbLine
 10
265.111405
 20
62.410697
 11
265.833751
 21
63.133044
  0
LINE
  5
869
100
AcDbEntity
  8
M0
 62
     2
100
AcDbLine
 10
265.111372
 20
62.411652
 11
265.832796
 21
63.133077
  0
LINE
  5
86A
100
AcDbEntity
  8
M0
 62
     2
100
AcDbLine
 10
265.11134
 20
62.412609
 11
265.83184
 21
63.133108
  0
LINE
  5
86B
100
AcDbEntity
  8
M0
 62
     2
100
AcDbLine
 10
265.11131
 20
62.413566
 11
265.830883
 21
63.133139
  0
LINE
  5
86C
100
AcDbEntity
  8
M0
 62
     2
100
AcDbLine
 10
265.111281
 20
62.414525
 11
265.829924
 21
63.133167
  0
LINE
  5
86D
100
AcDbEntity
  8
M0
 62
     2
100
AcDbLine
 10
265.111254
 20
62.415485
 11
265.828964
 21
63.133195
  0
LINE
  5
86E
100
AcDbEntity
  8
M0
 62
     2
100
AcDbLine
 10
265.111228
 20
62.416446
 11
265.828002
 21
63.133221
  0
LINE
  5
86F
100
AcDbEntity
  8
M0
 62
     2
100
AcDbLine
 10
265.111203
 20
62.417409
 11
265.82704
 21
63.133246
  0
LINE
  5
870
100
AcDbEntity
  8
M0
 62
     2
100
AcDbLine
 10
265.111179
 20
62.418373
 11
265.826076
 21
63.13327
  0
LINE
  5
871
100
AcDbEntity
  8
M0
 62
     2
100
AcDbLine
 10
265.111156
 20
62.419338
 11
265.82511
 21
63.133292
  0
LINE
  5
872
100
AcDbEntity
  8
M0
 62
     2
100
AcDbLine
 10
265.111135
 20
62.420305
 11
265.824144
 21
63.133314
  0
LINE
  5
873
100
AcDbEntity
  8
M0
 62
     2
100
AcDbLine
 10
265.111115
 20
62.421273
 11
265.823176
 21
63.133333
  0
LINE
  5
874
100
AcDbEntity
  8
M0
 62
     2
100
AcDbLine
 10
265.111097
 20
62.422242
 11
265.822207
 21
63.133352
  0
LINE
  5
875
100
AcDbEntity
  8
M0
 62
     2
100
AcDbLine
 10
265.11108
 20
62.423213
 11
265.821236
 21
63.133369
  0
LINE
  5
876
100
AcDbEntity
  8
M0
 62
     2
100
AcDbLine
 10
265.111064
 20
62.424184
 11
265.820264
 21
63.133385
  0
LINE
  5
877
100
AcDbEntity
  8
M0
 62
     2
100
AcDbLine
 10
265.11105
 20
62.425158
 11
265.819291
 21
63.133399
  0
LINE
  5
878
100
AcDbEntity
  8
M0
 62
     2
100
AcDbLine
 10
265.111036
 20
62.426132
 11
265.818317
 21
63.133412
  0
LINE
  5
879
100
AcDbEntity
  8
M0
 62
     2
100
AcDbLine
 10
265.111025
 20
62.427108
 11
265.817341
 21
63.133424
  0
LINE
  5
87A
100
AcDbEntity
  8
M0
 62
     2
100
AcDbLine
 10
265.111014
 20
62.428085
 11
265.816364
 21
63.133435
  0
LINE
  5
87B
100
AcDbEntity
  8
M0
 62
     2
100
AcDbLine
 10
265.111005
 20
62.429064
 11
265.815385
 21
63.133444
  0
LINE
  5
87C
100
AcDbEntity
  8
M0
 62
     2
100
AcDbLine
 10
265.110997
 20
62.430044
 11
265.814405
 21
63.133452
  0
LINE
  5
87D
100
AcDbEntity
  8
M0
 62
     2
100
AcDbLine
 10
265.110991
 20
62.431025
 11
265.813424
 21
63.133458
  0
LINE
  5
87E
100
AcDbEntity
  8
M0
 62
     2
100
AcDbLine
 10
265.110986
 20
62.432008
 11
265.812441
 21
63.133463
  0
LINE
  5
87F
100
AcDbEntity
  8
M0
 62
     2
100
AcDbLine
 10
265.110982
 20
62.432992
 11
265.811457
 21
63.133467
  0
LINE
  5
880
100
AcDbEntity
  8
M0
 62
     2
100
AcDbLine
 10
265.11098
 20
62.433977
 11
265.810471
 21
63.133469
  0
LINE
  5
881
100
AcDbEntity
  8
M0
 62
     2
100
AcDbLine
 10
265.110979
 20
62.434964
 11
265.809485
 21
63.13347
  0
LINE
  5
882
100
AcDbEntity
  8
M0
 62
     2
100
AcDbLine
 10
265.11098
 20
62.435952
 11
265.808496
 21
63.133469
  0
LINE
  5
883
100
AcDbEntity
  8
M0
 62
     2
100
AcDbLine
 10
265.110982
 20
62.436942
 11
265.807507
 21
63.133467
  0
LINE
  5
884
100
AcDbEntity
  8
M0
 62
     2
100
AcDbLine
 10
265.110985
 20
62.437933
 11
265.806516
 21
63.133464
  0
LINE
  5
885
100
AcDbEntity
  8
M0
 62
     2
100
AcDbLine
 10
265.11099
 20
62.438926
 11
265.805523
 21
63.133459
  0
LINE
  5
886
100
AcDbEntity
  8
M0
 62
     2
100
AcDbLine
 10
265.110996
 20
62.439919
 11
265.804529
 21
63.133453
  0
LINE
  5
887
100
AcDbEntity
  8
M0
 62
     2
100
AcDbLine
 10
265.111004
 20
62.440915
 11
265.803534
 21
63.133445
  0
LINE
  5
888
100
AcDbEntity
  8
M0
 62
     2
100
AcDbLine
 10
265.111013
 20
62.441911
 11
265.802537
 21
63.133436
  0
LINE
  5
889
100
AcDbEntity
  8
M0
 62
     2
100
AcDbLine
 10
265.111023
 20
62.44291
 11
265.801539
 21
63.133426
  0
LINE
  5
88A
100
AcDbEntity
  8
M0
 62
     2
100
AcDbLine
 10
265.111035
 20
62.443909
 11
265.80054
 21
63.133414
  0
LINE
  5
88B
100
AcDbEntity
  8
M0
 62
     2
100
AcDbLine
 10
265.111049
 20
62.44491
 11
265.799538
 21
63.1334
  0
LINE
  5
88C
100
AcDbEntity
  8
M0
 62
     2
100
AcDbLine
 10
265.111063
 20
62.445913
 11
265.798536
 21
63.133385
  0
LINE
  5
88D
100
AcDbEntity
  8
M0
 62
     2
100
AcDbLine
 10
265.11108
 20
62.446917
 11
265.797532
 21
63.133369
  0
LINE
  5
88E
100
AcDbEntity
  8
M0
 62
     2
100
AcDbLine
 10
265.111097
 20
62.447922
 11
265.796526
 21
63.133351
  0
LINE
  5
88F
100
AcDbEntity
  8
M0
 62
     2
100
AcDbLine
 10
265.111117
 20
62.448929
 11
265.795519
 21
63.133332
  0
LINE
  5
890
100
AcDbEntity
  8
M0
 62
     2
100
AcDbLine
 10
265.111137
 20
62.449938
 11
265.794511
 21
63.133311
  0
LINE
  5
891
100
AcDbEntity
  8
M0
 62
     2
100
AcDbLine
 10
265.11116
 20
62.450948
 11
265.793501
 21
63.133289
  0
LINE
  5
892
100
AcDbEntity
  8
M0
 62
     2
100
AcDbLine
 10
265.111183
 20
62.451959
 11
265.79249
 21
63.133265
  0
LINE
  5
893
100
AcDbEntity
  8
M0
 62
     2
100
AcDbLine
 10
265.111209
 20
62.452972
 11
265.791477
 21
63.13324
  0
LINE
  5
894
100
AcDbEntity
  8
M0
 62
     2
100
AcDbLine
 10
265.111235
 20
62.453986
 11
265.790462
 21
63.133213
  0
LINE
  5
895
100
AcDbEntity
  8
M0
 62
     2
100
AcDbLine
 10
265.111264
 20
62.455002
 11
265.789446
 21
63.133185
  0
LINE
  5
896
100
AcDbEntity
  8
M0
 62
     2
100
AcDbLine
 10
265.111293
 20
62.45602
 11
265.788429
 21
63.133155
  0
LINE
  5
897
100
AcDbEntity
  8
M0
 62
     2
100
AcDbLine
 10
265.111325
 20
62.457039
 11
265.78741
 21
63.133124
  0
LINE
  5
898
100
AcDbEntity
  8
M0
 62
     2
100
AcDbLine
 10
265.111358
 20
62.458059
 11
265.786389
 21
63.133091
  0
LINE
  5
899
100
AcDbEntity
  8
M0
 62
     2
100
AcDbLine
 10
265.111392
 20
62.459082
 11
265.785367
 21
63.133057
  0
LINE
  5
89A
100
AcDbEntity
  8
M0
 62
     2
100
AcDbLine
 10
265.111428
 20
62.460105
 11
265.784344
 21
63.133021
  0
LINE
  5
89B
100
AcDbEntity
  8
M0
 62
     2
100
AcDbLine
 10
265.111466
 20
62.46113
 11
265.783318
 21
63.132983
  0
LINE
  5
89C
100
AcDbEntity
  8
M0
 62
     2
100
AcDbLine
 10
265.111505
 20
62.462157
 11
265.782292
 21
63.132944
  0
LINE
  5
89D
100
AcDbEntity
  8
M0
 62
     2
100
AcDbLine
 10
265.111545
 20
62.463186
 11
265.781263
 21
63.132903
  0
LINE
  5
89E
100
AcDbEntity
  8
M0
 62
     2
100
AcDbLine
 10
265.111588
 20
62.464216
 11
265.780233
 21
63.132861
  0
LINE
  5
89F
100
AcDbEntity
  8
M0
 62
     2
100
AcDbLine
 10
265.111631
 20
62.465247
 11
265.779202
 21
63.132817
  0
LINE
  5
8A0
100
AcDbEntity
  8
M0
 62
     2
100
AcDbLine
 10
265.111677
 20
62.46628
 11
265.778169
 21
63.132772
  0
LINE
  5
8A1
100
AcDbEntity
  8
M0
 62
     2
100
AcDbLine
 10
265.111724
 20
62.467315
 11
265.777134
 21
63.132725
  0
LINE
  5
8A2
100
AcDbEntity
  8
M0
 62
     2
100
AcDbLine
 10
265.111773
 20
62.468351
 11
265.776098
 21
63.132676
  0
LINE
  5
8A3
100
AcDbEntity
  8
M0
 62
     2
100
AcDbLine
 10
265.111823
 20
62.469389
 11
265.77506
 21
63.132626
  0
LINE
  5
8A4
100
AcDbEntity
  8
M0
 62
     2
100
AcDbLine
 10
265.111875
 20
62.470429
 11
265.77402
 21
63.132574
  0
LINE
  5
8A5
100
AcDbEntity
  8
M0
 62
     2
100
AcDbLine
 10
265.111928
 20
62.47147
 11
265.772979
 21
63.13252
  0
LINE
  5
8A6
100
AcDbEntity
  8
M0
 62
     2
100
AcDbLine
 10
265.111984
 20
62.472513
 11
265.771936
 21
63.132465
  0
LINE
  5
8A7
100
AcDbEntity
  8
M0
 62
     2
100
AcDbLine
 10
265.11204
 20
62.473558
 11
265.770891
 21
63.132408
  0
LINE
  5
8A8
100
AcDbEntity
  8
M0
 62
     2
100
AcDbLine
 10
265.112099
 20
62.474604
 11
265.769845
 21
63.13235
  0
LINE
  5
8A9
100
AcDbEntity
  8
M0
 62
     2
100
AcDbLine
 10
265.112159
 20
62.475652
 11
265.768797
 21
63.13229
  0
LINE
  5
8AA
100
AcDbEntity
  8
M0
 62
     2
100
AcDbLine
 10
265.112221
 20
62.476701
 11
265.767748
 21
63.132228
  0
LINE
  5
8AB
100
AcDbEntity
  8
M0
 62
     2
100
AcDbLine
 10
265.112285
 20
62.477753
 11
265.766696
 21
63.132164
  0
LINE
  5
8AC
100
AcDbEntity
  8
M0
 62
     2
100
AcDbLine
 10
265.11235
 20
62.478805
 11
265.765643
 21
63.132099
  0
LINE
  5
8AD
100
AcDbEntity
  8
M0
 62
     2
100
AcDbLine
 10
265.112417
 20
62.47986
 11
265.764589
 21
63.132032
  0
LINE
  5
8AE
100
AcDbEntity
  8
M0
 62
     2
100
AcDbLine
 10
265.112486
 20
62.480917
 11
265.763532
 21
63.131963
  0
LINE
  5
8AF
100
AcDbEntity
  8
M0
 62
     2
100
AcDbLine
 10
265.112556
 20
62.481975
 11
265.762474
 21
63.131893
  0
LINE
  5
8B0
100
AcDbEntity
  8
M0
 62
     2
100
AcDbLine
 10
265.112628
 20
62.483034
 11
265.761414
 21
63.131821
  0
LINE
  5
8B1
100
AcDbEntity
  8
M0
 62
     2
100
AcDbLine
 10
265.112702
 20
62.484096
 11
265.760353
 21
63.131747
  0
LINE
  5
8B2
100
AcDbEntity
  8
M0
 62
     2
100
AcDbLine
 10
265.112778
 20
62.485159
 11
265.759289
 21
63.131671
  0
LINE
  5
8B3
100
AcDbEntity
  8
M0
 62
     2
100
AcDbLine
 10
265.112855
 20
62.486224
 11
265.758224
 21
63.131594
  0
LINE
  5
8B4
100
AcDbEntity
  8
M0
 62
     2
100
AcDbLine
 10
265.112934
 20
62.487291
 11
265.757157
 21
63.131515
  0
LINE
  5
8B5
100
AcDbEntity
  8
M0
 62
     2
100
AcDbLine
 10
265.113015
 20
62.48836
 11
265.756089
 21
63.131434
  0
LINE
  5
8B6
100
AcDbEntity
  8
M0
 62
     2
100
AcDbLine
 10
265.113098
 20
62.48943
 11
265.755018
 21
63.131351
  0
LINE
  5
8B7
100
AcDbEntity
  8
M0
 62
     2
100
AcDbLine
 10
265.113183
 20
62.490503
 11
265.753946
 21
63.131266
  0
LINE
  5
8B8
100
AcDbEntity
  8
M0
 62
     2
100
AcDbLine
 10
265.113269
 20
62.491577
 11
265.752872
 21
63.13118
  0
LINE
  5
8B9
100
AcDbEntity
  8
M0
 62
     2
100
AcDbLine
 10
265.113357
 20
62.492653
 11
265.751796
 21
63.131092
  0
LINE
  5
8BA
100
AcDbEntity
  8
M0
 62
     2
100
AcDbLine
 10
265.113447
 20
62.49373
 11
265.750719
 21
63.131002
  0
LINE
  5
8BB
100
AcDbEntity
  8
M0
 62
     2
100
AcDbLine
 10
265.113539
 20
62.49481
 11
265.749639
 21
63.13091
  0
LINE
  5
8BC
100
AcDbEntity
  8
M0
 62
     2
100
AcDbLine
 10
265.113633
 20
62.495891
 11
265.748558
 21
63.130816
  0
LINE
  5
8BD
100
AcDbEntity
  8
M0
 62
     2
100
AcDbLine
 10
265.113728
 20
62.496974
 11
265.747474
 21
63.130721
  0
LINE
  5
8BE
100
AcDbEntity
  8
M0
 62
     2
100
AcDbLine
 10
265.113826
 20
62.498059
 11
265.746389
 21
63.130623
  0
LINE
  5
8BF
100
AcDbEntity
  8
M0
 62
     2
100
AcDbLine
 10
265.113925
 20
62.499146
 11
265.745302
 21
63.130524
  0
LINE
  5
8C0
100
AcDbEntity
  8
M0
 62
     2
100
AcDbLine
 10
265.114026
 20
62.500235
 11
265.744214
 21
63.130423
  0
LINE
  5
8C1
100
AcDbEntity
  8
M0
 62
     2
100
AcDbLine
 10
265.114129
 20
62.501326
 11
265.743123
 21
63.13032
  0
LINE
  5
8C2
100
AcDbEntity
  8
M0
 62
     2
100
AcDbLine
 10
265.114234
 20
62.502419
 11
265.74203
 21
63.130215
  0
LINE
  5
8C3
100
AcDbEntity
  8
M0
 62
     2
100
AcDbLine
 10
265.114341
 20
62.503513
 11
265.740935
 21
63.130108
  0
LINE
  5
8C4
100
AcDbEntity
  8
M0
 62
     2
100
AcDbLine
 10
265.11445
 20
62.50461
 11
265.739839
 21
63.129999
  0
LINE
  5
8C5
100
AcDbEntity
  8
M0
 62
     2
100
AcDbLine
 10
265.114561
 20
62.505708
 11
265.73874
 21
63.129888
  0
LINE
  5
8C6
100
AcDbEntity
  8
M0
 62
     2
100
AcDbLine
 10
265.114673
 20
62.506809
 11
265.73764
 21
63.129775
  0
LINE
  5
8C7
100
AcDbEntity
  8
M0
 62
     2
100
AcDbLine
 10
265.114788
 20
62.507911
 11
265.736538
 21
63.129661
  0
LINE
  5
8C8
100
AcDbEntity
  8
M0
 62
     2
100
AcDbLine
 10
265.114905
 20
62.509016
 11
265.735433
 21
63.129544
  0
LINE
  5
8C9
100
AcDbEntity
  8
M0
 62
     2
100
AcDbLine
 10
265.115024
 20
62.510122
 11
265.734327
 21
63.129425
  0
LINE
  5
8CA
100
AcDbEntity
  8
M0
 62
     2
100
AcDbLine
 10
265.115144
 20
62.51123
 11
265.733218
 21
63.129305
  0
LINE
  5
8CB
100
AcDbEntity
  8
M0
 62
     2
100
AcDbLine
 10
265.115267
 20
62.512341
 11
265.732108
 21
63.129182
  0
LINE
  5
8CC
100
AcDbEntity
  8
M0
 62
     2
100
AcDbLine
 10
265.115392
 20
62.513453
 11
265.730996
 21
63.129057
  0
LINE
  5
8CD
100
AcDbEntity
  8
M0
 62
     2
100
AcDbLine
 10
265.115519
 20
62.514568
 11
265.729881
 21
63.12893
  0
LINE
  5
8CE
100
AcDbEntity
  8
M0
 62
     2
100
AcDbLine
 10
265.115647
 20
62.515684
 11
265.728765
 21
63.128801
  0
LINE
  5
8CF
100
AcDbEntity
  8
M0
 62
     2
100
AcDbLine
 10
265.115778
 20
62.516803
 11
265.727646
 21
63.128671
  0
LINE
  5
8D0
100
AcDbEntity
  8
M0
 62
     2
100
AcDbLine
 10
265.115911
 20
62.517923
 11
265.726525
 21
63.128538
  0
LINE
  5
8D1
100
AcDbEntity
  8
M0
 62
     2
100
AcDbLine
 10
265.116046
 20
62.519046
 11
265.725403
 21
63.128403
  0
LINE
  5
8D2
100
AcDbEntity
  8
M0
 62
     2
100
AcDbLine
 10
265.116183
 20
62.520171
 11
265.724278
 21
63.128265
  0
LINE
  5
8D3
100
AcDbEntity
  8
M0
 62
     2
100
AcDbLine
 10
265.116323
 20
62.521298
 11
265.723151
 21
63.128126
  0
LINE
  5
8D4
100
AcDbEntity
  8
M0
 62
     2
100
AcDbLine
 10
265.116464
 20
62.522427
 11
265.722022
 21
63.127985
  0
LINE
  5
8D5
100
AcDbEntity
  8
M0
 62
     2
100
AcDbLine
 10
265.116608
 20
62.523558
 11
265.72089
 21
63.127841
  0
LINE
  5
8D6
100
AcDbEntity
  8
M0
 62
     2
100
AcDbLine
 10
265.116753
 20
62.524692
 11
265.719757
 21
63.127695
  0
LINE
  5
8D7
100
AcDbEntity
  8
M0
 62
     2
100
AcDbLine
 10
265.116901
 20
62.525827
 11
265.718621
 21
63.127548
  0
LINE
  5
8D8
100
AcDbEntity
  8
M0
 62
     2
100
AcDbLine
 10
265.117051
 20
62.526965
 11
265.717484
 21
63.127397
  0
LINE
  5
8D9
100
AcDbEntity
  8
M0
 62
     2
100
AcDbLine
 10
265.117204
 20
62.528105
 11
265.716344
 21
63.127245
  0
LINE
  5
8DA
100
AcDbEntity
  8
M0
 62
     2
100
AcDbLine
 10
265.117358
 20
62.529247
 11
265.715202
 21
63.127091
  0
LINE
  5
8DB
100
AcDbEntity
  8
M0
 62
     2
100
AcDbLine
 10
265.117515
 20
62.530392
 11
265.714057
 21
63.126934
  0
LINE
  5
8DC
100
AcDbEntity
  8
M0
 62
     2
100
AcDbLine
 10
265.117674
 20
62.531538
 11
265.712911
 21
63.126775
  0
LINE
  5
8DD
100
AcDbEntity
  8
M0
 62
     2
100
AcDbLine
 10
265.117835
 20
62.532687
 11
265.711762
 21
63.126614
  0
LINE
  5
8DE
100
AcDbEntity
  8
M0
 62
     2
100
AcDbLine
 10
265.117998
 20
62.533838
 11
265.710611
 21
63.12645
  0
LINE
  5
8DF
100
AcDbEntity
  8
M0
 62
     2
100
AcDbLine
 10
265.118164
 20
62.534992
 11
265.709457
 21
63.126285
  0
LINE
  5
8E0
100
AcDbEntity
  8
M0
 62
     2
100
AcDbLine
 10
265.118332
 20
62.536148
 11
265.708301
 21
63.126117
  0
LINE
  5
8E1
100
AcDbEntity
  8
M0
 62
     2
100
AcDbLine
 10
265.118503
 20
62.537306
 11
265.707143
 21
63.125946
  0
LINE
  5
8E2
100
AcDbEntity
  8
M0
 62
     2
100
AcDbLine
 10
265.118675
 20
62.538466
 11
265.705983
 21
63.125773
  0
LINE
  5
8E3
100
AcDbEntity
  8
M0
 62
     2
100
AcDbLine
 10
265.11885
 20
62.539629
 11
265.70482
 21
63.125598
  0
LINE
  5
8E4
100
AcDbEntity
  8
M0
 62
     2
100
AcDbLine
 10
265.119028
 20
62.540794
 11
265.703655
 21
63.125421
  0
LINE
  5
8E5
100
AcDbEntity
  8
M0
 62
     2
100
AcDbLine
 10
265.119208
 20
62.541961
 11
265.702487
 21
63.125241
  0
LINE
  5
8E6
100
AcDbEntity
  8
M0
 62
     2
100
AcDbLine
 10
265.11939
 20
62.543131
 11
265.701318
 21
63.125059
  0
LINE
  5
8E7
100
AcDbEntity
  8
M0
 62
     2
100
AcDbLine
 10
265.119574
 20
62.544304
 11
265.700145
 21
63.124874
  0
LINE
  5
8E8
100
AcDbEntity
  8
M0
 62
     2
100
AcDbLine
 10
265.119762
 20
62.545478
 11
265.698971
 21
63.124687
  0
LINE
  5
8E9
100
AcDbEntity
  8
M0
 62
     2
100
AcDbLine
 10
265.119951
 20
62.546655
 11
265.697793
 21
63.124498
  0
LINE
  5
8EA
100
AcDbEntity
  8
M0
 62
     2
100
AcDbLine
 10
265.120143
 20
62.547835
 11
265.696614
 21
63.124306
  0
LINE
  5
8EB
100
AcDbEntity
  8
M0
 62
     2
100
AcDbLine
 10
265.120337
 20
62.549017
 11
265.695432
 21
63.124111
  0
LINE
  5
8EC
100
AcDbEntity
  8
M0
 62
     2
100
AcDbLine
 10
265.120534
 20
62.550202
 11
265.694247
 21
63.123914
  0
LINE
  5
8ED
100
AcDbEntity
  8
M0
 62
     2
100
AcDbLine
 10
265.120734
 20
62.551389
 11
265.69306
 21
63.123715
  0
LINE
  5
8EE
100
AcDbEntity
  8
M0
 62
     2
100
AcDbLine
 10
265.120936
 20
62.552579
 11
265.69187
 21
63.123513
  0
LINE
  5
8EF
100
AcDbEntity
  8
M0
 62
     2
100
AcDbLine
 10
265.12114
 20
62.553771
 11
265.690678
 21
63.123308
  0
LINE
  5
8F0
100
AcDbEntity
  8
M0
 62
     2
100
AcDbLine
 10
265.121348
 20
62.554966
 11
265.689483
 21
63.123101
  0
LINE
  5
8F1
100
AcDbEntity
  8
M0
 62
     2
100
AcDbLine
 10
265.121557
 20
62.556163
 11
265.688286
 21
63.122891
  0
LINE
  5
8F2
100
AcDbEntity
  8
M0
 62
     2
100
AcDbLine
 10
265.12177
 20
62.557363
 11
265.687086
 21
63.122679
  0
LINE
  5
8F3
100
AcDbEntity
  8
M0
 62
     2
100
AcDbLine
 10
265.121985
 20
62.558566
 11
265.685883
 21
63.122464
  0
LINE
  5
8F4
100
AcDbEntity
  8
M0
 62
     2
100
AcDbLine
 10
265.122202
 20
62.559771
 11
265.684678
 21
63.122247
  0
LINE
  5
8F5
100
AcDbEntity
  8
M0
 62
     2
100
AcDbLine
 10
265.122423
 20
62.560979
 11
265.68347
 21
63.122026
  0
LINE
  5
8F6
100
AcDbEntity
  8
M0
 62
     2
100
AcDbLine
 10
265.122646
 20
62.56219
 11
265.682259
 21
63.121803
  0
LINE
  5
8F7
100
AcDbEntity
  8
M0
 62
     2
100
AcDbLine
 10
265.122871
 20
62.563403
 11
265.681045
 21
63.121577
  0
LINE
  5
8F8
100
AcDbEntity
  8
M0
 62
     2
100
AcDbLine
 10
265.1231
 20
62.56462
 11
265.679829
 21
63.121349
  0
LINE
  5
8F9
100
AcDbEntity
  8
M0
 62
     2
100
AcDbLine
 10
265.123331
 20
62.565838
 11
265.67861
 21
63.121118
  0
LINE
  5
8FA
100
AcDbEntity
  8
M0
 62
     2
100
AcDbLine
 10
265.123565
 20
62.56706
 11
265.677389
 21
63.120884
  0
LINE
  5
8FB
100
AcDbEntity
  8
M0
 62
     2
100
AcDbLine
 10
265.123802
 20
62.568285
 11
265.676164
 21
63.120647
  0
LINE
  5
8FC
100
AcDbEntity
  8
M0
 62
     2
100
AcDbLine
 10
265.124041
 20
62.569512
 11
265.674937
 21
63.120407
  0
LINE
  5
8FD
100
AcDbEntity
  8
M0
 62
     2
100
AcDbLine
 10
265.124284
 20
62.570742
 11
265.673707
 21
63.120165
  0
LINE
  5
8FE
100
AcDbEntity
  8
M0
 62
     2
100
AcDbLine
 10
265.124529
 20
62.571975
 11
265.672474
 21
63.11992
  0
LINE
  5
8FF
100
AcDbEntity
  8
M0
 62
     2
100
AcDbLine
 10
265.124777
 20
62.573211
 11
265.671238
 21
63.119671
  0
LINE
  5
900
100
AcDbEntity
  8
M0
 62
     2
100
AcDbLine
 10
265.125029
 20
62.57445
 11
265.669999
 21
63.11942
  0
LINE
  5
901
100
AcDbEntity
  8
M0
 62
     2
100
AcDbLine
 10
265.125283
 20
62.575692
 11
265.668757
 21
63.119166
  0
LINE
  5
902
100
AcDbEntity
  8
M0
 62
     2
100
AcDbLine
 10
265.12554
 20
62.576936
 11
265.667513
 21
63.118909
  0
LINE
  5
903
100
AcDbEntity
  8
M0
 62
     2
100
AcDbLine
 10
265.1258
 20
62.578184
 11
265.666265
 21
63.118649
  0
LINE
  5
904
100
AcDbEntity
  8
M0
 62
     2
100
AcDbLine
 10
265.126063
 20
62.579435
 11
265.665014
 21
63.118386
  0
LINE
  5
905
100
AcDbEntity
  8
M0
 62
     2
100
AcDbLine
 10
265.126329
 20
62.580689
 11
265.66376
 21
63.11812
  0
LINE
  5
906
100
AcDbEntity
  8
M0
 62
     2
100
AcDbLine
 10
265.126598
 20
62.581945
 11
265.662503
 21
63.117851
  0
LINE
  5
907
100
AcDbEntity
  8
M0
 62
     2
100
AcDbLine
 10
265.12687
 20
62.583205
 11
265.661244
 21
63.117579
  0
LINE
  5
908
100
AcDbEntity
  8
M0
 62
     2
100
AcDbLine
 10
265.127146
 20
62.584468
 11
265.65998
 21
63.117303
  0
LINE
  5
909
100
AcDbEntity
  8
M0
 62
     2
100
AcDbLine
 10
265.127424
 20
62.585735
 11
265.658714
 21
63.117025
  0
LINE
  5
90A
100
AcDbEntity
  8
M0
 62
     2
100
AcDbLine
 10
265.127706
 20
62.587004
 11
265.657445
 21
63.116743
  0
LINE
  5
90B
100
AcDbEntity
  8
M0
 62
     2
100
AcDbLine
 10
265.127991
 20
62.588276
 11
265.656172
 21
63.116458
  0
LINE
  5
90C
100
AcDbEntity
  8
M0
 62
     2
100
AcDbLine
 10
265.128279
 20
62.589552
 11
265.654897
 21
63.11617
  0
LINE
  5
90D
100
AcDbEntity
  8
M0
 62
     2
100
AcDbLine
 10
265.12857
 20
62.590831
 11
265.653617
 21
63.115879
  0
LINE
  5
90E
100
AcDbEntity
  8
M0
 62
     2
100
AcDbLine
 10
265.128865
 20
62.592114
 11
265.652335
 21
63.115584
  0
LINE
  5
90F
100
AcDbEntity
  8
M0
 62
     2
100
AcDbLine
 10
265.129163
 20
62.593399
 11
265.651049
 21
63.115286
  0
LINE
  5
910
100
AcDbEntity
  8
M0
 62
     2
100
AcDbLine
 10
265.129464
 20
62.594688
 11
265.64976
 21
63.114985
  0
LINE
  5
911
100
AcDbEntity
  8
M0
 62
     2
100
AcDbLine
 10
265.129769
 20
62.595981
 11
265.648468
 21
63.11468
  0
LINE
  5
912
100
AcDbEntity
  8
M0
 62
     2
100
AcDbLine
 10
265.130077
 20
62.597277
 11
265.647172
 21
63.114372
  0
LINE
  5
913
100
AcDbEntity
  8
M0
 62
     2
100
AcDbLine
 10
265.130389
 20
62.598576
 11
265.645873
 21
63.11406
  0
LINE
  5
914
100
AcDbEntity
  8
M0
 62
     2
100
AcDbLine
 10
265.130704
 20
62.599879
 11
265.64457
 21
63.113745
  0
LINE
  5
915
100
AcDbEntity
  8
M0
 62
     2
100
AcDbLine
 10
265.131022
 20
62.601185
 11
265.643264
 21
63.113427
  0
LINE
  5
916
100
AcDbEntity
  8
M0
 62
     2
100
AcDbLine
 10
265.131344
 20
62.602494
 11
265.641954
 21
63.113105
  0
LINE
  5
917
100
AcDbEntity
  8
M0
 62
     2
100
AcDbLine
 10
265.13167
 20
62.603808
 11
265.640641
 21
63.112779
  0
LINE
  5
918
100
AcDbEntity
  8
M0
 62
     2
100
AcDbLine
 10
265.131999
 20
62.605125
 11
265.639324
 21
63.11245
  0
LINE
  5
919
100
AcDbEntity
  8
M0
 62
     2
100
AcDbLine
 10
265.132332
 20
62.606445
 11
265.638003
 21
63.112117
  0
LINE
  5
91A
100
AcDbEntity
  8
M0
 62
     2
100
AcDbLine
 10
265.132669
 20
62.60777
 11
265.636679
 21
63.11178
  0
LINE
  5
91B
100
AcDbEntity
  8
M0
 62
     2
100
AcDbLine
 10
265.133009
 20
62.609098
 11
265.635351
 21
63.11144
  0
LINE
  5
91C
100
AcDbEntity
  8
M0
 62
     2
100
AcDbLine
 10
265.133353
 20
62.610429
 11
265.634019
 21
63.111096
  0
LINE
  5
91D
100
AcDbEntity
  8
M0
 62
     2
100
AcDbLine
 10
265.133701
 20
62.611765
 11
265.632684
 21
63.110748
  0
LINE
  5
91E
100
AcDbEntity
  8
M0
 62
     2
100
AcDbLine
 10
265.134052
 20
62.613104
 11
265.631345
 21
63.110396
  0
LINE
  5
91F
100
AcDbEntity
  8
M0
 62
     2
100
AcDbLine
 10
265.134408
 20
62.614447
 11
265.630001
 21
63.110041
  0
LINE
  5
920
100
AcDbEntity
  8
M0
 62
     2
100
AcDbLine
 10
265.134767
 20
62.615795
 11
265.628654
 21
63.109681
  0
LINE
  5
921
100
AcDbEntity
  8
M0
 62
     2
100
AcDbLine
 10
265.135131
 20
62.617146
 11
265.627303
 21
63.109318
  0
LINE
  5
922
100
AcDbEntity
  8
M0
 62
     2
100
AcDbLine
 10
265.135498
 20
62.618501
 11
265.625948
 21
63.108951
  0
LINE
  5
923
100
AcDbEntity
  8
M0
 62
     2
100
AcDbLine
 10
265.13587
 20
62.61986
 11
265.624589
 21
63.108579
  0
LINE
  5
924
100
AcDbEntity
  8
M0
 62
     2
100
AcDbLine
 10
265.136245
 20
62.621223
 11
265.623226
 21
63.108204
  0
LINE
  5
925
100
AcDbEntity
  8
M0
 62
     2
100
AcDbLine
 10
265.136625
 20
62.62259
 11
265.621858
 21
63.107824
  0
LINE
  5
926
100
AcDbEntity
  8
M0
 62
     2
100
AcDbLine
 10
265.137009
 20
62.623962
 11
265.620487
 21
63.10744
  0
LINE
  5
927
100
AcDbEntity
  8
M0
 62
     2
100
AcDbLine
 10
265.137397
 20
62.625338
 11
265.619111
 21
63.107052
  0
LINE
  5
928
100
AcDbEntity
  8
M0
 62
     2
100
AcDbLine
 10
265.137789
 20
62.626717
 11
265.617731
 21
63.10666
  0
LINE
  5
929
100
AcDbEntity
  8
M0
 62
     2
100
AcDbLine
 10
265.138185
 20
62.628102
 11
265.616347
 21
63.106263
  0
LINE
  5
92A
100
AcDbEntity
  8
M0
 62
     2
100
AcDbLine
 10
265.138586
 20
62.62949
 11
265.614959
 21
63.105863
  0
LINE
  5
92B
100
AcDbEntity
  8
M0
 62
     2
100
AcDbLine
 10
265.138992
 20
62.630883
 11
265.613566
 21
63.105457
  0
LINE
  5
92C
100
AcDbEntity
  8
M0
 62
     2
100
AcDbLine
 10
265.139401
 20
62.632281
 11
265.612168
 21
63.105048
  0
LINE
  5
92D
100
AcDbEntity
  8
M0
 62
     2
100
AcDbLine
 10
265.139816
 20
62.633683
 11
265.610766
 21
63.104633
  0
LINE
  5
92E
100
AcDbEntity
  8
M0
 62
     2
100
AcDbLine
 10
265.140234
 20
62.635089
 11
265.60936
 21
63.104214
  0
LINE
  5
92F
100
AcDbEntity
  8
M0
 62
     2
100
AcDbLine
 10
265.140658
 20
62.6365
 11
265.607948
 21
63.103791
  0
LINE
  5
930
100
AcDbEntity
  8
M0
 62
     2
100
AcDbLine
 10
265.141086
 20
62.637916
 11
265.606533
 21
63.103363
  0
LINE
  5
931
100
AcDbEntity
  8
M0
 62
     2
100
AcDbLine
 10
265.141519
 20
62.639337
 11
265.605112
 21
63.10293
  0
LINE
  5
932
100
AcDbEntity
  8
M0
 62
     2
100
AcDbLine
 10
265.141956
 20
62.640762
 11
265.603687
 21
63.102492
  0
LINE
  5
933
100
AcDbEntity
  8
M0
 62
     2
100
AcDbLine
 10
265.142399
 20
62.642192
 11
265.602257
 21
63.10205
  0
LINE
  5
934
100
AcDbEntity
  8
M0
 62
     2
100
AcDbLine
 10
265.142846
 20
62.643627
 11
265.600822
 21
63.101603
  0
LINE
  5
935
100
AcDbEntity
  8
M0
 62
     2
100
AcDbLine
 10
265.143298
 20
62.645067
 11
265.599382
 21
63.10115
  0
LINE
  5
936
100
AcDbEntity
  8
M0
 62
     2
100
AcDbLine
 10
265.143756
 20
62.646512
 11
265.597937
 21
63.100693
  0
LINE
  5
937
100
AcDbEntity
  8
M0
 62
     2
100
AcDbLine
 10
265.144218
 20
62.647962
 11
265.596487
 21
63.100231
  0
LINE
  5
938
100
AcDbEntity
  8
M0
 62
     2
100
AcDbLine
 10
265.144685
 20
62.649417
 11
265.595032
 21
63.099763
  0
LINE
  5
939
100
AcDbEntity
  8
M0
 62
     2
100
AcDbLine
 10
265.145158
 20
62.650878
 11
265.593571
 21
63.099291
  0
LINE
  5
93A
100
AcDbEntity
  8
M0
 62
     2
100
AcDbLine
 10
265.145636
 20
62.652343
 11
265.592106
 21
63.098813
  0
LINE
  5
93B
100
AcDbEntity
  8
M0
 62
     2
100
AcDbLine
 10
265.14612
 20
62.653814
 11
265.590635
 21
63.098329
  0
LINE
  5
93C
100
AcDbEntity
  8
M0
 62
     2
100
AcDbLine
 10
265.146608
 20
62.655291
 11
265.589158
 21
63.097841
  0
LINE
  5
93D
100
AcDbEntity
  8
M0
 62
     2
100
AcDbLine
 10
265.147103
 20
62.656773
 11
265.587676
 21
63.097346
  0
LINE
  5
93E
100
AcDbEntity
  8
M0
 62
     2
100
AcDbLine
 10
265.147602
 20
62.65826
 11
265.586189
 21
63.096846
  0
LINE
  5
93F
100
AcDbEntity
  8
M0
 62
     2
100
AcDbLine
 10
265.148108
 20
62.659753
 11
265.584696
 21
63.096341
  0
LINE
  5
940
100
AcDbEntity
  8
M0
 62
     2
100
AcDbLine
 10
265.148619
 20
62.661252
 11
265.583197
 21
63.09583
  0
LINE
  5
941
100
AcDbEntity
  8
M0
 62
     2
100
AcDbLine
 10
265.149136
 20
62.662757
 11
265.581692
 21
63.095313
  0
LINE
  5
942
100
AcDbEntity
  8
M0
 62
     2
100
AcDbLine
 10
265.149659
 20
62.664267
 11
265.580181
 21
63.09479
  0
LINE
  5
943
100
AcDbEntity
  8
M0
 62
     2
100
AcDbLine
 10
265.150188
 20
62.665784
 11
265.578665
 21
63.094261
  0
LINE
  5
944
100
AcDbEntity
  8
M0
 62
     2
100
AcDbLine
 10
265.150722
 20
62.667306
 11
265.577142
 21
63.093726
  0
LINE
  5
945
100
AcDbEntity
  8
M0
 62
     2
100
AcDbLine
 10
265.151263
 20
62.668835
 11
265.575614
 21
63.093185
  0
LINE
  5
946
100
AcDbEntity
  8
M0
 62
     2
100
AcDbLine
 10
265.151811
 20
62.67037
 11
265.574079
 21
63.092638
  0
LINE
  5
947
100
AcDbEntity
  8
M0
 62
     2
100
AcDbLine
 10
265.152364
 20
62.671911
 11
265.572538
 21
63.092085
  0
LINE
  5
948
100
AcDbEntity
  8
M0
 62
     2
100
AcDbLine
 10
265.152924
 20
62.673459
 11
265.57099
 21
63.091525
  0
LINE
  5
949
100
AcDbEntity
  8
M0
 62
     2
100
AcDbLine
 10
265.153491
 20
62.675013
 11
265.569436
 21
63.090958
  0
LINE
  5
94A
100
AcDbEntity
  8
M0
 62
     2
100
AcDbLine
 10
265.154064
 20
62.676574
 11
265.567875
 21
63.090385
  0
LINE
  5
94B
100
AcDbEntity
  8
M0
 62
     2
100
AcDbLine
 10
265.154644
 20
62.678141
 11
265.566308
 21
63.089805
  0
LINE
  5
94C
100
AcDbEntity
  8
M0
 62
     2
100
AcDbLine
 10
265.15523
 20
62.679716
 11
265.564733
 21
63.089219
  0
LINE
  5
94D
100
AcDbEntity
  8
M0
 62
     2
100
AcDbLine
 10
265.155824
 20
62.681297
 11
265.563152
 21
63.088625
  0
LINE
  5
94E
100
AcDbEntity
  8
M0
 62
     2
100
AcDbLine
 10
265.156424
 20
62.682885
 11
265.561564
 21
63.088025
  0
LINE
  5
94F
100
AcDbEntity
  8
M0
 62
     2
100
AcDbLine
 10
265.157032
 20
62.684481
 11
265.559968
 21
63.087417
  0
LINE
  5
950
100
AcDbEntity
  8
M0
 62
     2
100
AcDbLine
 10
265.157647
 20
62.686083
 11
265.558366
 21
63.086802
  0
LINE
  5
951
100
AcDbEntity
  8
M0
 62
     2
100
AcDbLine
 10
265.158269
 20
62.687693
 11
265.556755
 21
63.086179
  0
LINE
  5
952
100
AcDbEntity
  8
M0
 62
     2
100
AcDbLine
 10
265.158899
 20
62.689311
 11
265.555138
 21
63.085549
  0
LINE
  5
953
100
AcDbEntity
  8
M0
 62
     2
100
AcDbLine
 10
265.159537
 20
62.690936
 11
265.553513
 21
63.084912
  0
LINE
  5
954
100
AcDbEntity
  8
M0
 62
     2
100
AcDbLine
 10
265.160182
 20
62.692569
 11
265.55188
 21
63.084266
  0
LINE
  5
955
100
AcDbEntity
  8
M0
 62
     2
100
AcDbLine
 10
265.160836
 20
62.69421
 11
265.550239
 21
63.083613
  0
LINE
  5
956
100
AcDbEntity
  8
M0
 62
     2
100
AcDbLine
 10
265.161497
 20
62.695859
 11
265.54859
 21
63.082952
  0
LINE
  5
957
100
AcDbEntity
  8
M0
 62
     2
100
AcDbLine
 10
265.162167
 20
62.697516
 11
265.546932
 21
63.082282
  0
LINE
  5
958
100
AcDbEntity
  8
M0
 62
     2
100
AcDbLine
 10
265.162844
 20
62.699182
 11
265.545267
 21
63.081604
  0
LINE
  5
959
100
AcDbEntity
  8
M0
 62
     2
100
AcDbLine
 10
265.163531
 20
62.700856
 11
265.543593
 21
63.080918
  0
LINE
  5
95A
100
AcDbEntity
  8
M0
 62
     2
100
AcDbLine
 10
265.164226
 20
62.702539
 11
265.54191
 21
63.080223
  0
LINE
  5
95B
100
AcDbEntity
  8
M0
 62
     2
100
AcDbLine
 10
265.16493
 20
62.704231
 11
265.540218
 21
63.079519
  0
LINE
  5
95C
100
AcDbEntity
  8
M0
 62
     2
100
AcDbLine
 10
265.165643
 20
62.705931
 11
265.538518
 21
63.078806
  0
LINE
  5
95D
100
AcDbEntity
  8
M0
 62
     2
100
AcDbLine
 10
265.166365
 20
62.707641
 11
265.536808
 21
63.078084
  0
LINE
  5
95E
100
AcDbEntity
  8
M0
 62
     2
100
AcDbLine
 10
265.167096
 20
62.70936
 11
265.535089
 21
63.077353
  0
LINE
  5
95F
100
AcDbEntity
  8
M0
 62
     2
100
AcDbLine
 10
265.167837
 20
62.711089
 11
265.53336
 21
63.076612
  0
LINE
  5
960
100
AcDbEntity
  8
M0
 62
     2
100
AcDbLine
 10
265.168588
 20
62.712827
 11
265.531622
 21
63.075861
  0
LINE
  5
961
100
AcDbEntity
  8
M0
 62
     2
100
AcDbLine
 10
265.169349
 20
62.714576
 11
265.529873
 21
63.0751
  0
LINE
  5
962
100
AcDbEntity
  8
M0
 62
     2
100
AcDbLine
 10
265.17012
 20
62.716334
 11
265.528115
 21
63.074329
  0
LINE
  5
963
100
AcDbEntity
  8
M0
 62
     2
100
AcDbLine
 10
265.170901
 20
62.718103
 11
265.526346
 21
63.073548
  0
LINE
  5
964
100
AcDbEntity
  8
M0
 62
     2
100
AcDbLine
 10
265.171693
 20
62.719882
 11
265.524566
 21
63.072756
  0
LINE
  5
965
100
AcDbEntity
  8
M0
 62
     2
100
AcDbLine
 10
265.172495
 20
62.721673
 11
265.522776
 21
63.071954
  0
LINE
  5
966
100
AcDbEntity
  8
M0
 62
     2
100
AcDbLine
 10
265.173309
 20
62.723474
 11
265.520975
 21
63.07114
  0
LINE
  5
967
100
AcDbEntity
  8
M0
 62
     2
100
AcDbLine
 10
265.174134
 20
62.725287
 11
265.519162
 21
63.070315
  0
LINE
  5
968
100
AcDbEntity
  8
M0
 62
     2
100
AcDbLine
 10
265.174971
 20
62.727111
 11
265.517338
 21
63.069478
  0
LINE
  5
969
100
AcDbEntity
  8
M0
 62
     2
100
AcDbLine
 10
265.175819
 20
62.728947
 11
265.515501
 21
63.06863
  0
LINE
  5
96A
100
AcDbEntity
  8
M0
 62
     2
100
AcDbLine
 10
265.17668
 20
62.730796
 11
265.513653
 21
63.067769
  0
LINE
  5
96B
100
AcDbEntity
  8
M0
 62
     2
100
AcDbLine
 10
265.177553
 20
62.732656
 11
265.511792
 21
63.066896
  0
LINE
  5
96C
100
AcDbEntity
  8
M0
 62
     2
100
AcDbLine
 10
265.178439
 20
62.73453
 11
265.509919
 21
63.06601
  0
LINE
  5
96D
100
AcDbEntity
  8
M0
 62
     2
100
AcDbLine
 10
265.179337
 20
62.736416
 11
265.508032
 21
63.065111
  0
LINE
  5
96E
100
AcDbEntity
  8
M0
 62
     2
100
AcDbLine
 10
265.18025
 20
62.738316
 11
265.506132
 21
63.064199
  0
LINE
  5
96F
100
AcDbEntity
  8
M0
 62
     2
100
AcDbLine
 10
265.181176
 20
62.74023
 11
265.504219
 21
63.063273
  0
LINE
  5
970
100
AcDbEntity
  8
M0
 62
     2
100
AcDbLine
 10
265.182116
 20
62.742158
 11
265.502291
 21
63.062333
  0
LINE
  5
971
100
AcDbEntity
  8
M0
 62
     2
100
AcDbLine
 10
265.18307
 20
62.7441
 11
265.500349
 21
63.061378
  0
LINE
  5
972
100
AcDbEntity
  8
M0
 62
     2
100
AcDbLine
 10
265.18404
 20
62.746057
 11
265.498391
 21
63.060409
  0
LINE
  5
973
100
AcDbEntity
  8
M0
 62
     2
100
AcDbLine
 10
265.185025
 20
62.74803
 11
265.496419
 21
63.059424
  0
LINE
  5
974
100
AcDbEntity
  8
M0
 62
     2
100
AcDbLine
 10
265.186025
 20
62.750018
 11
265.494431
 21
63.058423
  0
LINE
  5
975
100
AcDbEntity
  8
M0
 62
     2
100
AcDbLine
 10
265.187042
 20
62.752023
 11
265.492426
 21
63.057407
  0
LINE
  5
976
100
AcDbEntity
  8
M0
 62
     2
100
AcDbLine
 10
265.188076
 20
62.754044
 11
265.490405
 21
63.056373
  0
LINE
  5
977
100
AcDbEntity
  8
M0
 62
     2
100
AcDbLine
 10
265.189127
 20
62.756083
 11
265.488366
 21
63.055322
  0
LINE
  5
978
100
AcDbEntity
  8
M0
 62
     2
100
AcDbLine
 10
265.190195
 20
62.758139
 11
265.48631
 21
63.054254
  0
LINE
  5
979
100
AcDbEntity
  8
M0
 62
     2
100
AcDbLine
 10
265.191282
 20
62.760213
 11
265.484236
 21
63.053167
  0
LINE
  5
97A
100
AcDbEntity
  8
M0
 62
     2
100
AcDbLine
 10
265.192388
 20
62.762307
 11
265.482142
 21
63.052061
  0
LINE
  5
97B
100
AcDbEntity
  8
M0
 62
     2
100
AcDbLine
 10
265.193513
 20
62.76442
 11
265.480029
 21
63.050936
  0
LINE
  5
97C
100
AcDbEntity
  8
M0
 62
     2
100
AcDbLine
 10
265.194659
 20
62.766553
 11
265.477896
 21
63.04979
  0
LINE
  5
97D
100
AcDbEntity
  8
M0
 62
     2
100
AcDbLine
 10
265.195825
 20
62.768707
 11
265.475742
 21
63.048624
  0
LINE
  5
97E
100
AcDbEntity
  8
M0
 62
     2
100
AcDbLine
 10
265.197013
 20
62.770883
 11
265.473566
 21
63.047435
  0
LINE
  5
97F
100
AcDbEntity
  8
M0
 62
     2
100
AcDbLine
 10
265.198224
 20
62.773082
 11
265.471367
 21
63.046225
  0
LINE
  5
980
100
AcDbEntity
  8
M0
 62
     2
100
AcDbLine
 10
265.199458
 20
62.775303
 11
265.469146
 21
63.044991
  0
LINE
  5
981
100
AcDbEntity
  8
M0
 62
     2
100
AcDbLine
 10
265.200717
 20
62.777549
 11
265.466899
 21
63.043732
  0
LINE
  5
982
100
AcDbEntity
  8
M0
 62
     2
100
AcDbLine
 10
265.202
 20
62.779821
 11
265.464628
 21
63.042449
  0
LINE
  5
983
100
AcDbEntity
  8
M0
 62
     2
100
AcDbLine
 10
265.20331
 20
62.782118
 11
265.462331
 21
63.041139
  0
LINE
  5
984
100
AcDbEntity
  8
M0
 62
     2
100
AcDbLine
 10
265.204647
 20
62.784443
 11
265.460006
 21
63.039802
  0
LINE
  5
985
100
AcDbEntity
  8
M0
 62
     2
100
AcDbLine
 10
265.206013
 20
62.786797
 11
265.457652
 21
63.038436
  0
LINE
  5
986
100
AcDbEntity
  8
M0
 62
     2
100
AcDbLine
 10
265.207409
 20
62.78918
 11
265.455269
 21
63.03704
  0
LINE
  5
987
100
AcDbEntity
  8
M0
 62
     2
100
AcDbLine
 10
265.208836
 20
62.791595
 11
265.452854
 21
63.035613
  0
LINE
  5
988
100
AcDbEntity
  8
M0
 62
     2
100
AcDbLine
 10
265.210295
 20
62.794042
 11
265.450407
 21
63.034153
  0
LINE
  5
989
100
AcDbEntity
  8
M0
 62
     2
100
AcDbLine
 10
265.211789
 20
62.796524
 11
265.447925
 21
63.032659
  0
LINE
  5
98A
100
AcDbEntity
  8
M0
 62
     2
100
AcDbLine
 10
265.21332
 20
62.799042
 11
265.445407
 21
63.031129
  0
LINE
  5
98B
100
AcDbEntity
  8
M0
 62
     2
100
AcDbLine
 10
265.214888
 20
62.801598
 11
265.442851
 21
63.029561
  0
LINE
  5
98C
100
AcDbEntity
  8
M0
 62
     2
100
AcDbLine
 10
265.216496
 20
62.804194
 11
265.440255
 21
63.027952
  0
LINE
  5
98D
100
AcDbEntity
  8
M0
 62
     2
100
AcDbLine
 10
265.218147
 20
62.806833
 11
265.437616
 21
63.026301
  0
LINE
  5
98E
100
AcDbEntity
  8
M0
 62
     2
100
AcDbLine
 10
265.219844
 20
62.809516
 11
265.434933
 21
63.024605
  0
LINE
  5
98F
100
AcDbEntity
  8
M0
 62
     2
100
AcDbLine
 10
265.221587
 20
62.812248
 11
265.432201
 21
63.022861
  0
LINE
  5
990
100
AcDbEntity
  8
M0
 62
     2
100
AcDbLine
 10
265.223382
 20
62.81503
 11
265.429418
 21
63.021067
  0
LINE
  5
991
100
AcDbEntity
  8
M0
 62
     2
100
AcDbLine
 10
265.225231
 20
62.817867
 11
265.426582
 21
63.019217
  0
LINE
  5
992
100
AcDbEntity
  8
M0
 62
     2
100
AcDbLine
 10
265.227139
 20
62.820763
 11
265.423686
 21
63.01731
  0
LINE
  5
993
100
AcDbEntity
  8
M0
 62
     2
100
AcDbLine
 10
265.229109
 20
62.823721
 11
265.420728
 21
63.015339
  0
LINE
  5
994
100
AcDbEntity
  8
M0
 62
     2
100
AcDbLine
 10
265.231147
 20
62.826746
 11
265.417703
 21
63.013301
  0
LINE
  5
995
100
AcDbEntity
  8
M0
 62
     2
100
AcDbLine
 10
265.233259
 20
62.829845
 11
265.414604
 21
63.01119
  0
LINE
  5
996
100
AcDbEntity
  8
M0
 62
     2
100
AcDbLine
 10
265.23545
 20
62.833024
 11
265.411425
 21
63.008999
  0
LINE
  5
997
100
AcDbEntity
  8
M0
 62
     2
100
AcDbLine
 10
265.237729
 20
62.836291
 11
265.408158
 21
63.00672
  0
LINE
  5
998
100
AcDbEntity
  8
M0
 62
     2
100
AcDbLine
 10
265.240104
 20
62.839653
 11
265.404796
 21
63.004345
  0
LINE
  5
999
100
AcDbEntity
  8
M0
 62
     2
100
AcDbLine
 10
265.242585
 20
62.843122
 11
265.401326
 21
63.001864
  0
LINE
  5
99A
100
AcDbEntity
  8
M0
 62
     2
100
AcDbLine
 10
265.245186
 20
62.846711
 11
265.397738
 21
62.999263
  0
LINE
  5
99B
100
AcDbEntity
  8
M0
 62
     2
100
AcDbLine
 10
265.247921
 20
62.850434
 11
265.394015
 21
62.996528
  0
LINE
  5
99C
100
AcDbEntity
  8
M0
 62
     2
100
AcDbLine
 10
265.250809
 20
62.854309
 11
265.390139
 21
62.99364
  0
LINE
  5
99D
100
AcDbEntity
  8
M0
 62
     2
100
AcDbLine
 10
265.253874
 20
62.858362
 11
265.386087
 21
62.990575
  0
LINE
  5
99E
100
AcDbEntity
  8
M0
 62
     2
100
AcDbLine
 10
265.257145
 20
62.862621
 11
265.381828
 21
62.987304
  0
LINE
  5
99F
100
AcDbEntity
  8
M0
 62
     2
100
AcDbLine
 10
265.260663
 20
62.867126
 11
265.377323
 21
62.983786
  0
LINE
  5
9A0
100
AcDbEntity
  8
M0
 62
     2
100
AcDbLine
 10
265.264482
 20
62.871933
 11
265.372515
 21
62.979967
  0
LINE
  5
9A1
100
AcDbEntity
  8
M0
 62
     2
100
AcDbLine
 10
265.268682
 20
62.877121
 11
265.367328
 21
62.975766
  0
LINE
  5
9A2
100
AcDbEntity
  8
M0
 62
     2
100
AcDbLine
 10
265.273385
 20
62.882811
 11
265.361638
 21
62.971064
  0
LINE
  5
9A3
100
AcDbEntity
  8
M0
 62
     2
100
AcDbLine
 10
265.278793
 20
62.889207
 11
265.355242
 21
62.965656
  0
LINE
  5
9A4
100
AcDbEntity
  8
M0
 62
     2
100
AcDbLine
 10
265.285306
 20
62.896708
 11
265.347741
 21
62.959143
  0
LINE
  5
9A5
100
AcDbEntity
  8
M0
 62
     2
100
AcDbLine
 10
265.29395
 20
62.906339
 11
265.338109
 21
62.950499
  0
TEXT
  5
9A6
100
AcDbEntity
  8
M0
 62
     2
100
AcDbText
 10
244.641034
 20
71.304719
 40
2.82852
  1
１（強）
 41
0.636375
  7
STANDARD
100
AcDbText
  0
TEXT
  5
9A7
100
AcDbEntity
  8
M0
 62
     2
100
AcDbText
 10
244.641034
 20
67.579689
 40
2.82852
  1
３（弱）
 41
0.636375
  7
STANDARD
100
AcDbText
  0
TEXT
  5
9A8
100
AcDbEntity
  8
M0
 62
     2
100
AcDbText
 10
202.453106
 20
104.037366
 40
2.82852
  1
　ＭＮ－１２０ＴＦＣ１形、ＭＮ－１５０ＴＦＣ形に接続する場合は、下図
 41
0.67284
  7
STANDARD
100
AcDbText
  0
TEXT
  5
9A9
100
AcDbEntity
  8
M0
 62
     2
100
AcDbText
 10
202.453106
 20
99.977773
 40
2.82852
  1
　により結線してください。
 41
0.67284
  7
STANDARD
100
AcDbText
  0
LINE
  5
9AA
100
AcDbEntity
  8
M0
 62
     5
100
AcDbLine
 10
252.365624
 20
137.930463
 11
230.852024
 21
137.930463
  0
LINE
  5
9AB
100
AcDbEntity
  8
M0
 62
     5
100
AcDbLine
 10
230.852024
 20
124.538463
 11
252.365624
 21
124.538463
  0
LINE
  5
9AC
100
AcDbEntity
  8
M0
 62
     5
100
AcDbLine
 10
232.320824
 20
131.234463
 11
238.628024
 21
131.234463
  0
CIRCLE
  5
9AD
100
AcDbEntity
  8
M0
 62
     5
100
AcDbCircle
 10
245.077559
 20
133.826463
 40
0.3888
  0
CIRCLE
  5
9AE
100
AcDbEntity
  8
M0
 62
     5
100
AcDbCircle
 10
245.077559
 20
128.642463
 40
0.3888
  0
LINE
  5
9AF
100
AcDbEntity
  8
M0
 62
     5
100
AcDbLine
 10
245.077559
 20
135.597663
 11
250.176824
 21
135.597663
  0
LINE
  5
9B0
100
AcDbEntity
  8
M0
 62
     5
100
AcDbLine
 10
245.077559
 20
126.871263
 11
250.176824
 21
126.871263
  0
LINE
  5
9B1
100
AcDbEntity
  8
M0
 62
     5
100
AcDbLine
 10
245.077559
 20
135.597663
 11
245.077559
 21
134.215263
  0
LINE
  5
9B2
100
AcDbEntity
  8
M0
 62
     5
100
AcDbLine
 10
245.077559
 20
128.253663
 11
245.077559
 21
126.871263
  0
TEXT
  5
9B3
100
AcDbEntity
  8
M0
 62
     5
100
AcDbText
 10
250.413126
 20
127.913534
 40
2.916
  1
３
 41
0.888889
  7
STANDARD
100
AcDbText
  0
TEXT
  5
9B4
100
AcDbEntity
  8
M0
 62
     5
100
AcDbText
 10
250.413126
 20
131.75377
 40
2.916
  1
１
 41
0.888889
  7
STANDARD
100
AcDbText
  0
LINE
  5
9B5
100
AcDbEntity
  8
M0
 62
     5
100
AcDbLine
 10
218.198592
 20
130.911791
 11
215.865792
 21
131.536863
  0
LINE
  5
9B6
100
AcDbEntity
  8
M0
 62
     5
100
AcDbLine
 10
218.198592
 20
132.161935
 11
215.865792
 21
131.536863
  0
LINE
  5
9B7
100
AcDbEntity
  8
M0
 62
     5
100
AcDbLine
 10
218.198592
 20
126.246191
 11
215.865792
 21
126.871263
  0
LINE
  5
9B8
100
AcDbEntity
  8
M0
 62
     5
100
AcDbLine
 10
218.198592
 20
127.496335
 11
215.865792
 21
126.871263
  0
TEXT
  5
9B9
100
AcDbEntity
  8
M0
 62
     5
100
AcDbText
 10
202.123211
 20
129.630494
 40
2.916
  1
電　源
 41
0.888889
  7
STANDARD
100
AcDbText
  0
TEXT
  5
9BA
100
AcDbEntity
  8
M0
 62
     5
100
AcDbText
 10
197.622851
 20
126.111566
 40
2.916
  1
ＡＣ１００Ｖ
 41
0.655556
  7
STANDARD
100
AcDbText
  0
LINE
  5
9BB
100
AcDbEntity
  8
M0
  6
DASHED
 62
     5
100
AcDbLine
 10
215.865792
 20
126.871263
 11
231.600824
 21
126.871263
  0
LINE
  5
9BC
100
AcDbEntity
  8
M0
  6
DASHED
 62
     5
100
AcDbLine
 10
226.565331
 20
131.536863
 11
215.865792
 21
131.536863
  0
LINE
  5
9BD
100
AcDbEntity
  8
M0
 62
     5
100
AcDbLine
 10
252.365624
 20
156.171408
 11
230.852024
 21
156.171408
  0
LINE
  5
9BE
100
AcDbEntity
  8
M0
 62
     5
100
AcDbLine
 10
230.852024
 20
142.779408
 11
252.365624
 21
142.779408
  0
LINE
  5
9BF
100
AcDbEntity
  8
M0
 62
     5
100
AcDbLine
 10
254.093624
 20
144.507408
 11
254.093624
 21
154.443408
  0
LINE
  5
9C0
100
AcDbEntity
  8
M0
 62
     5
100
AcDbLine
 10
229.124024
 20
154.443408
 11
229.124024
 21
144.507408
  0
ARC
  5
9C1
100
AcDbEntity
  8
M0
 62
     5
100
AcDbCircle
 10
252.365624
 20
154.443408
 40
1.728
100
AcDbArc
 50
0.0
 51
90.0
  0
ARC
  5
9C2
100
AcDbEntity
  8
M0
 62
     5
100
AcDbCircle
 10
230.852024
 20
154.443408
 40
1.728
100
AcDbArc
 50
90.0
 51
180.0
  0
ARC
  5
9C3
100
AcDbEntity
  8
M0
 62
     5
100
AcDbCircle
 10
230.852024
 20
144.507408
 40
1.728
100
AcDbArc
 50
180.0
 51
270.0
  0
ARC
  5
9C4
100
AcDbEntity
  8
M0
 62
     5
100
AcDbCircle
 10
252.365624
 20
144.507408
 40
1.728
100
AcDbArc
 50
270.0
 51
360.0
  0
LINE
  5
9C5
100
AcDbEntity
  8
M0
 62
     5
100
AcDbLine
 10
232.320824
 20
153.118608
 11
232.320824
 21
145.832208
  0
LINE
  5
9C6
100
AcDbEntity
  8
M0
 62
     5
100
AcDbLine
 10
250.896824
 20
153.118608
 11
250.896824
 21
145.832208
  0
TEXT
  5
9C7
100
AcDbEntity
  8
M0
 62
     5
100
AcDbText
 10
229.711948
 20
147.165108
 40
2.916
  1
１
 41
0.888889
  7
STANDARD
100
AcDbText
  0
TEXT
  5
9C8
100
AcDbEntity
  8
M0
 62
     5
100
AcDbText
 10
251.099817
 20
147.165108
 40
2.916
  1
２
 41
0.888889
  7
STANDARD
100
AcDbText
  0
LINE
  5
9C9
100
AcDbEntity
  8
M0
  6
DASHED
 62
     5
100
AcDbLine
 10
251.616824
 20
145.112208
 11
258.413624
 21
145.112208
  0
LINE
  5
9CA
100
AcDbEntity
  8
M0
  6
DASHED
 62
     5
100
AcDbLine
 10
258.413624
 20
139.323408
 11
258.413624
 21
145.112208
  0
LINE
  5
9CB
100
AcDbEntity
  8
M0
  6
DASHED
 62
     5
100
AcDbLine
 10
258.413624
 20
139.323408
 11
226.565331
 21
139.323408
  0
LINE
  5
9CC
100
AcDbEntity
  8
M0
 62
     5
100
AcDbLine
 10
261.116311
 20
134.972591
 11
263.449111
 21
135.597663
  0
LINE
  5
9CD
100
AcDbEntity
  8
M0
 62
     5
100
AcDbLine
 10
261.116311
 20
136.222735
 11
263.449111
 21
135.597663
  0
LINE
  5
9CE
100
AcDbEntity
  8
M0
  6
DASHED
 62
     5
100
AcDbLine
 10
251.616824
 20
135.597663
 11
263.449111
 21
135.597663
  0
TEXT
  5
9CF
100
AcDbEntity
  8
M0
 62
     5
100
AcDbText
 10
265.090798
 20
134.061967
 40
2.916
  1
強（白）
 41
0.888889
  7
STANDARD
100
AcDbText
  0
LINE
  5
9D0
100
AcDbEntity
  8
M0
 62
     5
100
AcDbLine
 10
261.116311
 20
126.246191
 11
263.449111
 21
126.871263
  0
LINE
  5
9D1
100
AcDbEntity
  8
M0
 62
     5
100
AcDbLine
 10
261.116311
 20
127.496335
 11
263.449111
 21
126.871263
  0
LINE
  5
9D2
100
AcDbEntity
  8
M0
  6
DASHED
 62
     5
100
AcDbLine
 10
251.616824
 20
126.871263
 11
263.449111
 21
126.871263
  0
TEXT
  5
9D3
100
AcDbEntity
  8
M0
 62
     5
100
AcDbText
 10
265.090798
 20
125.081608
 40
2.916
  1
弱（黒）
 41
0.888889
  7
STANDARD
100
AcDbText
  0
LINE
  5
9D4
100
AcDbEntity
  8
M0
 62
     5
100
AcDbLine
 10
218.198592
 20
145.73728
 11
215.865792
 21
145.112208
  0
LINE
  5
9D5
100
AcDbEntity
  8
M0
 62
     5
100
AcDbLine
 10
218.198592
 20
144.487136
 11
215.865792
 21
145.112208
  0
TEXT
  5
9D6
100
AcDbEntity
  8
M0
 62
     5
100
AcDbText
 10
200.672224
 20
143.664078
 40
2.916
  1
共通（赤）
 41
0.888889
  7
STANDARD
100
AcDbText
  0
LINE
  5
9D7
100
AcDbEntity
  8
M0
  6
DASHED
 62
     5
100
AcDbLine
 10
231.600824
 20
145.112208
 11
215.865792
 21
145.112208
  0
LINE
  5
9D8
100
AcDbEntity
  8
M0
  6
DASHED
 62
     5
100
AcDbLine
 10
226.565331
 20
139.323408
 11
226.565331
 21
131.536863
  0
ARC
  5
9D9
100
AcDbEntity
  8
M0
 62
     5
100
AcDbCircle
 10
217.695334
 20
129.415536
 40
4.264321
100
AcDbArc
 50
229.447538
 51
492.403172
  0
LINE
  5
9DA
100
AcDbEntity
  8
M0
 62
     5
100
AcDbLine
 10
229.124024
 20
136.202463
 11
229.124024
 21
126.266463
  0
ARC
  5
9DB
100
AcDbEntity
  8
M0
 62
     5
100
AcDbCircle
 10
230.852024
 20
136.202463
 40
1.728
100
AcDbArc
 50
90.0
 51
180.0
  0
ARC
  5
9DC
100
AcDbEntity
  8
M0
 62
     5
100
AcDbCircle
 10
230.852024
 20
126.266463
 40
1.728
100
AcDbArc
 50
180.0
 51
270.0
  0
LINE
  5
9DD
100
AcDbEntity
  8
M0
 62
     5
100
AcDbLine
 10
254.093624
 20
126.266463
 11
254.093624
 21
136.202463
  0
ARC
  5
9DE
100
AcDbEntity
  8
M0
 62
     5
100
AcDbCircle
 10
252.365624
 20
136.202463
 40
1.728
100
AcDbArc
 50
0.0
 51
90.0
  0
ARC
  5
9DF
100
AcDbEntity
  8
M0
 62
     5
100
AcDbCircle
 10
252.365624
 20
126.266463
 40
1.728
100
AcDbArc
 50
270.0
 51
360.0
  0
LINE
  5
9E0
100
AcDbEntity
  8
M0
 62
     5
100
AcDbLine
 10
232.320824
 20
134.877663
 11
232.320824
 21
127.591263
  0
TEXT
  5
9E1
100
AcDbEntity
  8
M0
 62
     5
100
AcDbText
 10
229.711948
 20
129.623179
 40
2.916
  1
０
 41
0.888889
  7
STANDARD
100
AcDbText
  0
CIRCLE
  5
9E2
100
AcDbEntity
  8
M0
 62
     5
100
AcDbCircle
 10
239.016824
 20
131.234463
 40
0.3888
  0
LINE
  5
9E3
100
AcDbEntity
  8
M0
 62
     5
100
AcDbLine
 10
239.3827
 20
131.365995
 11
246.294871
 21
133.850927
  0
CIRCLE
  5
9E4
100
AcDbEntity
  8
M0
 62
     5
100
AcDbCircle
 10
232.320824
 20
145.112208
 40
0.72
  0
CIRCLE
  5
9E5
100
AcDbEntity
  8
M0
 62
     5
100
AcDbCircle
 10
232.320824
 20
153.838608
 40
0.72
  0
CIRCLE
  5
9E6
100
AcDbEntity
  8
M0
 62
     5
100
AcDbCircle
 10
250.896824
 20
153.838608
 40
0.72
  0
CIRCLE
  5
9E7
100
AcDbEntity
  8
M0
 62
     5
100
AcDbCircle
 10
250.896824
 20
145.112208
 40
0.72
  0
CIRCLE
  5
9E8
100
AcDbEntity
  8
M0
 62
     5
100
AcDbCircle
 10
250.896824
 20
135.597663
 40
0.72
  0
CIRCLE
  5
9E9
100
AcDbEntity
  8
M0
 62
     5
100
AcDbCircle
 10
250.896824
 20
126.871263
 40
0.72
  0
CIRCLE
  5
9EA
100
AcDbEntity
  8
M0
 62
     5
100
AcDbCircle
 10
232.320824
 20
135.597663
 40
0.72
  0
CIRCLE
  5
9EB
100
AcDbEntity
  8
M0
 62
     5
100
AcDbCircle
 10
232.320824
 20
126.871263
 40
0.72
  0
TEXT
  5
9EC
100
AcDbEntity
  8
M0
 62
     5
100
AcDbText
 10
195.598975
 20
154.727554
 40
3.5
  1
■　結線図
 41
0.871905
  7
STANDARD
100
AcDbText
  0
LINE
  5
9ED
100
AcDbEntity
  8
M0
 62
     5
100
AcDbLine
 10
241.779383
 20
152.48114
 11
240.195383
 21
152.48114
  0
ARC
  5
9EE
100
AcDbEntity
  8
M0
 62
     5
100
AcDbCircle
 10
239.331383
 20
152.48114
 40
0.864
100
AcDbArc
 50
1.875833E-012
 51
237.465336
  0
ARC
  5
9EF
100
AcDbEntity
  8
M0
 62
     5
100
AcDbCircle
 10
238.402048
 20
152.48114
 40
0.864
100
AcDbArc
 50
-57.465336
 51
232.074253
  0
ARC
  5
9F0
100
AcDbEntity
  8
M0
 62
     5
100
AcDbCircle
 10
237.33995
 20
152.48114
 40
0.864
100
AcDbArc
 50
-52.074253
 51
238.593423
  0
ARC
  5
9F1
100
AcDbEntity
  8
M0
 62
     5
100
AcDbCircle
 10
236.439477
 20
152.48114
 40
0.864
100
AcDbArc
 50
-58.593423
 51
180.0
  0
LINE
  5
9F2
100
AcDbEntity
  8
M0
 62
     5
100
AcDbLine
 10
235.575477
 20
152.48114
 11
233.991477
 21
152.48114
  0
LINE
  5
9F3
100
AcDbEntity
  8
M0
 62
     5
100
AcDbLine
 10
233.991477
 20
152.48114
 11
233.991477
 21
154.20914
  0
LINE
  5
9F4
100
AcDbEntity
  8
M0
 62
     5
100
AcDbLine
 10
233.991477
 20
154.20914
 11
236.439477
 21
154.20914
  0
LINE
  5
9F5
100
AcDbEntity
  8
M0
 62
     5
100
AcDbLine
 10
236.439477
 20
153.77714
 11
239.463477
 21
153.77714
  0
LINE
  5
9F6
100
AcDbEntity
  8
M0
 62
     5
100
AcDbLine
 10
236.439477
 20
154.64114
 11
239.463477
 21
154.64114
  0
LINE
  5
9F7
100
AcDbEntity
  8
M0
 62
     5
100
AcDbLine
 10
239.463477
 20
153.77714
 11
239.463477
 21
154.64114
  0
LINE
  5
9F8
100
AcDbEntity
  8
M0
 62
     5
100
AcDbLine
 10
239.463477
 20
154.20914
 11
241.779383
 21
154.20914
  0
LINE
  5
9F9
100
AcDbEntity
  8
M0
 62
     5
100
AcDbLine
 10
241.779383
 20
152.48114
 11
241.779383
 21
154.20914
  0
LINE
  5
9FA
100
AcDbEntity
  8
M0
 62
     5
100
AcDbLine
 10
236.439477
 20
154.64114
 11
236.439477
 21
153.77714
  0
LINE
  5
9FB
100
AcDbEntity
  8
M0
 62
     5
100
AcDbLine
 10
239.619997
 20
150.272985
 11
235.78721
 21
150.272985
  0
LINE
  5
9FC
100
AcDbEntity
  8
M0
 62
     5
100
AcDbLine
 10
239.631541
 20
150.965657
 11
235.833388
 21
150.965657
  0
ARC
  5
9FD
100
AcDbEntity
  8
M0
 62
     5
100
AcDbCircle
 10
239.331383
 20
148.611408
 40
0.864
100
AcDbArc
 50
0.0
 51
237.465336
  0
ARC
  5
9FE
100
AcDbEntity
  8
M0
 62
     5
100
AcDbCircle
 10
238.402048
 20
148.611408
 40
0.864
100
AcDbArc
 50
-57.465336
 51
232.074253
  0
ARC
  5
9FF
100
AcDbEntity
  8
M0
 62
     5
100
AcDbCircle
 10
237.33995
 20
148.611408
 40
0.864
100
AcDbArc
 50
-52.074253
 51
238.593423
  0
ARC
  5
A00
100
AcDbEntity
  8
M0
 62
     5
100
AcDbCircle
 10
236.439477
 20
148.611408
 40
0.864
100
AcDbArc
 50
-58.593423
 51
180.0
  0
LINE
  5
A01
100
AcDbEntity
  8
M0
 62
     5
100
AcDbLine
 10
243.812024
 20
148.611408
 11
240.195383
 21
148.611408
  0
CIRCLE
  5
A02
100
AcDbEntity
  8
M0
 62
     5
100
AcDbCircle
 10
244.200824
 20
148.611408
 40
0.3888
  0
LINE
  5
A03
100
AcDbEntity
  8
M0
 62
     5
100
AcDbLine
 10
235.575477
 20
148.611408
 11
232.320824
 21
148.611408
  0
LINE
  5
A04
100
AcDbEntity
  8
M0
 62
     5
100
AcDbLine
 10
250.896824
 20
148.611408
 11
243.964981
 21
151.005538
  0
TEXT
  5
A05
100
AcDbEntity
  8
M0
 62
     5
100
AcDbText
 10
242.693794
 20
153.037609
 40
2.16
  1
ＬＥＤ
 41
0.797222
  7
STANDARD
100
AcDbText
  0
TEXT
  5
A06
100
AcDbEntity
  8
M0
 62
     5
100
AcDbText
 10
127.652651
 20
23.861942
 40
3.5
  1
■　定格：４Ａ
 41
0.871905
  7
STANDARD
100
AcDbText
  0
TEXT
  5
A07
100
AcDbEntity
  8
M0
 62
     5
100
AcDbText
 10
127.652651
 20
18.128964
 40
3.5
  1
■　付属品：２４時間ラベル（１枚）
 41
0.871905
  7
STANDARD
100
AcDbText
  0
ENDSEC
  0
SECTION
  2
OBJECTS
  0
DICTIONARY
  5
C
100
AcDbDictionary
  3
ACAD_GROUP
350
D
  3
ACAD_MLINESTYLE
350
E
  0
DICTIONARY
  5
D
102
{ACAD_REACTORS
330
C
102
}
100
AcDbDictionary
  0
DICTIONARY
  5
E
102
{ACAD_REACTORS
330
C
102
}
100
AcDbDictionary
  3
STANDARD
350
13
  0
MLINESTYLE
  5
13
102
{ACAD_REACTORS
330
E
102
}
100
AcDbMlineStyle
  2
STANDARD
 70
     0
  3

 62
     0
 51
90.0
 52
90.0
 71
     2
 49
0.5
 62
   256
  6
BYLAYER
 49
-0.5
 62
   256
  6
BYLAYER
  0
ENDSEC
  0
EOF
